#TITLE:bad guy;
#SUBTITLE:;
#ARTIST:Billie Eilish;
#TITLETRANSLIT:;
#SUBTITLETRANSLIT:;
#ARTISTTRANSLIT:;
#GENRE:Trap Pop;
#CREDIT:;
#BANNER:bad guy-bn.png;
#BACKGROUND:bad guy-bg.png;
#LYRICSPATH:;
#CDTITLE:cdtitle.png;
#MUSIC:bad guy.ogg;
#OFFSET:-0.013000;
#SAMPLESTART:60.457001;
#SAMPLELENGTH:14.223000;
#SELECTABLE:YES;
#BPMS:0.000000=135.000000
,189.000000=120.000000
;
#STOPS:30.000000=0.222000,
30.500000=0.222000,
61.000000=0.222000,
61.500000=0.222000,
90.000000=1.333000,
104.000000=0.889000,
118.000000=0.444000,
125.000000=0.889000,
188.000000=2.222000
;
#BGCHANGES:0.000=bad guy.avi=1.000=0=0=0=StretchNoLoop====,
99999=-nosongbg-=1.000=0=0=0 // don't automatically add -songbackground-
;
#KEYSOUNDS:;
#ATTACKS:;

//---------------dance-single - ----------------
#NOTES:
     dance-single:
     X-Scale 11:
     Hard:
     8:
     0.502987,0.538555,0.320777,0.488803,0.080194,461.000000,419.000000,42.000000,64.000000,5.000000,0.000000,0.502987,0.538555,0.320777,0.488803,0.080194,461.000000,419.000000,42.000000,64.000000,5.000000,0.000000:
0000
0000
0000
0000
,
0000
0000
0000
0000
,
0000
0000
0000
0000
,
0000
0000
0000
0000
,
2100
0000
3001
1000
0100
0010
0001
1000
,
0001
0010
0100
1000
0001
1000
0020
0000
,
0230
0000
0301
0100
1000
0100
0001
1000
,
0010
0100
0001
1000
1001
0110
2001
0000
,
3200
0000
1300
0200
0300
2000
3000
0002
,
0003
0200
0300
0020
0230
0000
0302
0000
,
2003
0000
3010
2000
3000
0002
0003
2000
,
3000
0200
0300
0020
0032
0000
2003
0000
,
3200
0000
1300
0020
0030
0002
0003
0020
,
0030
2000
3000
0200
2300
0000
3002
0000
,
0203
0000
0310
2000
3000
0002
0003
0200
,
0301
0100
0101
1100
0102
0000
1003
0100
,
0001
0100
0010
0002
0003
2000
3000
0001
,
0100
0010
2000
0000
3200
0000
1300
0100
,
0001
1000
0010
0002
0003
2000
3000
0010
,
0100
0001
2000
0000
3002
0000
0013
1000
,
0010
0001
0010
0200
0300
0020
0030
0001
,
0100
0010
2000
0000
3002
0000
1003
0100
,
0001
1000
0010
0001
0011
0000
1001
1000
,
0100
0001
0100
0010
0001
1000
0010
0100
,
0001
1000
0001
0010
0100
1000
0001
1000
,
0010
0100
1000
0100
0001
1000
0001
0010
,
0011
0000
1010
1000
0100
0001
0100
0010
,
0001
1000
0001
0100
0010
0001
0010
1000
,
0010
0100
0001
1000
0100
0010
0001
1000
,
0001
0000
0010
0000
0100
0000
1000
0000
0101
0000
0000
0000
1000
0000
0000
0100
,
0000
4000
0000
0000
0000
3000
0004
0000
,
0000
0000
0000
0000
0000
0000
0000
0000
0000
0000
0000
0000
0000
0000
0000
0000
0000
0000
0000
0000
0000
0000
0000
0000
0000
0000
0000
0000
0000
0000
0000
0000
0000
0000
0000
0000
0000
0000
0000
0000
0000
0000
0000
0000
0000
0000
0000
0000
0003
MMMM
0000
0000
0000
0000
0000
0000
0000
0000
0000
0000
0000
0000
0000
0000
0000
0000
0000
0000
0000
0000
0000
0000
0000
0000
0000
0000
0000
0000
0000
0000
0000
0000
0000
0000
0000
0000
0000
0000
0000
0000
0000
0000
0000
0000
0000
0000
1001
0000
0000
0000
0000
0000
0000
0000
0000
0000
0000
0000
0000
0000
0000
0000
0000
0000
0000
0000
0000
0000
0000
0000
1000
0000
0000
0000
0000
0000
0000
0000
0000
0000
0000
0000
0000
0000
0000
0000
0000
0000
0000
0000
0000
0000
0000
0000
0000
0000
0000
0000
0000
0000
0000
0000
0000
0000
0000
0000
0000
0000
0000
0000
0000
0000
0000
0000
0000
0000
0000
0000
0001
0000
0000
0000
0000
0000
0000
0000
0000
0000
0000
0000
0000
0000
0000
0000
0000
0000
0000
0000
0000
0000
0000
0000
,
0010
0100
1000
0001
1000
0010
0000
0100
,
1000
0100
0001
0100
0010
1000
0000
0001
,
0010
0100
1000
0010
0100
0001
0000
1000
,
0010
0001
0010
0100
0010
1000
0000
0001
,
0010
0100
1000
0001
1000
0010
0000
1000
,
0100
0001
1000
0010
0001
1000
0000
0001
,
0100
0001
1000
0100
1000
0010
0001
0010
,
1000
0000
0110
0000
1001
1000
0000
0001
,
0100
1000
0001
0010
1000
0001
0000
1000
,
0100
0001
1000
0010
0001
1000
0000
0010
,
0100
1000
0100
0001
1000
0010
0001
0010
,
0100
0010
1000
0001
0100
0010
0000
1000
,
0001
0100
1000
0100
0010
1000
0000
0001
,
0010
0100
0010
0001
1000
0001
0000
0001
,
1000
0100
0010
0100
2000
3002
2003
3002
,
0003
0000
1100
1000
0100
1000
0101
0000
,
2002
0000
3003
1000
0100
0010
0011
0000
,
4000
0000
0000
0000
3000
0000
1001
0000
0000
0001
0000
0000
0100
0000
0000
0001
0000
0000
1100
0000
0000
0000
0000
0000
,
2002
0000
3003
1000
0010
0100
0001
0000
,
1000
0000
0000
0000
0010
0000
0000
0000
0100
0000
0000
0000
0101
0000
0000
0000
0000
0000
0001
0000
0000
1000
0000
0000
0001
0000
0000
0000
0000
0000
0010
0000
0000
0000
0000
0000
0110
0000
0000
0000
0000
0000
1000
0000
0000
0000
0000
0000
,
2002
0000
3003
0001
0100
0010
1010
1000
,
0004
0000
0000
0000
0000
0000
0000
0000
0003
0000
0000
0000
0101
0000
0000
0000
0000
0000
0100
0000
0000
0000
0000
0000
0010
0000
0000
0000
0000
0000
1000
0000
0000
0000
0000
0000
0001
0000
0000
1000
0000
0000
0000
0000
0000
0000
0000
0000
,
2200
0000
0000
0000
3300
0000
1000
0000
0100
0000
0000
1000
0001
0000
0000
0000
,
0100
0000
0000
0000
0010
0000
0000
0000
1000
0000
0000
0000
1001
0000
0000
0000
0000
0000
0001
0000
0000
0100
0000
0000
0001
0000
0000
0000
0000
0000
1000
0000
0000
0000
0000
0000
0100
0000
0000
0000
0000
0000
0000
0000
0000
1000
0000
0000
,
0002
0000
0000
0000
0003
0000
1000
0000
0100
1000
0000
0000
0101
0000
1000
0000
,
0004
0000
0000
0000
0000
0000
1000
0000
0003
0001
0000
0000
1000
0000
0000
0000
0000
0000
0100
0000
0000
0010
0000
0000
0001
0000
0000
0000
0000
0000
1000
0000
0000
0000
0000
0000
0010
0000
0000
0100
0000
0000
0001
0000
0000
0000
0000
0000
,
1000
0000
0001
0000
0010
0000
0100
0000
1000
0000
0000
0001
1000
0000
0000
0000
,
0010
0000
0100
0000
0001
0000
1001
0000
0000
1000
0000
0000
0001
0000
0000
1000
0000
0000
0100
0000
0000
1000
0000
0000
,
1001
0000
0001
0000
0100
0000
0010
0000
1000
0000
0100
0000
0020
0000
0000
0030
,
0042
0000
0000
0000
0000
0000
0000
0000
0030
0003
0000
0000
0011
0000
0000
0000
0000
0000
0100
0000
0000
0000
0000
0000
1000
0000
0000
0000
0000
0000
0001
0000
0000
0000
0000
0000
1000
0000
0000
0000
0000
0000
0010
0000
0000
0000
0000
0000
,
1010
0001
1000
0010
0100
0001
1001
0000
,
2000
0000
0001
3000
1000
0000
1001
0000
0000
0001
0000
0000
0100
0000
0000
0010
0000
0000
1000
0000
0000
0100
0000
0000
,
0110
0000
0010
0000
0001
0000
1000
0000
0001
0000
0100
0000
0020
0000
0000
0030
,
2400
0000
0000
0000
0000
0000
0000
0000
0300
3000
0000
0000
1100
0000
0000
0000
0000
0000
0010
0000
0000
0000
0000
0000
0001
0000
0000
0000
0000
0000
1000
0000
0000
0000
0000
0000
0001
0000
0000
0000
0000
0000
0100
0000
0000
0000
0000
0000
,
0101
1000
0001
0010
0100
1000
1100
0000
,
0002
0000
0000
0000
0003
000M
0000
0000
0000
0000
0000
0000
0000
0000
0000
0000
0000
0000
0000
0000
0000
0000
0000
0000
0000
0000
0000
0000
0000
0000
0000
0000
;

//---------------dance-single - ----------------
#NOTES:
     dance-single:
     X-Scale 9:
     Medium:
     6:
     0.414610,0.487037,0.213851,0.465891,0.049644,380.000000,352.000000,28.000000,61.000000,0.000000,0.000000,0.414610,0.487037,0.213851,0.465891,0.049644,380.000000,352.000000,28.000000,61.000000,0.000000,0.000000:
// measure 0
0000
0000
0000
0000
,  // measure 1
0000
0000
0000
0000
,  // measure 2
0000
0000
0000
0000
,  // measure 3
0000
0000
0000
0000
,  // measure 4
2000
0000
3100
0010
0001
1000
0000
0100
,  // measure 5
0000
1000
0000
0001
0100
0010
2000
0000
,  // measure 6
3002
0000
0103
0001
1000
0001
0000
0010
,  // measure 7
0000
0100
1000
0001
1000
1000
2000
3000
,  // measure 8
0020
0030
1000
0001
0000
0100
0000
0001
,  // measure 9
0000
1000
0000
0100
0020
0000
0032
0003
,  // measure 10
2000
3000
0010
0100
0000
0001
0000
0010
,  // measure 11
0000
0100
0000
1000
0002
0000
2003
3000
,  // measure 12
0200
0300
1000
0001
0000
0010
0000
0001
,  // measure 13
0000
1000
0000
0100
0020
0000
0032
0003
,  // measure 14
2000
3000
0010
1000
0000
0002
0000
0013
,  // measure 15
0002
0000
1003
1001
2000
3000
0002
1003
,  // measure 16
0001
0020
0030
0200
0300
0020
0030
0002
,  // measure 17
0003
2000
0100
0000
3020
0030
0002
0013
,  // measure 18
1000
0002
0003
0200
0300
0020
0030
2000
,  // measure 19
3000
0020
2030
0000
3200
0300
0020
0130
,  // measure 20
0010
0002
0003
2000
3000
0002
0003
0020
,  // measure 21
0030
0200
2300
0000
3020
0030
0200
0310
,  // measure 22
0100
0002
0003
0200
0310
0000
1001
0000
,  // measure 23
0001
1000
0100
1000
0001
0010
0000
0100
,  // measure 24
0000
0010
0001
1000
0001
0000
0010
0000
,  // measure 25
0100
1000
0001
0100
0010
1000
0000
0001
,  // measure 26
0101
0000
1010
0000
1000
0100
0001
1000
,  // measure 27
0010
0001
0000
1000
0000
0001
0010
0100
,  // measure 28
1000
0000
0001
0000
1000
0010
0001
0010
,  // measure 29
0100
0010
1000
0001
1001
0000
0000
0000
,  // measure 30
0000
2000
0000
0000
0000
3000
0002
0000
,  // measure 31
0000
0000
0003
0000
1001
1000
0000
0001
,  // measure 32
0010
1000
0010
0100
1000
0001
0000
1000
,  // measure 33
0010
0001
0010
0100
0010
1000
0000
0001
,  // measure 34
0010
1000
0010
0100
1000
0001
0000
1000
,  // measure 35
0010
0001
0010
0100
0020
1000
0000
0000
,  // measure 36
0100
0030
2000
0000
0001
0000
3100
1000
,  // measure 37
0001
1000
0100
0010
0001
0100
0000
0010
,  // measure 38
0100
1000
0000
1000
0100
0010
0000
1000
,  // measure 39
0000
0001
1001
1000
1100
0100
0000
1000
,  // measure 40
0010
0010
0010
0010
1000
0100
0000
0010
,  // measure 41
0001
0001
0001
0001
1000
0010
0000
0100
,  // measure 42
0001
0001
0001
0001
1000
0001
0000
0010
,  // measure 43
0100
0100
0100
0100
2000
0000
0001
0000
,  // measure 44
0100
0000
0001
0000
0010
0000
3001
1000
,  // measure 45
0100
1000
0010
1000
0002
0000
0100
0000
,  // measure 46
1000
0010
1000
0103
,  // measure 47
0000
2100
0000
3001
,  // measure 48
1001
0000
0100
0000
0001
1000
1010
0000
,  // measure 49
0002
0000
0003
0021
0000
0000
0000
0000
0000
0130
0000
0000
,  // measure 50
1010
0000
0001
0000
1000
0100
1100
0000
,  // measure 51
0001
0000
0000
0000
1000
0000
0000
0000
0001
0000
0000
0000
1001
0000
0000
0000
0000
0000
0000
0000
0000
1000
0000
0000
0100
0000
0000
0000
0000
0000
1000
0000
0000
0000
0000
0000
0001
0000
0000
0000
0000
0000
0010
0000
0000
0000
0000
0000
,  // measure 52
0110
0000
0100
1000
0001
0000
1000
0100
,  // measure 53
0020
0000
0000
0000
0000
0000
0000
0000
0030
0000
0000
0000
1001
0000
0000
0000
0000
0000
1000
0000
0000
0000
0000
0000
0001
0000
0000
0000
0000
0000
0010
0000
0000
0000
0000
0000
0001
0000
0000
1000
0000
0000
0000
0000
0000
0000
0000
0000
,  // measure 54
1100
0000
0000
0000
0100
0000
0010
0000
0001
0000
0000
1000
0001
0000
0000
0000
,  // measure 55
1000
0000
0000
0000
0010
0000
0000
0000
1000
0000
0000
0000
1010
0000
0000
0000
0000
0000
0000
0000
0000
0001
0000
0000
0010
0000
0000
0000
0000
0000
0001
0000
0000
0000
0000
0000
1000
0000
0000
0000
0000
0000
0100
0000
0000
1000
0000
0000
,  // measure 56
0200
0000
0000
0000
0310
0000
0000
0000
0001
0010
0000
0000
0011
0000
0000
0000
,  // measure 57
0200
0000
0000
0000
0300
0000
1000
0000
0000
0001
0000
0000
1000
0000
0000
0001
0000
0000
0010
0000
0000
0100
0000
0000
,  // measure 58
0010
0000
0100
0000
1000
0000
0001
0000
0010
0000
0000
0001
0100
0000
0000
0000
,  // measure 59
0001
0000
0100
0000
0010
0000
0110
0000
0000
0000
0000
0000
0010
0000
0000
0100
0000
0000
0001
0000
0000
0000
0000
0000
,  // measure 60
1001
1000
0000
0000
0010
0001
2000
0000
,  // measure 61
3200
0000
1300
0000
0001
0100
0010
0000
,  // measure 62
0110
0100
0000
0000
0001
0010
0011
0000
,  // measure 63
2000
3000
1010
0000
1000
0100
0010
0000
,  // measure 64
0101
0100
0000
0001
0001
0010
0200
0000
,  // measure 65
2300
0000
3001
0000
1000
0010
1000
0000
,  // measure 66
0110
0100
0000
0000
0001
1000
1001
0000
,  // measure 67
0200
0300
0000
0000
0000
0000
0000
0000
;

//---------------dance-single - ----------------
#NOTES:
     dance-single:
     X-Scale 6:
     Easy:
     4:
     0.348054,0.384503,0.282589,0.427703,0.000000,319.000000,282.000000,37.000000,56.000000,0.000000,0.000000,0.348054,0.384503,0.282589,0.427703,0.000000,319.000000,282.000000,37.000000,56.000000,0.000000,0.000000:
// measure 0
0000
0000
0000
0000
,  // measure 1
0000
0000
0000
0000
,  // measure 2
0000
0000
0000
0000
,  // measure 3
0000
0000
0000
0000
,  // measure 4
1000
0000
0100
0000
0010
0000
0001
1000
,  // measure 5
0000
1000
0000
1000
0010
0000
1000
0000
,  // measure 6
0001
0000
0010
0000
0001
0000
1000
0010
,  // measure 7
0000
0010
0000
0010
1000
0001
1001
0000
,  // measure 8
1000
0000
0010
0200
0300
0002
0003
2000
,  // measure 9
3000
0002
0003
0020
0230
0000
1300
0000
,  // measure 10
0001
0000
0100
0020
0030
0200
0300
0002
,  // measure 11
0003
2000
3000
0200
0320
0000
0031
0000
,  // measure 12
1000
0000
0010
2000
3000
0002
0003
0020
,  // measure 13
0030
0002
0003
2000
3200
0000
0310
0000
,  // measure 14
0001
0000
1000
0020
0030
2000
3000
0001
,  // measure 15
0010
0000
0001
1001
1000
0000
1100
0000
,  // measure 16
0001
0101
0100
0110
,  // measure 17
0010
1010
1000
1001
,  // measure 18
0001
0101
0100
0110
,  // measure 19
0010
1010
1000
1001
,  // measure 20
0001
0011
0010
0110
,  // measure 21
0100
1100
1000
1010
,  // measure 22
0010
0110
0101
2001
,  // measure 23
3200
0000
1300
0100
0010
0001
2000
0000
,  // measure 24
3002
0000
0103
0001
1000
0010
0200
0000
,  // measure 25
0320
0000
1030
0100
0010
0001
2000
0000
,  // measure 26
3100
0000
0201
0000
0302
0000
1003
0001
,  // measure 27
0100
0010
2000
0000
3002
0000
0013
0100
,  // measure 28
1000
0001
0200
0000
0320
0000
1030
0010
,  // measure 29
0100
0001
2000
0000
3100
0000
0000
0000
,  // measure 30
0000
2000
0000
0000
0000
0000
0002
0000
,  // measure 31
0000
3003
1001
1000
,  // measure 32
0010
0000
0100
0001
0100
0000
0010
0000
,  // measure 33
1000
0000
0001
0010
0001
0000
1000
0000
,  // measure 34
0100
0000
0010
0001
0010
0000
0100
0000
,  // measure 35
1000
0000
0010
0100
0020
0000
0100
0000
,  // measure 36
0000
0030
2000
0000
0000
0000
3001
0000
,  // measure 37
1000
0000
0100
0010
0001
0000
1000
0100
,  // measure 38
0010
0001
0000
1000
0001
0000
1000
0000
,  // measure 39
0100
0020
0031
0010
,  // measure 40
0100
1000
0100
1000
0001
0000
1000
0000
,  // measure 41
0100
0010
0100
0010
0001
0000
1000
0000
,  // measure 42
0010
0100
0010
0100
0001
0000
1000
0000
,  // measure 43
0100
0010
0100
0010
0002
0000
1000
0000
,  // measure 44
0000
0010
0000
1003
,  // measure 45
0001
0100
0001
0100
0020
0000
1000
0000
,  // measure 46
0000
0001
0000
1030
,  // measure 47
0000
0012
0000
1003
,  // measure 48
2002
0000
0000
0000
0000
3003
0011
0000
,  // measure 49
2000
3000
1200
0000
0000
0000
0310
0000
,  // measure 50
0022
0000
0000
0000
0000
0033
1010
0000
,  // measure 51
0001
0000
1001
0000
1000
0000
0100
0010
,  // measure 52
0002
0000
0000
0103
,  // measure 53
0020
0030
1010
0000
1000
0001
1000
0000
,  // measure 54
0010
0000
0100
0010
1000
0000
0001
0000
,  // measure 55
0000
0000
1001
0000
1000
0001
1000
0000
,  // measure 56
2020
0000
0000
0000
0000
3030
1001
0000
,  // measure 57
0002
0003
1000
0000
0010
0000
0100
0000
,  // measure 58
0001
0000
0010
0100
1000
0000
0001
0000
,  // measure 59
0010
0000
0110
0000
1000
0100
1000
0000
,  // measure 60
1000
0100
0000
0000
0010
0001
1000
0000
,  // measure 61
0001
0000
1001
0000
0001
0100
0001
0000
,  // measure 62
0001
0100
0000
0000
0010
1000
0001
0000
,  // measure 63
2000
3000
1100
0000
0100
0010
0100
0000
,  // measure 64
0100
0010
0000
0001
0001
1000
1010
0000
,  // measure 65
0020
0030
0110
0000
0100
0001
0100
0000
,  // measure 66
0100
0001
0000
1000
1000
0100
0110
0000
,  // measure 67
0002
0003
0000
0000
0000
0000
0000
0000
;

//---------------dance-single - ----------------
#NOTES:
     dance-single:
     X-Scale 3:
     Beginner:
     3:
     0.205123,0.305884,0.183301,0.106926,0.000000,188.000000,164.000000,24.000000,14.000000,0.000000,0.000000,0.205123,0.305884,0.183301,0.106926,0.000000,188.000000,164.000000,24.000000,14.000000,0.000000,0.000000:
// measure 0
0000
0000
0000
0000
,  // measure 1
0000
0000
0000
0000
,  // measure 2
0000
0000
0000
0000
,  // measure 3
0000
0000
0000
0000
,  // measure 4
1000
0000
0001
0000
,  // measure 5
0100
0000
0010
0000
,  // measure 6
1000
0000
0100
0000
,  // measure 7
0010
0000
0001
1000
,  // measure 8
0000
0100
0000
1000
,  // measure 9
0000
0001
0100
0001
,  // measure 10
0000
0010
0000
0100
,  // measure 11
0000
1000
0100
1000
,  // measure 12
0000
0001
0000
0100
,  // measure 13
0000
0010
0100
0010
,  // measure 14
0000
1000
0000
0001
,  // measure 15
0000
1000
0100
0000
,  // measure 16
0010
0000
0001
0000
,  // measure 17
1000
0001
1000
0000
,  // measure 18
0010
0000
0100
0000
,  // measure 19
0001
1000
0001
0000
,  // measure 20
0100
0000
0010
0000
,  // measure 21
1000
0100
1000
0000
,  // measure 22
0001
0000
0100
0201
,  // measure 23
0302
1003
0000
0200
,  // measure 24
2300
3001
0000
0020
,  // measure 25
0230
1300
0000
0002
,  // measure 26
1003
2001
3200
0310
,  // measure 27
0000
0002
0203
0310
,  // measure 28
0000
2000
3200
0310
,  // measure 29
0000
0002
1003
0000
,  // measure 30
0000
0000
0000
0000
,  // measure 31
0000
0000
1100
0000
,  // measure 32
1000
0001
1000
0000
,  // measure 33
0100
0010
0100
0000
,  // measure 34
1000
0010
1000
0000
,  // measure 35
0001
0010
0001
0000
,  // measure 36
0100
0010
0100
0000
,  // measure 37
0001
0100
0001
0000
,  // measure 38
1000
0100
1000
0000
,  // measure 39
0001
0000
1000
0000
,  // measure 40
0100
0010
0100
0000
,  // measure 41
1000
0001
1000
0000
,  // measure 42
0010
0100
0010
0000
,  // measure 43
1000
0100
1000
0000
,  // measure 44
0001
0100
0001
0000
,  // measure 45
0010
0100
0010
0000
,  // measure 46
0001
1000
0001
0000
,  // measure 47
0000
1001
0000
0000
,  // measure 48
1000
0000
0000
0001
,  // measure 49
0000
0010
0000
0000
,  // measure 50
0100
0000
0000
1000
,  // measure 51
0000
1010
0000
1000
,  // measure 52
1001
0000
0000
0101
,  // measure 53
0100
0110
0000
1000
,  // measure 54
1001
0000
0000
0001
,  // measure 55
1000
1001
0000
0100
,  // measure 56
1100
0000
0000
0101
,  // measure 57
0001
1000
0000
0010
,  // measure 58
0000
1000
0000
0001
,  // measure 59
0000
1001
1000
1100
,  // measure 60
0001
0000
0100
0110
,  // measure 61
0010
1010
1000
1001
,  // measure 62
0001
0000
0100
0110
,  // measure 63
0010
1010
1000
1001
,  // measure 64
0001
0000
1000
1010
,  // measure 65
0010
0110
0100
0101
,  // measure 66
0001
0000
0010
0110
;
