#TITLE:Yummy;
#SUBTITLE:;
#ARTIST:Danny Gonzalez;
#TITLETRANSLIT:;
#SUBTITLETRANSLIT:;
#ARTISTTRANSLIT:;
#GENRE:Trap Pop;
#CREDIT:;
#BANNER:Yummy-bn.png;
#BACKGROUND:Yummy-bg.png;
#LYRICSPATH:;
#CDTITLE:cdtitle.png;
#MUSIC:Yummy.ogg;
#OFFSET:-0.005000;
#SAMPLESTART:13.358001;
#SAMPLELENGTH:13.333000;
#SELECTABLE:YES;
#BPMS:0.000000=72.000000
,17.000000=144.000000
,79.000000=72.000000
,95.000000=144.000000
,127.000000=72.000000
,128.000000=144.000000
,254.000000=72.000000
;
#STOPS:
;
#BGCHANGES:0.000=Yummy.avi=1.000=1=0=0=StretchNoLoop==CrossFade==,
99999=-nosongbg-=1.000=0=0=0 // don't automatically add -songbackground-
;
#KEYSOUNDS:;
#ATTACKS:;

//---------------dance-single - that yummy-yum that yummy-yummy----------------
#NOTES:
     dance-single:
     X-Scale 11:
     Hard:
     8:
     0.529230,0.769089,0.141577,0.149443,0.192702,471.000000,453.000000,18.000000,19.000000,10.000000,0.000000,0.529230,0.769089,0.141577,0.149443,0.192702,471.000000,453.000000,18.000000,19.000000,10.000000,0.000000:
// measure 0
0000
0000
0000
0000
,  // measure 1
0000
0000
0000
0000
,  // measure 2
0000
0000
0000
0000
,  // measure 3
0000
0000
0000
0000
,  // measure 4
1000
0100
0010
0001
0011
0000
0000
0000
0011
0000
0000
0000
0001
0000
0010
0000
,  // measure 5
1000
0010
0001
0000
1000
0001
0010
0001
,  // measure 6
0100
0010
1000
0000
0010
1000
0001
0100
,  // measure 7
0010
0000
0000
0000
0110
0000
0000
1000
0001
0000
1000
0000
1100
0000
0000
0000
,  // measure 8
0001
1000
0010
0100
0010
0001
0010
1000
,  // measure 9
0010
0000
0100
0001
0010
0100
1000
1000
,  // measure 10
1000
0000
0100
0000
0010
0100
1000
0001
,  // measure 11
1000
0000
0000
0000
0020
0000
0000
0030
0200
0000
0000
0300
1010
0000
1000
0000
,  // measure 12
0001
1000
1001
0000
1001
0001
1000
0000
,  // measure 13
0100
0000
0010
0100
1000
0001
0100
0000
,  // measure 14
0010
0100
0001
0000
0010
0001
1000
0100
,  // measure 15
0100
0000
0000
0000
0010
0000
0010
0100
0010
0000
0001
0000
0010
0000
0000
0000
,  // measure 16
0M10
0M00
1000
0000
0001
0000
1000
0000
0010
0000
0000
0000
0100
0000
0001
0100
,  // measure 17
0001
0000
0010
0100
1000
0001
0010
0010
,  // measure 18
0100
0100
1000
0000
0001
1000
0100
0010
,  // measure 19
0010
0000
0000
0000
0001
0000
1000
0001
1000
0000
0100
0000
MMMM
0001
0100
0010
,  // measure 20
1000
0000
0001
0000
0100
0001
1000
0001
0100
0010
0001
0010
1000
0100
0010
0001
,  // measure 21
0000
0000
0000
0000
1000
0000
0000
0000
0010
0000
1000
0000
0001
0000
1000
0000
0100
0000
0010
0100
0020
0000
0000
0030
0011
0000
0001
0000
1000
0000
0010
0000
,  // measure 22
0000
0100
0001
0000
0010
0100
0010
0001
1000
0001
0010
0100
1000
0000
1000
0100
,  // measure 23
0010
0001
1000
0000
1000
0000
0001
0100
0010
1000
0010
0000
1010
0000
1000
0000
,  // measure 24
0001
1000
0010
0100
0010
0100
0001
0010
,  // measure 25
1000
0010
0001
0000
1000
0100
0001
1000
,  // measure 26
0010
0001
1000
0000
1000
0010
0001
0010
,  // measure 27
1000
0000
0001
0000
0100
0001
1000
0100
,  // measure 28
0001
0100
0010
0001
1000
0001
0010
0100
,  // measure 29
1000
0001
1000
0000
0010
0100
0010
0001
,  // measure 30
0010
1000
0010
0000
1000
0100
0010
0001
,  // measure 31
1000
0000
0000
0000
0001
0000
0100
0001
0100
0000
0010
0000
1000
0100
01M0
0001
,  // measure 32
0101
0000
0000
0000
1001
0000
0000
0000
2000
0000
0000
3000
0002
0000
0000
0000
,  // measure 33
0100
0103
0000
0001
0100
0010
0100
0001
,  // measure 34
1000
0000
0100
0000
0001
0000
0100
0000
2000
0000
0000
3000
0002
0000
0000
0000
,  // measure 35
1000
0003
0100
0001
1000
0001
0100
0010
,  // measure 36
0100
0000
0001
0000
1000
0000
0010
0000
2000
0000
0000
3000
0002
0000
0000
0000
,  // measure 37
0010
0003
0010
0001
1000
0010
0001
0010
,  // measure 38
1000
0000
1000
0100
0010
0001
1000
1000
,  // measure 39
0100
0000
0010
0100
0010
0000
0001
0000
0011
0000
0001
0000
2001
0000
0000
0000
,  // measure 40
0010
0000
0001
3000
1000
0100
0020
0000
,  // measure 41
0031
0010
0000
0001
1000
0000
0100
0010
,  // measure 42
0001
0000
1000
0000
0010
0100
0020
0000
,  // measure 43
1030
0000
0010
1000
0010
0000
0100
0000
0001
0000
0000
0000
1000
0000
0010
0000
,  // measure 44
0100
0010
1000
0000
0100
0010
0002
0000
,  // measure 45
1003
0002
0000
0000
0013
0000
0100
0000
1000
0000
0001
0000
1000
0000
0100
0000
,  // measure 46
0020
0000
0031
1000
0100
0001
0100
1000
,  // measure 47
0020
0000
0130
0010
0110
0100
0001
1000
,  // measure 48
0001
0010
0001
0010
0100
1000
0001
1000
,  // measure 49
0010
0000
0100
0010
0001
0010
1000
0001
,  // measure 50
1000
0000
0001
0010
1000
0010
0001
0000
,  // measure 51
0100
0000
0010
0100
0001
0100
1000
0100
,  // measure 52
0001
0010
1000
0010
0001
1000
0100
0010
,  // measure 53
0001
0000
1000
0001
0100
0010
0100
0001
,  // measure 54
0010
0000
0100
1000
0001
1000
0100
0000
,  // measure 55
01M0
00M0
0001
0010
0M01
0000
1000
0000
1001
0000
0001
0000
0100
0000
0001
0000
,  // measure 56
1000
0000
0100
0000
0010
0100
1000
0001
,  // measure 57
1000
0000
0010
0100
0001
1000
0001
1000
,  // measure 58
1001
0000
1000
0000
0100
0010
0010
0000
,  // measure 59
0101
0000
0001
1000
0001
0010
1000
0010
,  // measure 60
0001
0000
0011
0000
0010
0100
1000
0001
,  // measure 61
1000
0000
0001
0100
1000
0001
1000
0100
,  // measure 62
0001
0000
1000
0100
0001
0100
1000
0000
,  // measure 63
0001
0000
0100
0001
0100
0000
0010
0000
0100
0000
0001
0010
0100
1000
0010
0100
,  // measure 64
0002
0000
0000
1003
0100
1000
0001
0200
0300
0020
0000
0000
0030
0000
0100
0010
,  // measure 65
0100
0001
0010
0100
0000
0000
0000
0000
0000
0000
0000
0000
0000
0000
0000
0000
;

//---------------dance-single - ----------------
#NOTES:
     dance-single:
     X-Scale 10:
     Medium:
     7:
     0.455070,0.692180,0.047192,0.165174,0.125847,405.000000,399.000000,6.000000,21.000000,0.000000,0.000000,0.455070,0.692180,0.047192,0.165174,0.125847,405.000000,399.000000,6.000000,21.000000,0.000000,0.000000:
// measure 0
0000
0000
0000
0000
,  // measure 1
0000
0000
0000
0000
,  // measure 2
0000
0000
0000
0000
,  // measure 3
0000
0000
0000
0000
,  // measure 4
0000
0000
1100
0000
0100
0000
0010
0100
,  // measure 5
1000
0001
1000
0000
0010
0000
0100
0000
,  // measure 6
0010
0100
0001
0000
1000
0000
0010
1000
,  // measure 7
0001
0000
1000
0000
0100
0010
0001
1000
,  // measure 8
0001
0100
0010
0000
1000
0000
0001
0010
,  // measure 9
0100
0000
0010
0100
1000
0000
0001
1000
,  // measure 10
0001
0000
0010
0000
0100
0000
0010
0100
,  // measure 11
1000
0000
0000
0000
0002
0000
0000
0003
0020
0000
0000
0030
0011
0000
0000
0000
,  // measure 12
0001
1000
0100
0000
0100
0000
1000
0010
,  // measure 13
0100
0010
1000
0000
0001
0010
0100
1000
,  // measure 14
0010
0100
0001
0000
1000
0000
0001
0100
,  // measure 15
0100
0000
0020
0030
0020
0030
0020
0030
,  // measure 16
1000
0001
0010
0001
1000
0000
0100
0000
,  // measure 17
1000
0000
0001
0010
1000
0010
0001
1000
,  // measure 18
0001
1000
0100
0000
0010
0000
0001
1000
,  // measure 19
0001
0000
0000
0000
0020
0000
0030
0000
0020
0000
0030
0000
0200
0000
0300
0010
,  // measure 20
0100
1000
0001
1000
0100
0010
0002
0000
0003
0000
0000
1000
0100
0001
0100
1000
,  // measure 21
0001
0010
0100
1000
0001
1000
0010
0100
0010
1000
0002
0000
0100
0000
0003
0100
,  // measure 22
0001
1000
0100
0001
0100
1000
0020
0000
0030
0000
0000
0100
0010
0001
0010
1000
,  // measure 23
0010
0000
0100
0000
0001
0000
0010
0000
0100
0000
1000
0000
0001
0000
1000
0000
0010
0000
0100
0000
0020
0000
0000
0030
0110
0000
0000
0000
0100
0000
0000
0000
,  // measure 24
0010
1000
0001
0000
0010
0000
0100
0010
,  // measure 25
0001
1000
0001
0010
0000
0100
0010
0001
,  // measure 26
1000
0001
0100
0000
0010
0000
0100
0010
,  // measure 27
0001
0010
1000
0000
0001
0010
0100
1000
,  // measure 28
0010
0100
0001
0000
1000
0000
0001
0100
,  // measure 29
0010
0100
0001
0000
0010
0100
1000
0000
,  // measure 30
0001
1000
0010
0000
0100
0000
0010
0100
,  // measure 31
0001
0000
0000
0000
2000
0000
0000
3000
0200
0000
0000
0300
1000
0000
0001
0000
,  // measure 32
1001
0000
1000
0001
0100
0000
0010
0000
,  // measure 33
0100
0010
0000
1000
0001
0100
0001
1000
,  // measure 34
0001
0000
0010
0100
1000
0001
0001
1000
,  // measure 35
0010
2000
3200
0320
,  // measure 36
0031
0010
1000
0010
0002
0000
2003
0000
,  // measure 37
0000
3000
1000
0100
0001
0100
0010
0001
,  // measure 38
1000
0000
0001
1000
0010
0100
0001
0000
,  // measure 39
0010
0001
1000
0001
0200
0010
0010
0000
,  // measure 40
0301
0000
1000
0000
0001
0010
0001
0000
,  // measure 41
1000
0000
0010
0000
1000
0000
0001
0010
,  // measure 42
0100
0000
1000
0000
0010
1000
0010
0000
,  // measure 43
0100
0001
1000
0001
0020
0000
0000
0130
,  // measure 44
0100
0010
0100
0000
1000
0001
0100
0000
,  // measure 45
0010
0100
0001
1000
0100
0010
0100
1000
,  // measure 46
0001
0000
0010
1000
0010
0001
0010
0100
,  // measure 47
1000
0000
0000
0000
1001
1000
0001
1000
,  // measure 48
0100
0000
0010
0000
0100
1000
0001
0010
,  // measure 49
0100
1000
0000
0001
1000
0010
0001
0010
,  // measure 50
1000
0000
1000
0010
0001
0010
1000
0000
,  // measure 51
0001
0000
1000
0010
0100
0010
0001
0010
,  // measure 52
1000
0000
0001
0000
0100
0010
1000
0001
,  // measure 53
0010
0100
0000
0010
0001
1000
0001
0100
,  // measure 54
0010
0000
1000
0001
0010
0100
1000
0000
,  // measure 55
0001
0000
1000
0000
1001
0000
0001
1000
,  // measure 56
0100
0000
0010
0000
0001
0100
1000
0001
,  // measure 57
0010
1000
0000
0001
0100
0010
0100
0010
,  // measure 58
1000
0000
0001
0000
0100
0001
1000
0001
,  // measure 59
0010
0000
0100
1000
0001
1000
0100
0010
,  // measure 60
0001
0000
1000
0000
0001
0010
0100
0010
,  // measure 61
0001
1000
0000
0001
0010
1000
0010
0100
,  // measure 62
1000
0000
0001
1000
0100
1000
0001
0000
,  // measure 63
1000
0000
0000
0000
0010
0000
0000
0000
1000
0100
0010
0001
0000
0000
1000
0000
,  // measure 64
0001
0100
0010
1000
0000
0000
0001
0000
1000
0100
0010
0001
0000
0000
1000
0000
,  // measure 65
0001
0100
0010
1000
0000
0000
0000
0000
0000
0000
0000
0000
0000
0000
0000
0000
;

//---------------dance-single - ----------------
#NOTES:
     dance-single:
     X-Scale 7:
     Easy:
     5:
     0.337089,0.409001,0.086519,0.110116,0.000000,300.000000,289.000000,11.000000,14.000000,0.000000,0.000000,0.337089,0.409001,0.086519,0.110116,0.000000,300.000000,289.000000,11.000000,14.000000,0.000000,0.000000:
// measure 0
0000
0000
0000
0000
,  // measure 1
0000
0000
0000
0000
,  // measure 2
0000
0000
0000
0000
,  // measure 3
0000
0000
0000
0000
,  // measure 4
0000
1001
1000
0100
,  // measure 5
1000
0001
1000
0000
0010
0000
0010
0000
,  // measure 6
0100
0010
0100
0000
0001
0000
1000
0010
,  // measure 7
1000
0000
0001
0000
0010
0100
1000
0000
,  // measure 8
0001
0000
1000
0100
1000
0000
0001
0000
,  // measure 9
0100
0000
0010
0100
0010
0000
1000
0000
,  // measure 10
0100
0000
1000
0000
0001
0000
1000
0010
,  // measure 11
1000
0200
0320
0032
,  // measure 12
0000
1003
1000
0100
,  // measure 13
1000
0001
0100
0010
,  // measure 14
0100
0010
1000
0000
0100
0000
0010
0000
,  // measure 15
0100
1000
1000
1000
,  // measure 16
0001
1000
0001
1000
0001
0000
0010
0000
,  // measure 17
0100
0000
0010
0000
0001
0000
1000
0010
,  // measure 18
1000
0010
1000
0000
0100
0000
0010
0000
,  // measure 19
0001
1000
1000
1000
,  // measure 20
0100
0010
0100
0000
1000
0000
0001
0000
,  // measure 21
0100
0010
0100
0000
0010
0000
0110
0000
,  // measure 22
1000
1001
0001
0101
,  // measure 23
0110
1010
1100
1001
,  // measure 24
1000
0001
0010
0001
,  // measure 25
1000
0010
1000
0000
0100
0010
0001
0000
,  // measure 26
1000
0000
0001
0000
0100
0000
0001
1000
,  // measure 27
0001
0000
0100
0000
0010
1000
0010
0000
,  // measure 28
0100
0001
0010
0100
,  // measure 29
0010
0000
0001
0000
1000
0100
1000
0000
,  // measure 30
0001
0000
0100
0000
0001
0000
1000
0100
,  // measure 31
1000
0000
0002
0000
0023
0000
0030
0100
,  // measure 32
1100
0000
1000
0001
1000
0000
0020
0000
,  // measure 33
0100
0030
0010
0000
2000
0000
0000
3000
,  // measure 34
1000
0000
0100
0010
0001
0000
0200
0000
,  // measure 35
0010
0000
0310
0100
0020
0000
2030
0000
,  // measure 36
3001
0000
0010
0100
1000
0000
0002
0000
,  // measure 37
0100
0103
0000
0001
0010
0001
1000
0001
,  // measure 38
0010
0000
0100
0000
1000
0010
1000
0000
,  // measure 39
0001
0010
0100
0010
0002
0000
2000
0000
,  // measure 40
0003
0000
3100
0000
1000
0100
1000
0000
,  // measure 41
0001
0000
0010
0000
0001
0000
1000
0010
,  // measure 42
0100
0000
0010
0000
0100
0001
1000
0000
,  // measure 43
0001
0000
0010
0000
0001
0000
1000
0100
,  // measure 44
0010
0100
1000
0000
0001
0000
1000
0000
,  // measure 45
0010
0000
1000
0100
1000
0000
0001
0000
,  // measure 46
0010
0000
0100
0000
0010
0001
0010
0000
,  // measure 47
0100
0000
1100
1000
,  // measure 48
0001
0000
0010
0000
0100
0000
0010
0001
,  // measure 49
1000
0000
0001
1000
0010
0000
0100
0000
,  // measure 50
0010
0000
1000
0000
0100
0010
0100
0000
,  // measure 51
1000
0000
0001
0100
0010
0000
0100
0000
,  // measure 52
0001
0010
0100
0010
,  // measure 53
0001
0100
0000
0010
1000
0000
0100
0000
,  // measure 54
1000
0000
0001
0000
0100
0010
0100
0000
,  // measure 55
0001
1000
1001
0001
,  // measure 56
1000
0000
0100
0000
1000
0010
1000
0000
,  // measure 57
0001
0100
0000
0010
1000
0000
0001
0000
,  // measure 58
1000
0000
0010
0000
0100
0010
0100
0000
,  // measure 59
0001
0010
0100
0010
,  // measure 60
0001
1000
0010
1000
,  // measure 61
0001
0100
0000
0010
1000
0000
0001
0000
,  // measure 62
1000
0100
1000
0010
,  // measure 63
0100
0000
0002
0000
1000
0003
0001
0010
,  // measure 64
0100
0000
0010
0000
0001
0000
1000
0010
,  // measure 65
0100
0000
0000
0000
;
