#VERSION:0.83;
#TITLE:ゆめをみよう;
#SUBTITLE:;
#ARTIST:春ねむり;
#TITLETRANSLIT:Yume wo Miyou;
#SUBTITLETRANSLIT:;
#ARTISTTRANSLIT:Haru Nemuri;
#GENRE:J-Pop;
#ORIGIN:;
#CREDIT:;
#BANNER:yumewomiyou-bn.png;
#BACKGROUND:yumewomiyou-bg.png;
#PREVIEWVID:;
#JACKET:yumewomiyou-jacket.png;
#CDIMAGE:;
#DISCIMAGE:;
#LYRICSPATH:;
#CDTITLE:cdtitle.png;
#MUSIC:yumewomiyou.ogg;
#OFFSET:-0.009000;
#SAMPLESTART:67.509003;
#SAMPLELENGTH:30.000000;
#SELECTABLE:YES;
#BPMS:0.000=128.000;
#STOPS:;
#DELAYS:;
#WARPS:;
#TIMESIGNATURES:0.000=4=4;
#TICKCOUNTS:0.000=4;
#COMBOS:0.000=1;
#SPEEDS:0.000=1.000=0.000=0;
#SCROLLS:0.000=1.000;
#FAKES:;
#LABELS:0.000=Song Start;
#BGCHANGES:
;
#KEYSOUNDS:;
#ATTACKS:
;

//---------------dance-single - How NOT to emulate a stream chart----------------
#NOTEDATA:;
#CHARTNAME:X-Scale 15;
#STEPSTYPE:dance-single;
#DESCRIPTION:How NOT to emulate a stream chart;
#CHARTSTYLE:;
#DIFFICULTY:Hard;
#METER:10;
#RADARVALUES:0.736567,0.743709,0.054685,0.156241,0.824174,660.000000,653.000000,7.000000,20.000000,0.000000,0.000000,0.000000,0.000000,0.000000,0.736567,0.743709,0.054685,0.156241,0.824174,660.000000,653.000000,7.000000,20.000000,0.000000,0.000000,0.000000,0.000000,0.000000;
#CREDIT:;
#NOTES:
// measure 0
0000
0000
0000
0000
,  // measure 1
0000
0000
0000
0000
,  // measure 2
0000
0000
0000
0000
,  // measure 3
0000
0000
0000
0000
,  // measure 4
1000
0010
0001
0010
1000
0100
0010
0100
,  // measure 5
1000
0001
0010
1000
0010
0100
1000
0001
,  // measure 6
1000
0100
0001
0100
1000
0010
0001
0010
,  // measure 7
1000
0000
0001
0000
0100
0000
0010
0000
1000
0000
0100
0000
1000
0100
1000
0000
,  // measure 8
0100
0000
1000
0010
0000
0010
0000
0100
0000
0001
0010
0100
0010
0001
0000
1000
,  // measure 9
0001
0100
0010
1000
0001
0000
0100
0000
0010
0000
1000
0000
0100
0000
1000
0000
,  // measure 10
0010
1000
0010
1000
0010
0000
1000
0100
1000
0001
1000
0100
0010
0000
0001
0010
,  // measure 11
0001
0000
0100
0010
0100
0000
0001
0000
1000
0000
0010
0000
1000
0000
0001
0000
,  // measure 12
0010
0000
0100
0010
0100
0010
0100
0000
1000
0000
0100
0010
0100
1000
0100
0010
,  // measure 13
0001
0010
0001
0100
0001
0100
0001
0010
0100
0000
1000
0010
0000
0000
1000
0010
,  // measure 14
1000
0000
0001
0010
0001
0000
1000
0100
1000
0001
1000
0100
1000
0001
0000
0000
,  // measure 15
1000
0000
0001
1000
0000
0010
0000
1000
0100
1000
0000
0000
0001
0010
0001
0010
,  // measure 16
0001
0010
1000
0010
0001
0100
0010
0100
,  // measure 17
0001
1000
0020
0000
2030
0000
3020
0000
,  // measure 18
1030
0010
0001
0010
1000
0100
1000
0010
,  // measure 19
0100
0000
0001
0000
2000
0000
0000
0000
3020
0000
0000
0000
1030
0010
1000
0010
,  // measure 20
1000
0100
1000
0100
0010
0001
0010
0001
0100
0000
0001
0000
1000
0001
1000
0000
,  // measure 21
0010
0000
1000
0010
0100
0001
1000
0010
0100
0001
0000
1000
0000
0000
0001
0010
,  // measure 22
0100
0000
0100
0010
0001
0000
0010
0100
0010
0001
0010
0000
0001
0000
1000
0001
,  // measure 23
1000
0000
0010
0100
0010
0000
1000
0000
0001
0000
1000
0000
0010
0000
1000
0010
,  // measure 24
1000
0000
0001
0010
0001
0100
0001
0010
0001
0100
0001
0010
0001
0000
0001
0000
,  // measure 25
1000
0010
1000
0000
0100
0000
0010
0100
0010
0100
0000
0000
1000
0001
0010
0100
,  // measure 26
1000
0001
0010
0001
0000
0000
0010
0100
0010
0100
0000
0000
1000
0000
0100
0000
,  // measure 27
0010
0000
0001
0100
0010
1000
0001
0100
0010
1000
0100
0000
1000
0010
1000
0000
,  // measure 28
1000
0100
1100
1000
0001
0010
0001
0100
,  // measure 29
0001
0010
0210
0000
2300
0000
3200
0000
,  // measure 30
1300
0001
1001
0100
0001
0010
1000
0010
,  // measure 31
0100
1000
1002
0000
2003
0000
3002
0000
,  // measure 32
0013
0001
0101
0100
0010
1000
0100
1000
,  // measure 33
0001
0100
0120
0000
0230
0000
0320
0000
,  // measure 34
1030
0010
0110
0100
0001
0010
0001
1000
,  // measure 35
0200
0000
0000
0000
2300
0000
0000
0000
3002
0000
0000
0000
0013
0001
0000
0010
,  // measure 36
0001
0000
0100
0000
0001
0100
0001
0010
0100
1000
0100
1000
0000
0001
0100
0001
,  // measure 37
0010
0100
1000
0000
0001
0100
0010
1000
0100
0000
1000
0100
0000
1000
0100
0000
,  // measure 38
1000
0000
1000
0001
0100
0001
1000
1000
,  // measure 39
0100
0000
0001
0000
0100
0000
0010
0000
0001
0010
0000
0001
0100
0000
0001
0010
,  // measure 40
0100
0010
0001
1000
0010
1000
0000
1000
0001
0000
1000
0100
0000
1000
0010
0100
,  // measure 41
0001
0100
0010
0100
0001
0000
1000
0100
0010
0001
1000
0000
0010
0000
0010
0000
,  // measure 42
1000
1000
0001
0010
0001
0100
0001
0001
,  // measure 43
0100
0000
0010
0100
0010
0000
1000
0000
0001
1000
0000
0001
1000
0000
0100
0000
,  // measure 44
1000
0000
0000
0000
0100
0000
0000
0000
0010
0000
0000
0000
0001
0000
0000
0000
0000
0000
0100
0000
0000
0001
0000
0000
0100
0000
0000
0000
0000
0000
0001
0000
0000
0010
0000
0000
0000
0000
0000
0001
0000
0000
0010
0000
0000
0001
0000
0000
,  // measure 45
0010
0100
1000
0010
0000
1000
0001
1000
0100
0010
0001
0000
0100
0001
0100
0001
,  // measure 46
0100
0000
0010
0000
0001
0000
0010
0000
1000
0000
0010
0000
0100
0010
0100
0010
,  // measure 47
0100
0000
0001
0000
0010
0000
1000
0000
0001
0000
0100
0000
1000
0000
0001
1000
,  // measure 48
0001
1000
0100
0010
0100
1000
0010
1000
0010
0000
0100
0000
0001
0000
1000
0100
,  // measure 49
1000
0000
0001
0100
0001
0000
1000
0100
0010
0001
1000
0100
0010
0001
0010
0001
,  // measure 50
0010
0000
0001
0000
0010
0000
1000
0000
0010
0000
0100
0000
1000
0001
1000
0001
,  // measure 51
1000
0000
0010
0000
0100
0000
0001
0000
0010
0001
0000
1000
0001
0010
0100
1000
,  // measure 52
0001
0000
1000
0000
0001
0000
0010
0100
0010
0001
0010
0000
0001
0010
0001
0010
,  // measure 53
0100
1000
0010
0000
1000
0100
1000
0100
1000
0000
0001
0000
0100
0000
0001
0000
,  // measure 54
1000
0000
0100
0000
1000
0000
0001
0010
,  // measure 55
1000
0010
0002
0000
2003
0000
3002
0000
,  // measure 56
1003
0000
0000
0000
0100
0000
0000
0000
0010
0000
0000
0000
0001
0000
0000
0000
0000
0000
0100
0000
0000
0010
0000
0000
0100
0000
0000
0000
0000
0000
0001
0000
0000
0010
0000
0000
0000
0000
0000
0001
0000
0000
0100
0000
0000
0001
0000
0000
,  // measure 57
0100
0010
0100
0010
0100
0001
0010
0001
0010
0100
1000
0000
0100
0000
1000
0000
,  // measure 58
0010
0000
0000
0000
0000
0000
0000
0000
1000
0000
0000
0000
0010
0000
0000
0000
0100
0000
0000
0000
0001
0000
0000
0000
1000
0000
0000
0001
0000
0000
1000
0000
0000
0000
0000
0000
1000
0000
0000
0000
0000
0000
0010
0000
0000
0100
0000
0000
,  // measure 59
0001
0000
0000
0000
0010
0000
0000
0000
0001
0000
0000
0000
0100
0000
0000
0000
0010
0000
0000
0000
1000
0000
0000
0000
0001
0000
0000
0000
0000
0000
0000
0000
0000
0000
0000
0000
0001
0000
0000
0010
0000
0000
0100
0000
0000
1000
0000
0000
,  // measure 60
0001
0000
0000
0010
0000
0000
0100
0000
0000
1000
0000
0000
0000
0000
0000
0001
0000
0000
1000
0000
0000
0000
0000
0000
1000
0000
0000
0000
0001
0000
0000
0000
1000
0000
0000
0000
0010
0000
0000
0000
0000
0000
0000
0000
0000
1000
0000
0000
,  // measure 61
0001
0000
0000
1000
0000
0000
0001
0000
0000
0000
0000
0000
1000
0000
0000
0000
0010
0000
0000
0000
0100
0000
0000
0000
0001
0000
0000
0000
0000
0000
0010
0000
0000
0100
0000
0000
0010
0000
0000
0000
0000
0000
0001
0000
0000
0000
0000
0000
,  // measure 62
1000
0000
0000
0000
0000
0000
0000
0000
0000
0100
0000
0000
1000
0000
0000
0100
0000
0000
1000
0000
0000
0000
0000
0000
0001
0000
0000
0000
0100
0000
0000
0000
0010
0000
0000
0000
1000
0000
0000
0000
0100
0000
0000
0000
1000
0000
0000
0000
,  // measure 63
0001
0000
0000
0000
0010
0000
0000
0000
0001
0000
0000
0000
0100
0000
0000
0000
1000
0000
0000
0000
0100
0000
0000
0000
0001
0000
0000
0000
0000
0000
0010
0000
0000
0001
0000
0000
0000
0000
0000
1000
0000
0000
0001
0000
0000
0000
0000
0000
,  // measure 64
0001
0000
0000
1000
0100
0010
0100
1000
0001
0100
0010
0100
0001
0000
1000
0000
,  // measure 65
0100
0000
0000
0010
0000
0000
0100
0000
0000
1000
0000
0000
0100
0000
0000
0000
0000
0000
0010
0000
0000
0000
0000
0000
0001
0000
0000
0000
0100
0000
0000
0000
0010
0000
0000
0000
1000
0000
0000
0010
0000
0000
0100
0000
0000
0001
0000
0000
,  // measure 66
1000
0100
0000
1000
0001
0000
0000
1000
0001
0000
0010
0000
0001
1000
0010
1000
,  // measure 67
0001
0000
0000
0000
0010
0000
0000
0000
0001
0000
0000
0000
1000
0000
0000
0100
0000
0000
0010
0000
0000
0000
0000
0000
0100
0000
0000
0000
0000
0000
1000
0000
0000
0000
0000
0000
0001
0000
0000
0000
0000
0000
0100
0000
0000
0010
0000
0000
,  // measure 68
1000
0000
0000
0000
;

//---------------dance-single - Thank you based Fantano----------------
#NOTEDATA:;
#CHARTNAME:X-Scale 11;
#STEPSTYPE:dance-single;
#DESCRIPTION:Thank you based Fantano;
#CHARTSTYLE:;
#DIFFICULTY:Medium;
#METER:8;
#RADARVALUES:0.445288,0.557782,0.015624,0.414040,0.136711,399.000000,397.000000,2.000000,53.000000,0.000000,0.000000,0.000000,0.000000,0.000000,0.445288,0.557782,0.015624,0.414040,0.136711,399.000000,397.000000,2.000000,53.000000,0.000000,0.000000,0.000000,0.000000,0.000000;
#CREDIT:;
#NOTES:
0000
0000
0000
0000
,
0000
0000
0000
0000
,
0000
0000
0000
0000
,
0000
0000
0000
0000
,
0001
0100
0010
1000
,
0001
0010
2000
0000
3020
0000
0032
0000
,
0013
0001
1000
0100
,
1000
0100
0002
0000
0203
0000
2300
0000
,
3100
0000
1000
0100
0010
0000
0100
0000
,
1000
0000
0001
0000
0010
0100
0010
0000
,
0001
0000
0010
0100
1000
0000
0001
0000
,
0100
0000
0010
0000
1000
0100
1000
0000
,
0001
0000
0100
0010
0001
0000
0010
0000
,
1000
0000
0000
0000
0001
0000
0000
0000
1000
0000
0100
1000
0000
0000
0010
0000
,
0010
0000
1000
0100
0010
0000
0001
0000
,
0010
0000
0100
0010
0000
0100
0000
0010
0000
0000
0001
0000
1000
0001
1000
0000
,
1001
0010
0001
0100
,
0001
0010
2000
0000
3020
0000
0032
0000
,
1003
0001
1000
0100
,
1000
0100
0002
0000
0203
0000
2300
0000
,
3100
1000
0100
1000
0010
0100
0010
0100
,
0001
0010
0001
0010
0100
0010
0100
0010
,
0001
1000
0001
1000
0100
0010
0100
0010
,
0001
0010
0001
0010
1000
0010
0100
1000
,
0010
0100
0010
0100
0001
0010
0001
0010
,
0100
1000
0100
1000
0001
0100
0001
0100
,
0010
1000
0010
1000
0010
0100
0010
0100
,
0001
0000
0100
0000
1000
0000
0100
0000
0001
0000
0010
0000
0001
0010
0001
0000
,
0011
0010
0100
1000
,
0001
0010
2000
0000
3020
0000
0032
0000
,
0013
0001
1000
0100
,
1000
0100
0002
0000
0203
0000
2300
0000
,
3100
1000
0001
0100
,
0001
0010
2000
0000
3020
0000
0032
0000
,
1003
0001
0010
0100
,
2000
3200
0320
0032
,
0013
0000
0001
0100
0001
0000
1000
1000
,
0001
0000
0010
0000
0100
0000
0010
0000
0001
0100
0000
0001
0100
0000
0010
0000
,
0100
0000
0001
1000
0100
1000
0010
0010
,
0100
0000
0001
0000
0010
0000
0001
0000
1000
0001
0000
1000
0001
0000
0010
0000
,
0100
0000
1000
0010
1000
0000
0100
0100
,
0001
0000
0100
0000
1000
0000
0100
0000
0010
0100
0000
0010
0100
0000
1000
0000
,
0001
0000
0100
0001
0010
0001
1000
1000
,
0010
0000
1000
0100
1000
0000
0100
0000
0010
0100
0000
0010
0100
0000
1000
0000
,
0001
0000
0010
0000
1000
0000
0010
0000
0001
0000
0100
0000
0010
0100
0000
0010
,
0100
0000
0010
0000
0100
0000
0001
0000
1000
0000
0010
0000
0100
0001
0100
0000
,
0001
0000
0010
0000
1000
0000
0010
0000
0100
0000
1000
0000
0001
1000
0000
0001
,
1000
0000
0100
0000
1000
0000
0001
0000
0100
0000
0010
0000
1000
0010
0000
1000
,
0010
0000
0100
0000
1000
0000
0100
0000
0010
0000
1000
0000
0001
0000
0010
0001
,
0010
0000
0100
0000
0010
0000
0001
0000
1000
0000
0010
0000
0100
0010
0000
0100
,
0010
0000
1000
0000
0100
0000
0001
0000
0100
0000
0010
0000
0001
0010
0000
0001
,
0010
0000
0001
0000
1000
0000
0100
0000
1000
0010
0000
1000
0100
0000
1000
0001
,
1000
0000
0001
0000
0100
0000
0010
0000
1000
0010
1000
0000
0010
0000
0100
0000
,
0001
0010
0001
0000
0020
0000
0000
0000
0230
0000
0000
0000
0320
0000
0000
0000
,
0031
0010
0100
1000
,
0001
0100
2000
0000
3200
0000
0302
0000
,
0103
0000
0000
0000
0001
0000
0000
0000
1000
0000
0000
0000
0001
0000
0000
0000
0000
0000
1000
0000
0000
0001
0000
0000
1000
0000
0000
0000
0000
0000
0100
0000
0000
0000
0000
0000
0010
0000
0000
0000
0000
0000
0001
0000
0000
0000
0000
0000
,
0100
0010
2000
0000
3200
0000
2300
0000
,
3100
1000
0001
0100
,
0001
0010
2000
0000
3020
0000
0032
0000
,
2003
0010
3020
2030
,
3002
0010
0100
1000
,
0023
0001
2030
3020
,
0032
0010
0100
1000
,
0023
0001
0230
2300
,
3200
0001
0010
1000
,
0320
0100
0032
2003
,
3200
0001
0010
1000
,
0300
0000
0000
0000
;

//---------------dance-single - Some easy stuff that doesn't go to the hurried rapping.----------------
#NOTEDATA:;
#CHARTNAME:X-Scale 7;
#STEPSTYPE:dance-single;
#DESCRIPTION:Some easy stuff that doesn't go to the hurried rapping.;
#CHARTSTYLE:;
#DIFFICULTY:Easy;
#METER:5;
#RADARVALUES:0.315831,0.344024,0.007812,0.281235,0.000000,283.000000,282.000000,1.000000,36.000000,0.000000,0.000000,0.000000,0.000000,0.000000,0.315831,0.344024,0.007812,0.281235,0.000000,283.000000,282.000000,1.000000,36.000000,0.000000,0.000000,0.000000,0.000000,0.000000;
#CREDIT:;
#NOTES:
0000
0000
0000
0000
,
0000
0000
0000
0000
,
0000
0000
0000
0000
,
0000
0000
0000
0000
,
0010
0010
0100
0100
,
0001
2000
3200
0320
,
0031
0001
1000
1000
,
0010
0200
0320
2030
,
3001
0100
0001
0010
,
0100
0000
1000
0000
0001
0010
0001
0000
,
0100
0010
1000
0100
,
0010
0000
0001
0000
1000
0100
1000
0000
,
0010
0100
0010
1000
,
0100
0000
0010
0000
0001
0100
0001
0000
,
0010
0100
0010
0001
,
1000
0000
0010
0000
1000
0100
2000
0000
,
3010
0010
1000
1000
,
0100
0020
0230
2300
,
3001
0001
0100
0100
,
0010
2000
3200
0320
,
0031
0010
0001
1000
,
0010
0000
1000
0000
0100
0010
0100
1000
,
0100
1000
0001
0100
,
0010
0000
1000
0000
0001
0010
0100
0010
,
0001
1000
0010
1000
,
0100
0000
0010
0000
0001
0100
0010
0100
,
0001
0010
0100
1000
,
0010
0000
1000
0000
0100
1000
0010
1000
,
0100
1000
0001
0100
,
0001
0020
0230
2300
,
3010
1000
0100
1000
,
0001
2000
3002
0203
,
0301
0100
1000
0100
,
0001
2000
3020
0230
,
0310
1000
0100
0010
,
0001
0010
0100
1000
,
1100
0000
1000
0000
0010
0000
0100
0010
,
0100
0001
0010
0100
,
1000
0000
0001
0010
0100
0010
0001
0000
,
1000
0000
0010
0100
1000
0100
0010
0000
,
1000
0000
0001
0000
0010
0000
0100
0010
,
0100
0010
0001
1000
,
0010
0000
1000
0010
0001
0010
1000
0000
,
0100
0000
0010
0100
1000
0100
0010
0000
,
0001
0001
1000
1000
,
0010
0100
0001
0002
,
0013
0000
0001
0100
1000
0100
0001
0000
,
1000
0000
0100
1000
0010
1000
0100
0000
,
1000
0010
1000
0100
,
0010
0001
0100
0002
,
0013
0000
0001
0010
0100
0010
0001
0000
,
1000
0000
0010
0100
0001
0100
0010
0000
,
1000
0100
0010
0100
,
1000
0001
0010
0100
,
1000
0001
0010
0001
,
1000
0010
0100
0001
,
0010
0001
1000
0010
,
1000
0100
0010
0001
,
0100
0001
0010
0001
,
1000
0010
0001
0010
,
2000
0000
3200
2300
,
3001
0010
0100
1000
,
0002
0000
0023
0032
,
1003
0001
0010
0001
,
0200
0000
2300
3200
,
0301
0100
0010
1000
,
0002
0000
2003
3002
,
0013
0001
1000
0100
;

//---------------dance-single - Nice and simple.----------------
#NOTEDATA:;
#CHARTNAME:X-Scale 2;
#STEPSTYPE:dance-single;
#DESCRIPTION:Nice and simple.;
#CHARTSTYLE:;
#DIFFICULTY:Beginner;
#METER:1;
#RADARVALUES:0.116065,0.183193,0.007812,0.000000,0.000000,104.000000,103.000000,1.000000,0.000000,0.000000,0.000000,0.000000,0.000000,0.000000,0.116065,0.183193,0.007812,0.000000,0.000000,104.000000,103.000000,1.000000,0.000000,0.000000,0.000000,0.000000,0.000000,0.000000;
#CREDIT:;
#NOTES:
0000
0000
0000
0000
,
0000
0000
0000
0000
,
0000
0000
0000
0000
,
0000
0000
0000
0000
,
0100
0000
0000
0000
,
0001
0000
1000
0000
,
0001
0000
0000
0000
,
0010
0000
0100
0000
,
0010
0000
0000
0000
,
0001
0000
1000
0000
,
0001
0000
0000
0000
,
0100
0000
0010
0000
,
0100
0000
0000
0000
,
0001
0000
0010
0000
,
0001
0000
0000
0000
,
1000
0000
0010
0000
,
1000
0000
0000
0000
,
0010
0000
0100
0000
,
0010
0000
0000
0000
,
1000
0000
0001
0000
,
1000
0000
0000
0000
,
0100
0000
1000
0000
,
0100
0000
0000
0000
,
0010
0000
0001
0000
,
0010
0000
0000
0000
,
0100
0000
1000
0000
,
0100
0000
0000
0000
,
1000
0000
0010
0000
,
1000
0000
0001
0000
,
1000
0000
0100
0000
,
1000
0000
0001
0000
,
0010
0000
0100
0000
,
0010
0000
0001
0000
,
1000
0000
0010
0000
,
1000
0000
0001
0000
,
1000
0000
0000
0000
,
0110
0000
0010
0000
,
1000
0000
0001
0000
,
1000
0000
0010
0000
,
0100
0000
0010
0000
,
1000
0000
0001
0000
,
0010
0000
0001
0000
,
1000
0000
0010
0000
,
0100
0000
0001
0000
,
1000
0000
0100
0000
,
0010
0000
0001
0000
,
0010
0000
0100
0000
,
1000
0001
1000
0001
,
1000
0000
0100
0000
,
0010
0000
0001
0000
,
1000
0000
0010
0000
,
0100
0001
0100
0001
,
0100
0000
0000
0000
,
0010
0000
0000
0000
,
1000
0000
0000
0000
,
0001
0000
0000
0000
,
0010
0000
0000
0000
,
0001
0000
0000
0000
,
0100
0000
0000
0000
,
0010
0000
0000
0000
,
1000
0000
0000
0000
,
0001
0000
0000
0000
,
0100
0000
0000
0000
,
0010
0000
0000
0000
,
1000
0000
0000
0000
,
0100
0000
0000
0000
,
0010
0000
0000
0000
,
0001
0000
0000
0000
;
