#TITLE:Youngblood;
#SUBTITLE:;
#ARTIST:5 Seconds of Summer;
#TITLETRANSLIT:;
#SUBTITLETRANSLIT:;
#ARTISTTRANSLIT:;
#GENRE:Synthpop;
#CREDIT:;
#BANNER:Youngblood-bn.png;
#BACKGROUND:Youngblood-bg.png;
#LYRICSPATH:;
#CDTITLE:cdtitle.png;
#MUSIC:Youngblood.ogg;
#OFFSET:-0.003000;
#SAMPLESTART:40.502998;
#SAMPLELENGTH:16.000000;
#SELECTABLE:YES;
#BPMS:0.000000=120.000000
;
#STOPS:
;
#BGCHANGES:
;
#KEYSOUNDS:;
#ATTACKS:;

//---------------dance-single - ----------------
#NOTES:
     dance-single:
     X-Scale 11:
     Hard:
     9:
     0.569366,0.619735,0.101083,0.216606,0.909747,552.000000,538.000000,14.000000,30.000000,0.000000,0.000000,0.569366,0.619735,0.101083,0.216606,0.909747,552.000000,538.000000,14.000000,30.000000,0.000000,0.000000:
// measure 0
0000
0000
0000
0000
,  // measure 1
0000
0000
0000
0000
,  // measure 2
0000
0000
0000
0000
,  // measure 3
0000
0000
0000
0000
,  // measure 4
0000
0000
0000
0000
,  // measure 5
0000
0000
0000
0000
,  // measure 6
0000
0000
0000
0000
,  // measure 7
0000
0000
0000
0000
,  // measure 8
0000
0000
0000
0000
0001
0000
2000
0000
0100
0000
3100
1000
0100
0000
0010
0000
,  // measure 9
0100
0000
0000
0010
0001
0000
2000
0000
0000
0000
3010
0000
0001
0000
0010
0000
,  // measure 10
2000
0000
0000
0000
3002
0000
0000
0000
2003
0001
0000
0000
3001
0000
1000
0000
,  // measure 11
0100
1000
0000
0000
0010
0000
0100
0000
0001
0100
0000
0000
0001
0000
0010
0000
,  // measure 12
0100
1000
0000
0000
0001
0000
0020
0000
0100
0000
0130
0010
0100
0000
1000
0000
,  // measure 13
0001
0000
0000
0010
0001
0000
0000
1000
0010
0000
1000
0000
0100
0000
0010
0000
,  // measure 14
0002
0000
0000
0000
0023
0000
0000
0000
0032
0010
0000
0000
1003
0000
0001
0000
,  // measure 15
0010
0001
0000
0000
1000
0000
0010
0000
0100
0010
0000
0000
1000
0000
0001
0000
,  // measure 16
0010
0000
0000
0100
0000
0000
0000
0000
0000
0000
0000
0000
1000
0000
0000
0000
0000
0000
0000
0000
0001
0000
0000
0000
1000
0000
0000
0000
0001
0000
0000
0000
1000
0000
0000
0000
0100
0000
0000
0000
1000
0000
0000
0000
0100
0000
0000
0000
,  // measure 17
1000
0010
0100
0002
0000
0003
1000
0010
0100
0002
0000
0003
,  // measure 18
0020
0000
0000
0000
0000
0000
0000
0000
0000
0130
0000
0000
0010
0000
0000
0000
0000
0000
0000
0000
0001
0000
0000
0000
0100
0000
0000
0000
0001
0000
0000
0000
0100
0000
0000
0000
0010
0000
0000
0000
0100
0000
0000
0000
0010
0000
0000
0000
,  // measure 19
1000
0100
0010
0002
0000
0003
1000
0100
0010
0002
0000
0003
,  // measure 20
0000
0000
0000
0000
0000
0000
0000
0000
0000
0000
0000
0000
0002
0000
0000
0000
0000
0000
0000
0000
0000
0000
0000
0000
0013
0000
0000
0000
0000
0000
0000
0000
0001
0000
0000
0000
1000
0000
0000
0000
0000
0000
0100
0000
0000
1000
0000
0000
,  // measure 21
0100
0000
0000
0000
0000
0000
0000
0000
1000
0000
0000
0000
0010
0000
0000
0000
0000
0000
0100
0000
0000
0010
0000
0000
0100
0000
0000
0000
0000
0000
0000
0000
0001
0000
0000
0000
0010
0000
0000
0000
0000
0000
0000
0000
0001
0000
0000
0000
,  // measure 22
1000
0000
0100
1000
0000
0010
0100
0000
0001
0010
0000
0010
,  // measure 23
1000
0000
1000
0100
0000
0100
0001
0000
0001
0010
0000
0010
,  // measure 24
1000
0000
0000
0000
0000
0000
0000
0000
0001
0000
0000
0000
1000
0000
0000
0000
0000
0000
0000
0000
0100
0000
0000
0000
0010
0000
0000
0000
0000
0000
0000
0000
0001
0000
0000
0000
0011
0000
0000
0000
0000
0000
1000
0000
0000
0001
0000
0000
,  // measure 25
1000
0000
0000
0000
0000
0000
0000
0000
0100
0000
0000
0000
1100
0000
0000
0000
0000
0000
1000
0000
0000
0100
0000
0000
1000
0000
0000
0000
0000
0000
0000
0000
0001
0000
0000
0000
0101
0000
0000
0000
0000
0000
0000
0000
0100
0000
0000
0000
,  // measure 26
0010
0000
1000
1010
0000
0010
0100
0000
0001
0101
0000
1000
,  // measure 27
0100
0000
0010
0001
0000
1000
0001
0010
0100
0010
0001
1000
,  // measure 28
0010
0000
0000
0000
0100
0000
0000
0000
0001
0000
0000
0000
0010
0000
0000
0000
0100
0000
0000
0000
1000
0000
0000
0000
1010
0000
0000
0000
0000
0000
0000
0000
0010
0000
0000
0000
0100
0000
0000
0000
0000
0000
0001
0000
0000
0100
0000
0000
,  // measure 29
0001
0000
0000
0000
0000
0000
0000
0000
1000
0000
0000
0000
0100
0000
0000
0000
0000
0000
0010
0000
0000
0001
0000
0000
0010
0000
0000
0000
0000
0000
0000
0000
0001
0000
0000
0000
1000
0000
0000
0000
0000
0000
0000
0000
0010
0000
0000
0000
,  // measure 30
0100
0000
0000
0000
0001
0000
0010
0000
0000
0001
0000
0000
1000
0000
0000
0000
0001
0000
0100
0000
0000
0000
0100
0000
,  // measure 31
1000
0000
0010
0100
0000
0100
0001
0000
0001
0010
0000
0010
,  // measure 32
1000
0000
0000
0000
0000
0000
0000
0000
0001
0000
0000
0000
0010
0000
0000
0000
0000
0000
0000
0000
0001
0000
0000
0000
1000
0000
0000
0000
0000
0000
0000
0000
0100
0000
0000
0000
1000
0000
0000
0000
0000
0000
0001
0000
0000
0100
0000
0000
,  // measure 33
0001
0000
0000
0000
0000
0000
0000
0000
0100
0000
0000
0000
0010
0000
0000
0000
0000
0000
1000
0000
0000
0100
0000
0000
1000
0000
0000
0000
0000
0000
0000
0000
0001
0000
0000
0000
0100
0000
0000
0000
0000
0000
0000
0000
0001
0000
0000
0000
,  // measure 34
0010
0000
0000
0000
0100
0000
1000
0000
0000
0001
0000
0000
1000
0000
0000
0000
0100
0000
0010
0000
0000
0000
0001
0000
,  // measure 35
1000
0000
0001
0010
0000
0100
1000
0000
0001
0100
0000
0010
,  // measure 36
1000
0001
1000
0100
0010
0001
1000
0100
1000
0100
0010
0100
,  // measure 37
0010
0001
1000
0200
0000
0300
0010
0001
1000
0200
0000
0300
,  // measure 38
1000
0000
0001
0100
0000
0001
0010
0100
0010
0100
1000
0100
,  // measure 39
1000
0010
0100
0002
0000
0003
1000
0010
0100
0002
0000
0003
,  // measure 40
1000
0100
0001
1000
0010
0001
0100
0010
0100
0010
1000
0010
,  // measure 41
1000
0100
0010
0002
0000
0003
1000
0100
0010
0002
0000
0003
,  // measure 42
0100
0000
0010
0100
0000
0000
0001
0010
0100
1000
0000
0001
,  // measure 43
0100
0000
0010
0000
1000
0000
0001
0000
0000
0000
1000
0000
0100
1000
0100
1000
0100
0000
1000
0000
0001
0000
0100
0000
,  // measure 44
0001
0000
0000
0000
1000
0000
0000
0000
0100
0000
0000
0000
1100
0000
0000
0000
0000
0000
0000
0000
0000
0000
0000
0000
0101
0000
0000
0000
0000
0000
0000
0000
0100
0000
0000
0000
0001
0000
0000
0000
0000
0000
1000
0000
0000
0100
0000
0000
,  // measure 45
1000
0000
0000
0000
0000
0000
0000
0000
0001
0000
0000
0000
0010
0000
0000
0000
0000
0000
0001
0000
0000
0010
0000
0000
0001
0000
0000
0000
0000
0000
0000
0000
1000
0000
0000
0000
0010
0000
0000
0000
0000
0000
0000
0000
0100
0000
0000
0000
,  // measure 46
0010
0000
0010
0001
0000
1000
0010
0000
0100
0001
0010
0001
,  // measure 47
1000
0000
0001
0100
0010
1000
0001
0000
1000
0100
0010
0001
,  // measure 48
1000
0000
0000
0000
0000
0000
0000
0000
0001
0000
0000
0000
0100
0000
0000
0000
0010
0000
0000
0000
1000
0000
0000
0000
0001
0000
0000
0000
0000
0000
0000
0000
1000
0000
0000
0000
0100
0000
0000
0000
0000
0000
0010
0000
0000
0001
0000
0000
,  // measure 49
0010
0000
0000
0000
0000
0000
0000
0000
0001
0000
0000
0000
1000
0000
0000
0000
0000
0000
0010
0000
0000
1000
0000
0000
0010
0000
0000
0000
0000
0000
0000
0000
0100
0000
0000
0000
0010
0000
0000
0000
0000
0000
0000
0000
1000
0000
0000
0000
,  // measure 50
0100
0000
0000
0000
0010
0000
0001
0000
0000
1000
0000
0000
0001
0000
0000
0000
0010
0000
0100
0000
1000
0000
0001
0000
,  // measure 51
0100
0000
0010
1000
0001
0010
0100
0000
1000
0010
0100
0001
,  // measure 52
1000
0000
0000
0000
1000
0000
0000
0000
1000
0000
0000
0000
2000
0000
0000
0000
0001
0000
0000
0000
0001
0000
0000
0000
3001
0000
0000
0000
0000
0000
0000
0000
0000
0000
0000
0000
1100
0000
0000
0000
0000
0000
1000
0000
0000
0100
0000
0000
,  // measure 53
1000
0000
0000
0000
0000
0000
0000
0000
0001
0000
0000
0000
0101
0000
0000
0000
0000
0000
0100
0000
0000
0001
0000
0000
0100
0000
0000
0000
0000
0000
0000
0000
0010
0000
0000
0000
0110
0000
0000
0000
0000
0000
0000
0000
1000
0000
0000
0000
,  // measure 54
0100
0000
0000
0000
0010
0000
0001
0000
0000
1000
0000
0000
0001
0000
0000
0000
0010
0000
0100
0000
1000
0000
0100
0000
,  // measure 55
0010
0000
0001
0100
1000
0100
0001
0000
0010
0001
1000
0001
,  // measure 56
0010
0000
0000
0000
0000
0000
0000
0000
0010
0000
0000
0000
0100
0000
0000
0000
0000
0000
1000
0000
0000
0000
0000
0000
0001
0000
0000
0000
0000
0000
0000
0000
0010
0000
0000
0000
0110
0000
0000
0000
0000
0000
0100
0000
0000
1000
0000
0000
,  // measure 57
0100
0000
0000
0000
0000
0000
0000
0000
1000
0000
0000
0000
1100
0000
0000
0000
0000
0000
0100
0000
0000
0010
0000
0000
0100
0000
0000
0000
0000
0000
0000
0000
0010
0000
0000
0000
0011
0000
0000
0000
0000
0000
0000
0000
1000
0000
0000
0000
,  // measure 58
0010
0000
0000
0000
0100
0000
0001
0000
0000
0100
0000
0000
0001
0000
0000
0000
0010
0000
0100
0000
0000
0000
0100
0000
,  // measure 59
1000
0001
0010
0100
0000
1000
0001
0100
0010
1000
0000
0100
,  // measure 60
0010
0001
1000
0010
0000
0100
0001
0100
0001
0010
0100
0010
,  // measure 61
0100
1000
0001
0020
0000
0030
0100
1000
0001
0020
0000
0030
,  // measure 62
0100
0000
1000
0100
0000
1000
0001
1000
0001
0010
0100
0010
,  // measure 63
0100
1000
0001
0020
0000
0030
0100
1000
0001
0020
0000
0030
,  // measure 64
1000
0000
0020
0000
0031
0000
0020
0000
0130
0000
2000
0000
3001
0000
1000
0010
,  // measure 65
1000
0000
0000
0000
0000
0000
0000
0000
0001
0000
0000
0000
0010
0000
0000
0000
0000
0000
0100
0000
0000
1000
0000
0000
0100
0000
0000
0000
0000
0000
0000
0000
1000
0000
0000
0000
0010
0000
0000
0000
0000
0000
0000
0000
1000
0000
0000
0000
,  // measure 66
0100
0000
0000
0000
0010
0000
0001
0000
0000
1000
0000
0000
0001
0000
0000
0000
1000
0000
0100
0000
0010
0000
0001
0000
,  // measure 67
1000
0000
0001
0100
0010
1000
0001
0000
0010
0100
1000
0001
,  // measure 68
0010
0000
0000
0000
0100
0000
1000
0000
0000
0002
0000
0000
0000
0000
0000
0000
0003
0000
0000
0000
0000
0000
0000
0000
;

//---------------dance-single - ----------------
#NOTES:
     dance-single:
     X-Scale 10:
     Medium:
     7:
     0.446622,0.545367,0.079422,0.555957,0.534296,433.000000,422.000000,11.000000,77.000000,0.000000,0.000000,0.446622,0.545367,0.079422,0.555957,0.534296,433.000000,422.000000,11.000000,77.000000,0.000000,0.000000:
// measure 0
0000
0000
0000
0000
,  // measure 1
0000
0000
0000
0000
,  // measure 2
0000
0000
0000
0000
,  // measure 3
0000
0000
0000
0000
,  // measure 4
0000
0000
0000
0000
,  // measure 5
0000
0000
0000
0000
,  // measure 6
0000
0000
0000
0000
,  // measure 7
0000
0000
0000
0000
,  // measure 8
0000
0000
0000
0000
0000
0000
0000
0000
1000
0000
1000
0010
1000
0000
0001
0000
,  // measure 9
0100
0000
0000
0010
0000
0000
1000
0000
0000
0000
0001
0000
0010
0000
0100
0000
,  // measure 10
2000
0000
3020
0000
2030
0000
3001
0010
,  // measure 11
0100
0000
1000
0010
0100
0000
0001
0010
,  // measure 12
0100
0000
0000
0000
1000
0000
0010
0000
0100
0000
0001
0100
0001
0000
1000
0000
,  // measure 13
0100
0000
0000
1000
0000
0000
0001
0000
0000
0000
0100
0000
0010
0000
1000
0000
,  // measure 14
0002
0000
0023
0000
0032
0000
1003
0010
,  // measure 15
0100
0000
0001
0010
0100
0000
1000
0010
,  // measure 16
0100
0000
0001
0010
0100
0000
1000
0000
,  // measure 17
0001
0100
0010
0100
0000
0000
0001
0100
0010
0100
0000
0000
,  // measure 18
0001
0000
1000
0001
0000
0000
1000
0000
0000
0100
0000
0000
,  // measure 19
1000
0010
0100
0010
0000
0000
1000
0010
0100
0010
0000
0000
,  // measure 20
1000
0001
1001
1000
,  // measure 21
0010
0000
0100
0010
0000
0000
0100
0000
0010
0100
0000
0000
,  // measure 22
0001
0000
1000
0100
0000
0010
0001
0000
1000
0200
0000
0000
,  // measure 23
2300
3002
0203
0320
,  // measure 24
1030
0000
0100
0010
0000
0001
1000
0000
0000
1001
0000
0000
,  // measure 25
0001
0101
0100
0110
,  // measure 26
0010
0000
0000
1010
0000
0000
1000
0000
0100
0020
0000
0000
,  // measure 27
0001
0000
0031
0020
0000
0000
0100
0000
0130
0020
0000
0000
,  // measure 28
0001
0000
0030
0011
0000
0000
1001
0000
0001
1000
0000
0010
,  // measure 29
0100
0000
0100
0010
0000
1000
0001
0000
1000
0100
0000
0010
,  // measure 30
0001
0000
1000
0001
0000
0100
0010
0000
1000
0200
0000
0000
,  // measure 31
0320
0032
2003
3002
,  // measure 32
0203
0000
0010
0310
0000
1000
0010
0000
1000
0001
0000
0001
,  // measure 33
0100
0000
0010
0100
0000
0100
0001
0000
1000
0001
0000
1000
,  // measure 34
0010
0000
0100
0001
0000
2000
0000
0000
3001
0200
0000
2300
,  // measure 35
0000
3000
0200
0302
0000
0203
0000
0300
0020
2030
0000
3002
,  // measure 36
0000
0000
0000
0000
0013
0000
0001
0000
0000
0000
1000
0000
0010
0000
0000
0000
1000
0000
0100
0000
0000
1000
0000
0000
,  // measure 37
0001
0010
0100
1000
0000
0000
0001
0010
0100
1000
0000
0000
,  // measure 38
0001
0000
0000
0000
1000
0000
0000
0000
0000
0000
0001
0000
0100
0000
0000
0000
0001
0000
1000
0000
0000
0100
0000
0000
,  // measure 39
1000
0001
0100
0010
0000
0000
1000
0001
0100
0010
0000
0000
,  // measure 40
1000
0000
0000
0000
0001
0000
0010
0000
0000
0001
0000
0000
1000
0000
0000
0000
0010
0000
0100
0000
0000
0001
0000
0000
,  // measure 41
0100
0010
1000
0001
0000
0000
0100
0010
1000
0001
0000
0000
,  // measure 42
1000
0000
0000
0000
0001
0000
0010
0000
0000
0001
0000
0000
1000
0000
0000
0000
0001
0000
0100
0000
0000
0000
0010
0000
,  // measure 43
2000
0000
0000
3001
0000
2000
3001
1000
0100
0001
0100
0010
,  // measure 44
0100
0000
0000
0000
1000
0000
0000
0000
0100
0000
0000
0000
1100
0000
0000
0000
0000
0000
0000
0000
0000
0000
0000
0000
1001
0000
0000
0000
0000
0000
0000
0000
0000
0000
0000
0000
1000
0000
0000
0000
0000
0000
0001
0000
0000
0010
0000
0000
,  // measure 45
0001
0000
0000
0000
0000
0000
1000
0000
0000
0000
0000
0000
0001
0000
0000
0000
0000
0000
0001
0000
0000
0010
0000
0000
0001
0000
0000
0000
0000
0000
1000
0000
0000
0000
0000
0000
0010
0000
0000
0000
0000
0000
0000
0000
0100
0000
0000
0000
,  // measure 46
0010
0000
1000
0001
0000
0010
0100
0000
1000
0002
0000
0000
,  // measure 47
0023
2030
3020
0230
,  // measure 48
2300
0000
0000
0000
0000
0000
0000
0000
0100
0000
0000
0000
3100
0000
0000
0000
0000
0000
0000
0000
1000
0000
0000
0000
0001
0000
0000
0000
0000
0000
0000
0000
1000
0000
0000
0000
0100
0000
0000
0000
0000
0000
0010
0000
0000
0001
0000
0000
,  // measure 49
0010
0000
0000
0000
0000
0000
0001
0000
0000
0000
0000
0000
0001
0000
0000
0000
0000
0000
0010
0000
0000
0001
0000
0000
0010
0000
0000
0000
0000
0000
0001
0000
0000
0000
0000
0000
1000
0000
0000
0000
0000
0000
0000
0000
0010
0000
0000
0000
,  // measure 50
0100
0000
0001
0020
0000
0230
0000
0000
1300
0002
0000
0023
,  // measure 51
0000
0030
0002
2003
0000
3200
0000
0300
2000
3002
0000
0023
,  // measure 52
0000
0000
0000
0000
0030
0000
0000
0000
0100
0000
0000
0000
0110
0000
0000
0000
0000
0000
0000
0000
0000
0000
0000
0000
1001
0000
0000
0000
0000
0000
0000
0000
0000
0000
0000
0000
0010
0000
0000
0000
0000
0000
0001
0000
0000
1000
0000
0000
,  // measure 53
0001
0000
0000
0000
0000
0000
0010
0000
0000
0000
0000
0000
0010
0000
0000
0000
0000
0000
0001
0000
0000
1000
0000
0000
0001
0000
0000
0000
0000
0000
0010
0000
0000
0000
0000
0000
0010
0000
0000
0000
0000
0000
0000
0000
0100
0000
0000
0000
,  // measure 54
1000
0000
0001
0100
0000
0010
1000
0000
0001
0020
0000
0100
,  // measure 55
0230
0000
1000
2300
0000
0010
3020
0000
0100
0230
0000
0001
,  // measure 56
0302
0000
0000
0000
0000
0000
0000
0000
0010
0000
0000
0000
0023
0000
0000
0000
0000
0000
0000
0000
0031
0000
0000
0000
0010
0000
0000
0000
0000
0000
0000
0000
0100
0000
0000
0000
1000
0000
0000
0000
0000
0000
0001
0000
0000
1000
0000
0000
,  // measure 57
0001
0000
0000
0000
0000
0000
0100
0000
0000
0000
0000
0000
0100
0000
0000
0000
0000
0000
0001
0000
0000
1000
0000
0000
0001
0000
0000
0000
0000
0000
0100
0000
0000
0000
0000
0000
0100
0000
0000
0000
0000
0000
0000
0000
0010
0000
0000
0000
,  // measure 58
1000
0000
0001
0020
0000
0230
0000
0000
1300
0200
0000
2300
,  // measure 59
0001
0000
3002
0023
0000
0230
1000
0000
1300
0002
0000
0023
,  // measure 60
1000
0000
0000
0000
0031
0000
0002
0000
0000
0000
0103
0000
0010
0000
0000
2000
0000
0000
3001
0000
0000
0000
0000
0000
,  // measure 61
1000
0010
0100
0001
0000
0000
1000
0010
0100
0001
0000
0000
,  // measure 62
1000
0000
0000
0000
0001
0000
0100
0000
0000
0000
0000
0000
0001
0000
0000
0200
0000
0000
0301
0000
0000
0000
0000
0000
,  // measure 63
1000
0100
0010
0001
0000
0000
1000
0100
0010
0001
0000
0000
,  // measure 64
1000
0000
0002
0000
0013
0000
0002
0000
1003
0000
0002
0000
0103
0000
0010
0100
,  // measure 65
0010
0000
0000
0000
0000
0000
1000
0000
0000
0000
0000
0000
1000
0000
0000
0000
0000
0000
0010
0000
0000
0100
0000
0000
0010
0000
0000
0000
0000
0000
1000
0000
0000
0000
0000
0000
1000
0000
0000
0000
0000
0000
0000
0000
0001
0000
0000
0000
,  // measure 66
0010
0000
0100
1000
0000
0001
0100
0000
0010
2000
0000
0001
,  // measure 67
3002
0000
0100
0203
0000
0010
0320
0000
1000
2030
0000
0001
,  // measure 68
3002
0000
0013
0002
0000
2003
0000
0000
3000
0000
0000
0000
;

//---------------dance-single - ----------------
#NOTES:
     dance-single:
     X-Scale 5:
     Easy:
     4:
     0.271274,0.346209,0.064982,0.447653,0.046931,263.000000,254.000000,9.000000,62.000000,0.000000,0.000000,0.271274,0.346209,0.064982,0.447653,0.046931,263.000000,254.000000,9.000000,62.000000,0.000000,0.000000:
0000
0000
0000
0000
,
0000
0000
0000
0000
,
0000
0000
0000
0000
,
0000
0000
0000
0000
,
0000
0000
0000
0000
,
0000
0000
0000
0000
,
0000
0000
0000
0000
,
0000
0000
0000
0000
,
0000
0000
1000
0100
,
1000
0000
0001
0100
0010
0000
1000
0001
,
2000
3020
0230
0301
,
1000
0001
0020
0130
,
0010
0000
0001
0000
1000
0000
0010
0100
,
0001
0000
1000
0001
0100
0000
0001
0010
,
0200
0320
0032
1003
,
0001
0100
0010
0100
,
0001
1000
0010
0010
,
1000
0002
1003
0002
,
0103
0000
0001
0100
0000
0000
0010
0000
0000
0010
0000
0000
,
1000
0002
1003
0002
,
0003
2000
3100
1000
,
0001
0010
0001
0000
1000
0010
1000
0000
,
0001
0010
0100
2000
,
3020
0230
0302
2003
,
3002
0023
0130
1100
,
1000
1001
0001
0011
,
0010
0110
0100
2100
,
0000
3002
0000
0023
,
0000
0130
0110
0100
,
1000
0100
1000
0000
1000
0100
1000
0000
,
0100
0000
0000
0010
0000
0000
0001
0000
0000
0001
0000
0010
,
0000
0000
0001
0010
0000
0100
0000
0000
1000
0100
0000
1000
,
0000
0000
0001
0100
0000
0001
0100
0000
0000
0001
0000
0000
,
1000
0100
1000
0000
1000
0100
1000
0000
,
0010
0100
0001
0002
,
0000
2003
0000
3002
,
0000
0013
0001
0001
,
1000
0200
1300
0200
,
0310
0000
0001
0000
0000
0000
1000
0000
0000
1000
0000
0000
,
0001
0200
0301
0200
,
0300
0010
1000
1000
,
0001
0200
0301
0200
,
0310
0000
1000
0001
0000
0000
1000
0000
0000
0100
0000
0000
,
2000
3001
0020
0000
,
0000
0031
0011
0010
,
0100
1000
0100
0000
0100
1000
0100
0000
,
0010
0100
1000
0020
,
0230
0302
2003
3002
,
0023
0000
0000
0130
0000
1000
0100
0000
0000
1000
0000
0000
,
0001
0010
0001
0000
0001
0010
0001
0000
,
1000
0010
0100
0002
,
0000
2003
0000
3002
,
0000
0013
0011
1000
,
0100
1000
0100
0000
0100
1000
0100
0000
,
0010
0001
1000
0002
,
0023
0032
2003
3200
,
0320
0000
0000
0031
0000
0010
0001
0000
0000
1000
0000
0000
,
0001
0100
0001
0000
0001
0100
0001
0000
,
1000
0100
1000
0020
,
0000
0230
0000
0320
,
0000
1030
1001
0001
,
0100
0020
0130
0020
,
1030
0000
0010
1000
0000
0000
0001
0000
0000
0001
0000
0000
,
1000
0200
1300
0200
,
0310
0001
1000
0001
,
0010
0100
0010
0000
0010
0100
0010
0000
,
0001
1000
0010
0200
,
0302
2003
3002
0023
,
0230
2300
3000
0000
;

//---------------dance-single - ----------------
#NOTES:
     dance-single:
     X-Scale 2:
     Beginner:
     2:
     0.135121,0.173105,0.021661,0.000000,0.000000,131.000000,128.000000,3.000000,0.000000,0.000000,0.000000,0.135121,0.173105,0.021661,0.000000,0.000000,131.000000,128.000000,3.000000,0.000000,0.000000,0.000000:
0000
0000
0000
0000
,
0000
0000
0000
0000
,
0000
0000
0000
0000
,
0000
0000
0000
0000
,
0000
0000
0000
0000
,
0000
0000
0000
0000
,
0000
0000
0000
0000
,
0000
0000
0000
0000
,
0000
0000
0000
1000
,
0000
0001
0000
1000
,
0000
0001
0000
0010
,
0000
0100
0000
0010
,
0000
0100
0000
1000
,
0000
0010
0000
1000
,
0000
0010
0000
0100
,
0000
0001
0000
0100
,
0000
0001
1000
0001
,
0000
0100
0000
0010
,
0000
1000
0001
1000
,
0000
0010
0000
0100
,
0000
0001
0101
0000
,
0100
0000
0100
0000
,
0001
0000
0001
0000
,
1000
0000
1000
0000
,
0001
0000
0001
0000
,
1000
0000
0001
0000
,
1000
0000
0001
0100
,
0000
0100
0000
0100
,
0000
0100
0101
0000
,
0001
0000
1000
0000
,
0001
0000
1000
0000
,
0010
0000
0100
0000
,
0010
0000
0100
0000
,
0001
0000
1000
0000
,
0001
0000
1000
0100
,
0000
0100
0000
0100
,
0000
0100
1000
0000
,
0001
0000
1000
0000
,
0001
0000
0010
0000
,
0100
0000
0010
0000
,
0100
0000
1000
0001
,
0000
1000
0000
0001
,
0000
1000
0000
0100
,
0000
0010
0001
0000
,
0000
1000
1001
0000
,
1000
0000
0001
0000
,
1000
0000
0001
0000
,
0100
0000
0010
0000
,
0100
0000
0010
0000
,
1000
0000
0001
0000
,
1000
0000
0001
0010
,
0000
0010
0000
0010
,
0000
0010
0100
0000
,
1000
0000
0100
0000
,
1000
0000
0001
0000
,
0100
0000
0001
0000
,
0100
0000
0001
0000
,
0010
0000
0001
0000
,
0010
0000
0100
1000
,
0000
1000
0000
1000
,
0000
1000
0001
0000
,
1000
0000
0001
0000
,
1000
0000
0100
0000
,
1000
0000
0100
0000
,
0010
0000
0001
0000
,
0010
0000
0001
0000
,
1000
0000
0001
0000
,
1000
0000
0001
0000
,
0010
0000
0100
0000
;
