#TITLE:闇の中;
#SUBTITLE:;
#ARTIST:Mai Melody feat. Calum X;
#TITLETRANSLIT:Yami no Naka;
#SUBTITLETRANSLIT:;
#ARTISTTRANSLIT:;
#GENRE:Alternative J-Pop;
#CREDIT:;
#BANNER:Yami no Naka-bn.png;
#BACKGROUND:Yami no Naka-bg.png;
#LYRICSPATH:;
#CDTITLE:cdtitle.png;
#MUSIC:Yami no Naka.ogg;
#OFFSET:-0.006000;
#SAMPLESTART:41.384998;
#SAMPLELENGTH:16.552000;
#SELECTABLE:YES;
#BPMS:0.000000=116.000000
;
#STOPS:
;
#BGCHANGES:;
#KEYSOUNDS:;
#ATTACKS:;

//---------------dance-single - ----------------
#NOTES:
     dance-single:
     X-Scale 5:
     Easy:
     3:
     0.152057,0.219216,0.101372,0.152057,0.000000,105.000000,95.000000,10.000000,15.000000,0.000000,0.000000,0.152057,0.219216,0.101372,0.152057,0.000000,105.000000,95.000000,10.000000,15.000000,0.000000,0.000000:
0000
0000
0000
0000
,
0000
0000
0000
0000
,
0000
0000
0000
0000
,
0000
0000
0000
0000
,
2000
0000
0000
0002
0000
0000
0000
0000
,
0000
3003
0000
0001
0200
0000
0301
2000
,
0000
0000
0000
0000
0000
0000
3100
0010
,
0002
0000
0000
0000
0000
0003
0000
1000
,
0002
0000
0000
0203
0000
0301
0010
0200
,
0000
0000
0300
0000
1000
0100
0010
0002
,
0000
0000
0000
0000
0000
0000
0103
0002
,
0000
0000
0000
0013
0000
0000
0000
0000
,
0001
0000
0000
1000
0000
0000
0010
0000
,
1000
0000
0000
0001
0000
0000
0100
0000
,
0001
0000
1000
0000
,
0010
0000
1000
0000
,
0001
0000
0000
0100
0000
0000
0001
0000
,
1000
0000
0000
0100
0000
0000
1000
0000
,
0001
0000
0100
0000
,
0001
0000
1000
0000
,
1001
1000
0001
0100
,
0101
0000
0001
0000
,
1100
0000
0100
0000
1000
0000
0001
0200
,
0000
0000
0301
0100
,
0001
1000
0001
0100
,
0101
0000
0001
0000
,
1001
0000
1000
0000
,
0000
0001
0000
0000
,
0101
0000
1000
0000
,
0001
0000
0101
0000
,
1000
0000
0100
0000
1000
0000
0001
0200
,
0000
0000
0301
1000
,
0010
1000
0001
1000
,
1001
0000
1000
0000
,
1100
0000
0000
0001
1000
0000
1001
0000
,
0000
0000
0001
0020
0000
0032
0000
2003
,
0000
0000
3000
0000
,
0000
0100
0000
0000
,
1000
0000
0000
0000
,
0000
0000
0000
0000
,
0001
0000
0000
0000
,
0000
0100
0000
0000
,
0001
0000
0000
0000
,
0000
1000
0000
0000
;

//---------------dance-single - ----------------
#NOTES:
     dance-single:
     X-Scale 10:
     Medium:
     7:
     0.298322,0.396363,0.344663,0.162194,0.167263,206.000000,172.000000,34.000000,16.000000,0.000000,0.000000,0.298322,0.396363,0.344663,0.162194,0.167263,206.000000,172.000000,34.000000,16.000000,0.000000,0.000000:
0000
0000
0000
0000
,
0000
0000
0000
0000
,
0000
0000
0000
0000
,
0000
0000
0000
0000
,
0001
0000
0000
1000
0000
0000
2002
0000
0000
0000
0000
0000
0000
0000
0000
0000
,
3003
0000
0000
0100
0000
0000
0110
0000
0000
0000
0000
0000
0000
0000
0000
0000
,
1000
0000
0000
0100
0000
0000
2200
0000
0000
0000
0000
0000
0000
0000
0000
0000
,
3300
0000
0000
0001
0000
0000
1001
0000
0000
0000
0000
0000
0000
0000
0000
0000
,
0001
0000
0000
0100
0000
0000
0101
0000
0000
0000
1000
0000
0001
0000
0000
1000
,
0000
0000
0000
1100
0000
0000
0101
0000
0000
0000
0000
0000
0001
0000
0020
0000
,
0100
0000
0000
0100
0000
0000
0200
0000
0000
0000
0030
0000
0310
0000
0002
0000
,
0000
0000
0003
1000
0000
0000
1001
0000
0000
0000
0000
0000
0000
0000
0000
0000
,
1100
0000
0000
0100
1000
0000
0001
0000
0100
0000
0000
0000
0001
0000
0010
0000
,
0100
0000
0000
0010
0001
0000
1000
0000
0001
0000
0000
0000
0100
0000
0010
0000
,
1000
0000
0000
0100
0000
0000
0001
0000
1000
0000
0000
0010
0000
0000
0001
0000
,
1000
0000
0000
0100
0000
0000
0001
0000
1000
0000
0000
0010
0000
0000
0001
0000
,
1000
0000
0000
0001
0100
0000
0001
0000
0000
0000
0000
0000
0010
0000
0100
0000
,
1000
0000
0000
0100
0010
0000
0100
0000
2000
0000
0000
0000
3002
0000
0000
0000
,
0103
0000
0000
0010
0100
0000
0001
0000
1000
0000
0000
0100
0000
0000
0020
0000
,
0000
0000
0000
0000
0000
0000
0000
0000
0031
0000
0000
1000
0000
0000
0001
0000
,
1001
0110
1001
0110
,
1001
0000
0001
0000
,
1100
0000
0101
0000
1100
0000
1000
0002
,
0000
0000
0000
0000
0010
0000
0003
0000
0011
0000
0000
0001
1000
0000
0001
0000
,
1001
1100
0101
1100
,
1001
0000
1000
0000
,
1001
0000
0001
1000
0001
0000
0110
0000
,
0000
0000
0000
0000
1010
0000
0000
1000
0000
1000
0001
0000
0100
0000
0001
0000
,
1000
0000
0000
0100
0000
0000
0001
0000
1000
0000
0000
0010
0000
0000
0001
0000
,
1000
0000
0000
0010
0000
0000
0100
0000
0001
0000
0000
0000
0000
0000
0000
0000
,
0101
0000
1100
0000
0101
0000
0001
2000
,
0000
0000
0000
0000
0010
0000
3000
1000
0001
0000
0100
0001
0000
0010
0100
0000
,
1100
0101
1100
0101
,
1100
0000
0000
0000
0000
0000
0000
0000
0100
0000
1000
0000
0001
0100
0000
0001
,
1000
0000
0100
0010
0100
0000
1000
0000
,
0001
0000
0000
0000
0100
0000
0001
1000
0000
0001
1000
0000
0001
0000
0010
0000
,
0100
0000
0000
0000
,
0000
1000
0000
0000
,
0001
0000
0000
0200
,
0000
0000
0302
0000
0000
0000
1003
0100
,
0010
0000
0000
0100
0000
0000
1000
0001
,
0000
0000
0010
0100
0000
0000
1000
0100
,
2000
0000
0000
0001
,
0001
0002
0000
0000
,
0000
0000
0000
0000
,
0000
0000
0000
0000
,
3003
0000
0000
0000
;

//---------------dance-single - ----------------
#NOTES:
     dance-single:
     X-Scale 11:
     Hard:
     8:
     0.376523,0.512940,0.212880,0.364938,0.243292,260.000000,239.000000,21.000000,36.000000,0.000000,0.000000,0.376523,0.512940,0.212880,0.364938,0.243292,260.000000,239.000000,21.000000,36.000000,0.000000,0.000000:
// measure 0
0000
0000
0000
0000
,  // measure 1
0000
0000
0000
0000
,  // measure 2
0000
0000
0000
0000
,  // measure 3
0000
0000
0000
0000
0000
0000
0000
1000
,  // measure 4
0100
0000
1000
0001
0000
0000
0012
0000
0000
0000
0000
0000
0000
0000
0000
0000
,  // measure 5
0000
0000
1003
0001
0000
0000
0001
0000
0100
0000
0010
0000
1000
0000
0200
0000
,  // measure 6
0010
0000
0000
0010
0000
0000
0010
0000
0000
0000
0000
0000
1000
0000
0010
0000
,  // measure 7
2300
0000
0000
0001
0000
0000
0001
0000
0000
0000
0000
0000
0000
0000
3010
0000
,  // measure 8
1000
0000
0001
0100
0000
0000
0120
0000
0000
0000
1030
0000
0001
0000
0000
0200
,  // measure 9
0000
0000
0301
0010
0000
0000
0010
0100
1000
0000
0001
0000
0100
0000
0002
0000
,  // measure 10
1000
0000
0000
1000
0000
0000
1000
0000
0000
0000
0000
0000
0013
0000
0200
0000
,  // measure 11
0000
0000
0000
0001
0000
0000
1300
0000
0100
0000
0001
0000
0100
0000
1000
0000
,  // measure 12
0001
0000
0100
0010
1000
0000
1001
0000
0001
0000
1000
0000
0010
0000
1000
0100
,  // measure 13
0010
0000
0000
0010
0001
0000
0011
0000
0001
0000
0010
0000
0100
0000
1000
0100
,  // measure 14
1000
0000
0010
0100
0000
0010
1000
0001
0100
0000
0000
0010
0000
0000
1000
0010
,  // measure 15
1000
0000
0000
0100
0010
0000
0010
0001
0010
0000
0100
0000
0100
0000
1000
0000
,  // measure 16
1100
0000
0000
0010
1000
0000
0001
0100
0001
0000
1000
0000
0001
0000
0100
0001
,  // measure 17
0100
0000
0010
1000
0000
0000
1100
0000
1000
0000
0100
0000
0001
0000
0100
0010
,  // measure 18
0100
0000
1000
0010
0000
0000
0100
0001
0010
0000
0000
0100
0010
0000
0010
0000
,  // measure 19
0100
0000
0000
0000
0100
0000
0000
0000
0110
0000
0000
0011
0000
0000
1001
0000
,  // measure 20
2000
3200
0302
0023
,  // measure 21
2030
0000
0000
0001
3002
0000
0013
0100
,  // measure 22
2000
0000
3020
0000
0032
0000
0103
2000
,  // measure 23
0000
0000
0000
0000
3100
0000
0000
1000
0001
0000
0000
0011
0000
0000
1001
0000
,  // measure 24
2010
3200
0302
0023
,  // measure 25
2030
0000
0000
0000
0000
0000
0000
0000
3100
0000
1000
0000
0001
0100
1000
0100
,  // measure 26
0001
0000
0000
0010
0100
0000
0100
0000
0100
0000
1000
0000
0001
0000
0100
0000
,  // measure 27
0000
0000
0000
0010
0100
0000
0001
1000
0001
0010
0100
0000
0000
0000
0100
0000
,  // measure 28
1000
0000
0000
0010
1000
0000
0001
0000
0010
0000
0000
0100
0010
0000
0100
0000
,  // measure 29
1000
0000
0000
1000
0001
0000
0001
0000
0200
0000
0000
0000
0310
0000
1000
0000
,  // measure 30
1010
0000
0011
0000
0101
0000
1100
2000
,  // measure 31
0000
0000
0000
0000
3001
0000
0000
1000
0100
0000
1000
0000
0001
0010
0001
0000
,  // measure 32
0011
1010
1010
0110
,  // measure 33
0201
0000
0000
0000
0000
0000
0310
0000
0100
0000
0001
0000
1000
0100
0001
0100
,  // measure 34
1000
0000
0000
0100
0010
0000
0001
0000
0001
0000
1000
0000
0010
0000
0100
0000
,  // measure 35
0000
0000
0100
0000
0001
0000
1000
0010
0000
0100
0010
0000
1000
0000
2000
0000
,  // measure 36
0002
0000
0000
3000
,  // measure 37
0000
0020
0000
0003
,  // measure 38
0230
0000
0000
1000
,  // measure 39
2300
0000
0002
0000
0000
3003
1000
0001
,  // measure 40
0020
0000
0000
0100
0000
0000
0001
0001
,  // measure 41
0000
0000
0230
0000
0000
0000
1300
0001
,  // measure 42
0200
0000
0000
0000
0000
0000
0301
0100
,  // measure 43
2000
0002
0000
0000
,  // measure 44
0000
0000
0000
0000
,  // measure 45
0000
0000
0000
0000
,  // measure 46
3003
0000
0000
0000
;

//---------------dance-single - ----------------
#NOTES:
     dance-single:
     X-Scale 1:
     Beginner:
     1:
     0.047789,0.065765,0.000000,0.000000,0.000000,33.000000,33.000000,0.000000,0.000000,0.000000,0.000000,0.047789,0.065765,0.000000,0.000000,0.000000,33.000000,33.000000,0.000000,0.000000,0.000000,0.000000:
0000
0000
0000
0000
,
0000
0000
0000
0000
,
0000
0000
0000
0000
,
0000
0000
0000
0000
,
0001
0000
0000
0000
,
0000
0000
0000
0000
,
1000
0000
0000
0000
,
0000
0000
0000
0000
,
0001
0000
0000
0000
,
0000
0000
0000
0000
,
1000
0000
0000
0000
,
0000
0000
0000
0000
,
0100
0000
0000
0000
,
0010
0000
0000
0000
,
0100
0000
0000
0000
,
0010
0000
0000
0000
,
0001
0000
0000
0000
,
1000
0000
0000
0000
,
0001
0000
0000
0000
,
1000
0000
0000
0000
,
0010
0000
0000
0000
,
1000
0000
0000
0000
,
0001
0000
0000
0000
,
1000
0000
0000
0000
,
0010
0000
0000
0000
,
1000
0000
0000
0000
,
0001
0000
0000
0000
,
0010
0000
0000
0000
,
0100
0000
0000
0000
,
0010
0000
0000
0000
,
0001
0000
0000
0000
,
0010
0000
0000
0000
,
0100
0000
0000
0000
,
1000
0000
0000
0000
,
0001
0000
0000
0000
,
1000
0000
0000
0000
,
0001
0000
0000
0000
,
0000
0000
0000
0000
,
0010
0000
0000
0000
,
0000
0000
0000
0000
,
0100
0000
0000
0000
,
0000
0000
0000
0000
,
1000
0000
0000
0000
,
0000
0001
0000
0000
;
