#TITLE:YA KIDDING;
#SUBTITLE:;
#ARTIST:FISHER;
#TITLETRANSLIT:;
#SUBTITLETRANSLIT:;
#ARTISTTRANSLIT:;
#GENRE:Tech House;
#CREDIT:;
#BANNER:YA KIDDING-bn.png;
#BACKGROUND:YA KIDDING-bg.png;
#LYRICSPATH:;
#CDTITLE:cdtitle.png;
#MUSIC:YA KIDDING.ogg;
#OFFSET:-0.003000;
#SAMPLESTART:61.443001;
#SAMPLELENGTH:15.360000;
#SELECTABLE:YES;
#BPMS:0.000000=124.999992
;
#STOPS:27.000000=1.920000
;
#BGCHANGES:0.000=YA KIDDING.avi=1.000=1=0=0=StretchNoLoop==CrossFade==,
99999=-nosongbg-=1.000=0=0=0 // don't automatically add -songbackground-
;
#KEYSOUNDS:;
#ATTACKS:;

//---------------dance-single - ----------------
#NOTES:
     dance-single:
     X-Scale 11:
     Hard:
     8:
     0.505768,0.538345,0.041651,0.301973,0.328005,340.000000,336.000000,4.000000,29.000000,4.000000,0.000000,0.505768,0.538345,0.041651,0.301973,0.328005,340.000000,336.000000,4.000000,29.000000,4.000000,0.000000:
// measure 0
0000
0000
0000
0000
,  // measure 1
0000
0000
0000
0000
,  // measure 2
0000
0000
0000
0000
,  // measure 3
0000
0000
0000
0000
,  // measure 4
1000
0000
0100
0000
0010
0000
0001
0010
0001
0000
0100
0000
0010
0000
1000
0010
,  // measure 5
1000
0000
0100
0000
0010
0000
0001
0010
0001
0000
0100
0000
0010
0000
1000
0010
,  // measure 6
2000
0000
0000
3001
0020
0000
0000
0130
0020
0000
0032
0000
0103
0000
0000
0000
,  // measure 7
1100
0000
0000
1000
0010
0000
1000
0000
0001
0000
0010
0000
0100
0000
0000
0000
,  // measure 8
1000
0000
0000
0001
0010
0000
0001
0000
1000
0000
0010
0000
0100
0000
0000
0010
,  // measure 9
0100
0000
0000
0001
0010
0000
0100
0000
1000
0000
0001
0000
0100
0000
0000
0000
,  // measure 10
0010
0000
0000
1000
0010
0000
1000
0000
0100
0000
0010
0000
0001
0000
0000
0010
,  // measure 11
0001
0000
0000
1000
0010
0000
0001
0000
0010
0000
0100
0000
0010
0000
0000
0000
,  // measure 12
1000
0000
0000
0100
1000
0000
0001
0000
0100
0000
0010
0000
1000
0000
0000
1000
,  // measure 13
0002
0000
0003
0100
0020
0000
0M30
0010
0001
0000
1000
0000
0010
0000
0001
0000
,  // measure 14
0010
0000
1000
0000
0010
0000
0100
0000
0001
0000
1000
0000
0100
0000
1000
0100
,  // measure 15
1000
0000
0000
0100
0000
0000
1000
0000
0001
0000
0100
0000
0001
0000
0000
0000
,  // measure 16
0010
0000
0000
0100
0000
0000
0010
0000
0001
0000
1000
0000
0001
0000
0000
0100
,  // measure 17
0001
0000
0000
1000
0000
0000
0001
0000
0010
0000
0100
0000
1000
0000
0000
0000
,  // measure 18
0010
0000
0000
0100
0000
0000
0010
0000
1000
0000
0100
0000
0010
0000
0000
0001
,  // measure 19
0010
0000
0000
0001
0000
0000
1000
0000
0010
0000
0100
0000
0010
0000
0000
0000
,  // measure 20
1000
0000
0000
0001
0000
0000
1000
0000
0100
0000
0010
0000
0001
0000
0000
1000
,  // measure 21
0100
0000
0000
1000
0000
0000
0001
0000
1000
0000
0100
0000
0010
0000
0000
0000
,  // measure 22
0001
0000
0000
0100
0000
0000
0010
0000
1000
0000
0100
0000
0010
0000
0000
0001
,  // measure 23
0100
0001
1000
0001
0010
0100
1000
0010
,  // measure 24
1000
0000
0001
0000
0100
0000
0010
0000
1000
0000
0001
0000
0010
0000
0001
0010
,  // measure 25
0001
1000
0100
0001
0100
1000
0010
0100
,  // measure 26
0001
0000
0010
0000
0100
0000
1000
0000
0010
0000
0100
0000
0010
0000
1000
0010
,  // measure 27
1000
0100
0010
0001
1000
0001
0100
0010
,  // measure 28
1000
0000
0001
0000
0010
0000
0001
0000
0100
0000
0010
0000
1000
0000
0001
1000
,  // measure 29
0004
0000
0000
0000
,  // measure 30
1003
0100
00M0
0100
0001
1000
0000
0001
0010
0100
1000
0000
1100
0000
1000
0000
,  // measure 31
2002
0000
3003
0000
0200
0000
0302
0000
2003
0000
3200
0000
0320
0000
0032
0023
,  // measure 32
0032
0000
0000
1000
0000
0000
0010
0000
1000
0000
0100
0000
1003
0000
1000
0000
,  // measure 33
1001
0000
0000
0010
0001
0000
1000
0000
0001
0000
0010
0000
0100
0000
0010
0000
,  // measure 34
0001
0000
0000
1000
0001
0000
1000
0000
0100
0000
0010
0000
0100
0000
1000
0100
,  // measure 35
1000
0000
0000
0001
0100
0000
0001
0000
1000
0000
0100
0000
0010
0000
0001
0000
,  // measure 36
1000
0000
0000
0010
1000
0000
0001
0000
0010
0000
1000
0000
0010
0000
0001
1000
,  // measure 37
0002
0000
0003
0100
0020
0000
0M30
0010
0001
0000
1000
0000
0001
0000
0100
0000
,  // measure 38
0010
0000
0000
1000
0000
0000
0001
0000
0010
0000
0100
0000
1000
0000
0001
1000
,  // measure 39
0002
0000
0003
0000
2000
0000
3200
0000
0320
0000
0230
0000
2300
0000
3002
0203
,  // measure 40
0320
0000
0000
0001
0000
0000
0100
0000
1000
0000
0000
0000
1030
0000
0010
1000
,  // measure 41
0010
0000
0000
0100
0001
0000
1000
0000
0100
0000
0010
0000
0001
0000
1000
0000
,  // measure 42
0010
0000
0000
0100
0010
0000
1000
0000
0100
0000
0001
0000
0100
0000
1000
0100
,  // measure 43
1000
0000
0000
0001
0100
0000
0010
0000
0001
0000
0010
0000
1000
0000
0001
0000
,  // measure 44
0100
0000
0000
0010
0100
0000
0001
0000
0010
0000
0100
0000
1000
0000
0001
1000
,  // measure 45
0002
0000
0003
0100
0020
0000
0M30
0010
0001
0000
1000
0000
0001
0000
0100
0000
,  // measure 46
0010
0000
0000
1000
0001
0000
0010
0000
0100
0000
1000
0000
0001
0000
1000
0001
,  // measure 47
1000
0000
0000
0000
;

//---------------dance-single - ----------------
#NOTES:
     dance-single:
     X-Scale 9:
     Medium:
     6:
     0.400152,0.415441,0.020826,0.031239,0.109335,269.000000,267.000000,2.000000,3.000000,0.000000,0.000000,0.400152,0.415441,0.020826,0.031239,0.109335,269.000000,267.000000,2.000000,3.000000,0.000000,0.000000:
0000
0000
0000
0000
,
0000
0000
0000
0000
,
0000
0000
0000
0000
,
0000
0000
0000
0000
,
0001
0000
1000
0100
0001
0000
0001
0100
,
1000
0000
0001
0010
1000
0000
1000
0010
,
0001
0000
1000
0000
0010
0100
0001
0000
,
0101
0000
0000
0100
0000
0000
0010
0000
1000
0000
0001
0000
0010
0000
0000
0000
,
0100
0000
0000
1000
0000
0000
0001
0000
0100
0000
0010
0000
1000
0000
0000
0000
,
0100
0000
0000
0010
0000
0000
0100
0000
1000
0000
0001
0000
0100
0000
0000
0000
,
0001
0000
0000
1000
0000
0000
0100
0000
0001
0000
0100
0000
1000
0000
0000
0000
,
0001
0000
0000
0010
0000
0000
0001
0000
1000
0000
0001
0000
0010
0000
0000
0000
,
0100
0000
0000
1000
0000
0000
0001
0000
0100
0000
0001
0000
1000
0000
0000
0000
,
0100
0000
0010
0000
0001
1000
0010
1000
,
0001
0000
0000
0010
0000
0000
0100
0000
1000
0000
0001
0000
0100
0000
0010
0000
,
1000
0000
0100
0000
0010
0001
1000
0000
,
0010
0000
0100
0000
0001
0010
0100
0000
,
1000
0000
0010
0000
1000
0001
0010
0000
,
0001
0000
0100
0000
1000
0100
0001
0000
,
1000
0000
0001
0000
0010
0100
1000
0000
,
0010
0000
0100
0000
0001
0100
0010
0000
,
1000
0000
0100
0000
0001
0100
1000
0000
,
0001
0000
0100
0000
0010
0100
0001
0000
,
1000
0000
0000
0100
0000
0000
0010
0000
0001
0000
1000
0000
0001
0000
0000
0000
,
0010
0000
0000
0100
0000
0000
1000
0000
0001
0000
0010
0000
0100
0000
0000
0000
,
1000
0000
0000
0010
0000
0000
0100
0000
1000
0000
0100
0000
0010
0000
0000
0000
,
0100
0000
0000
0001
0000
0000
1000
0000
0010
0000
0100
0000
0010
0000
0000
0000
,
1000
0000
0000
0001
0000
0000
0010
0000
0100
0000
1000
0000
0001
0000
0000
0000
,
1000
0000
0000
0010
0000
0000
1000
0000
0100
0000
0010
0000
0001
0000
0000
0000
,
0020
0000
0000
0000
,
1000
0001
1000
0031
,
0011
0000
0001
0010
0100
1000
0010
0100
,
0002
0000
1000
0000
0100
0000
0013
0010
,
0010
0001
1000
0001
0010
0001
1000
0001
,
0010
0100
0010
0001
0010
0100
0010
0001
,
1000
0010
0100
0010
1000
0010
0100
0010
,
1000
0100
0010
0100
1000
0100
0010
0100
,
1000
0000
0000
0001
0100
0000
0000
0010
1000
0000
0100
0000
0010
0000
0001
0000
,
1000
0000
0000
0001
0000
0000
1000
0000
0100
0000
0010
0000
0001
0000
1000
0001
,
1000
0000
0010
0100
1000
0100
0001
1000
,
0020
0000
0001
0000
0100
0000
1030
0010
,
1000
0001
0010
0001
1000
0001
0010
0001
,
0100
0010
0001
0010
0100
0010
0001
0010
,
1000
0001
0100
0001
1000
0001
0100
0001
,
1000
0100
0010
0100
1000
0100
0010
0100
,
1000
0000
0000
0001
0100
0000
0000
0010
1000
0000
0100
0000
0010
0000
0001
0000
,
1000
0000
0000
0100
0000
0000
0001
0000
0100
0000
1000
0000
0001
0000
0010
0001
;

//---------------dance-single - ----------------
#NOTES:
     dance-single:
     X-Scale 6:
     Easy:
     3:
     0.273710,0.293643,0.052064,0.020826,0.000000,184.000000,179.000000,5.000000,2.000000,0.000000,0.000000,0.273710,0.293643,0.052064,0.020826,0.000000,184.000000,179.000000,5.000000,2.000000,0.000000,0.000000:
0000
0000
0000
0000
,
0000
0000
0000
0000
,
0000
0000
0000
0000
,
0000
0000
0000
0000
,
1000
0100
1000
0100
,
0010
0001
0010
0001
,
0000
1000
0000
0001
,
1001
0000
1000
0000
0100
0010
0100
0000
,
1000
0000
0001
0000
0100
0010
0100
0000
,
0001
0000
0010
0000
0100
0010
0100
0000
,
0010
0000
0001
0000
0100
0010
0100
0000
,
0001
0000
1000
0000
0010
0100
0010
0000
,
1000
0000
0100
0000
0010
0100
0010
0000
,
0100
0000
1000
0000
0010
0100
0010
0000
,
1000
0000
0001
0000
0010
0100
0010
0000
,
0001
1000
0001
1000
,
0010
0100
0010
0100
,
0001
0010
0001
0010
,
0100
1000
0100
1000
,
0010
0100
0010
0100
,
0001
1000
0001
1000
,
0100
0010
0100
0010
,
0001
0100
0001
0100
,
0010
1000
0010
1000
,
0001
0010
0001
0010
,
0100
1000
0100
1000
,
0010
0100
0010
0100
,
0001
1000
0001
1000
,
0100
0010
0100
0010
,
0001
0000
0000
0000
,
1000
0000
0001
0000
,
1001
0001
0010
0100
,
2000
0000
0000
3001
,
1001
0000
1000
0000
0100
0010
0100
0000
,
1000
0000
0001
0000
0100
0010
0100
0000
,
0001
0000
1000
0000
0100
0010
0100
0000
,
1000
0000
0001
0000
0100
0010
0100
0000
,
0001
0000
1000
0000
0100
0010
0100
0000
,
1000
0001
0000
1000
,
1001
0001
0100
0010
,
2000
0100
0000
3100
,
1000
0000
0001
0000
0010
0100
0010
0000
,
0001
0000
1000
0000
0010
0100
0010
0000
,
1000
0000
0001
0000
0010
0100
0010
0000
,
0001
0000
1000
0000
0010
0100
0010
0000
,
1000
0000
0001
0000
0010
0100
0010
0000
,
0001
1000
0000
0100
,
1100
0000
0000
0000
;

//---------------dance-single - ----------------
#NOTES:
     dance-single:
     X-Scale 2:
     Beginner:
     1:
     0.105616,0.171292,0.010413,0.000000,0.000000,71.000000,70.000000,1.000000,0.000000,0.000000,0.000000,0.105616,0.171292,0.010413,0.000000,0.000000,71.000000,70.000000,1.000000,0.000000,0.000000,0.000000:
0000
0000
0000
0000
,
0000
0000
0000
0000
,
0000
0000
0000
0000
,
0000
0000
0000
0000
,
1000
0000
0000
0000
,
0100
0000
0000
0000
,
0010
0000
0000
0000
,
0001
0000
1000
0000
,
0001
0000
1000
0000
,
0010
0000
0100
0000
,
0010
0000
0100
0000
,
0001
0000
0010
0000
,
0001
0000
0010
0000
,
0100
0000
1000
0000
,
0100
0000
1000
0000
,
0001
0000
0000
0000
,
0010
0000
0000
0000
,
0100
0000
0000
0000
,
1000
0000
0000
0000
,
0001
0000
0000
0000
,
0010
0000
0000
0000
,
0100
0000
0000
0000
,
1000
0000
0000
0000
,
0001
0000
0000
0000
,
0100
0000
0000
0000
,
0010
0000
0000
0000
,
1000
0000
0000
0000
,
0001
0000
0000
0000
,
0100
0000
0000
0000
,
0010
0000
0000
0000
,
1000
0000
1000
0000
,
1001
0000
0001
0000
,
0001
0000
1000
0001
,
1000
0000
0100
0000
,
1000
0000
0100
0000
,
0010
0000
0001
0000
,
0010
0000
0001
0000
,
1000
0000
0010
0000
,
1000
0000
0010
0000
,
0100
0000
0001
0000
,
0100
0000
0001
0000
,
0010
0000
0100
0000
,
0010
0000
0100
0000
,
1000
0000
0010
0000
,
1000
0000
0010
0000
,
1000
0000
0100
0000
,
0010
0000
0001
0000
,
1000
0000
0000
0000
;
