#TITLE:Y.Ê.U;
#SUBTITLE:(EDM Ver.);
#ARTIST:MIN;
#TITLETRANSLIT:;
#SUBTITLETRANSLIT:;
#ARTISTTRANSLIT:;
#GENRE:Commercial House;
#CREDIT:;
#BANNER:Y.E.U (EDM Ver.)-bn.png;
#BACKGROUND:Y.E.U (EDM Ver.)-bg.png;
#LYRICSPATH:;
#CDTITLE:cdtitle.png;
#MUSIC:Y.E.U (EDM Ver.).ogg;
#OFFSET:0.000000;
#SAMPLESTART:46.875000;
#SAMPLELENGTH:15.000000;
#SELECTABLE:YES;
#BPMS:0.000000=128.000000
;
#STOPS:
;
#BGCHANGES:
;
#KEYSOUNDS:;
#ATTACKS:;

//---------------dance-single - ----------------
#NOTES:
     dance-single:
     X-Scale 11:
     Hard:
     8:
     0.469917,0.632895,0.131227,0.603643,0.087484,376.000000,361.000000,15.000000,69.000000,0.000000,0.000000,0.469917,0.632895,0.131227,0.603643,0.087484,376.000000,361.000000,15.000000,69.000000,0.000000,0.000000:
// measure 0
0000
0000
0000
0000
,  // measure 1
2000
0000
3010
0000
1000
0001
0010
0200
,  // measure 2
0000
2300
0000
3002
0000
0103
0001
2000
,  // measure 3
0000
3002
0000
0013
0001
1000
0010
0200
,  // measure 4
0000
0302
0000
2003
0000
3100
1000
0002
,  // measure 5
0010
0000
1000
0003
0001
0010
0100
2000
,  // measure 6
0000
3002
0000
0203
0000
0320
0000
2030
,  // measure 7
0000
3002
0000
0023
0000
0030
0100
1000
,  // measure 8
0002
0000
0013
0200
0000
2300
0000
3000
,  // measure 9
0002
0000
1003
0000
0001
0100
0010
2000
,  // measure 10
0000
3002
0000
0023
0000
0031
1000
0100
,  // measure 11
0010
0020
0000
0031
0010
0001
1000
0020
,  // measure 12
0000
2030
0000
3200
0000
0310
0001
2000
,  // measure 13
0100
0000
0001
3000
1000
0010
0100
0002
,  // measure 14
0000
2003
0000
3020
0000
0230
0000
0302
,  // measure 15
0000
2003
0000
3200
0000
0300
1000
0100
,  // measure 16
0020
0000
0031
2000
0000
3002
0000
2003
,  // measure 17
0100
3000
1000
0000
0001
1000
0100
1000
,  // measure 18
0010
0000
0100
0000
0001
0010
0100
0010
,  // measure 19
0001
0000
1000
0000
0010
0100
1000
0100
,  // measure 20
0010
0000
0100
0000
0001
1000
0100
0020
,  // measure 21
0000
0032
0000
2003
0000
3000
0010
0200
,  // measure 22
0000
0302
0000
2003
0100
3000
1000
0001
,  // measure 23
2000
0000
3100
0020
0000
0032
0000
2003
,  // measure 24
0100
0001
0010
3001
,  // measure 25
1001
1000
0100
0010
,  // measure 26
0001
0000
1000
0020
0000
2030
0000
3001
,  // measure 27
0010
0001
1000
0010
,  // measure 28
0100
0000
0001
0020
0000
0032
0000
1003
,  // measure 29
0001
0100
0010
1000
,  // measure 30
0100
0000
1000
0001
0100
1000
0100
0001
,  // measure 31
1000
0010
0000
0100
0001
0010
0100
1000
,  // measure 32
0000
0001
0000
1000
0100
0001
0100
0010
,  // measure 33
0011
1010
1001
0110
,  // measure 34
1010
0000
1000
0100
0010
0001
1000
0001
,  // measure 35
1001
1100
0101
0011
,  // measure 36
1001
0000
0100
0001
1000
0100
0010
0001
,  // measure 37
1000
0010
1000
0010
0001
0010
0001
0010
,  // measure 38
0100
0010
0100
0001
1000
0001
1000
0100
,  // measure 39
0010
0001
0010
0001
0010
0001
0010
0001
1000
0001
1000
0001
1000
0001
2000
0001
,  // measure 40
0000
3020
0000
2030
0000
3000
1010
1000
,  // measure 41
1001
0001
0010
0001
0010
1000
0010
0100
,  // measure 42
1000
0001
1000
0001
0010
1000
0001
0100
,  // measure 43
1000
0010
1000
0010
0100
1000
0100
0001
,  // measure 44
0100
0010
0100
0010
1000
0001
0010
0100
,  // measure 45
1000
0001
0010
0001
1000
0100
0001
0100
,  // measure 46
0010
0001
1000
0001
0100
1000
0100
0001
,  // measure 47
0100
0010
1000
0001
0100
0010
0001
0010
,  // measure 48
1000
0000
1000
0000
1000
0000
1000
0000
1000
0100
0010
0001
2000
0000
3000
0000
,  // measure 49
1001
0000
1000
0000
0001
0000
0010
0000
0100
0000
1000
0000
0200
2300
3200
2300
,  // measure 50
3100
1000
0001
0100
0001
1000
0200
0000
,  // measure 51
0310
0100
1000
0100
0001
0100
1000
0010
,  // measure 52
0100
0001
1000
0100
0010
0001
1000
0001
,  // measure 53
0010
0100
0010
0100
1000
0100
1100
0000
,  // measure 54
0001
0000
0100
0000
0001
0000
0100
0000
1000
0000
0100
0000
0002
0023
0032
0023
,  // measure 55
0031
0001
1000
1000
0010
0010
0100
0100
,  // measure 56
0001
0100
0010
1000
0001
0100
0010
1000
0001
0100
0010
1000
0002
0000
2003
0000
,  // measure 57
0000
0000
0000
0000
0000
0000
0000
3000
;

//---------------dance-single - ----------------
#NOTES:
     dance-single:
     X-Scale 8:
     Medium:
     6:
     0.409927,0.506316,0.227460,0.498661,0.000000,328.000000,302.000000,26.000000,57.000000,0.000000,0.000000,0.409927,0.506316,0.227460,0.498661,0.000000,328.000000,302.000000,26.000000,57.000000,0.000000,0.000000:
// measure 0
0000
0000
0000
0000
,  // measure 1
0002
0013
0001
1000
,  // measure 2
0100
0000
1000
0000
0001
0010
0100
2000
,  // measure 3
0000
3002
1000
0003
0001
0000
1000
0000
,  // measure 4
0100
0000
0010
0000
0001
1000
0010
0200
,  // measure 5
0000
0000
1000
0000
0301
0100
0010
2000
,  // measure 6
0000
3200
0000
0320
0000
0032
0000
0203
,  // measure 7
0000
0320
0000
2030
0000
0000
3001
1000
,  // measure 8
0200
0000
0310
0002
0003
2000
0000
3000
,  // measure 9
0001
0000
1000
0000
0001
0010
0100
1000
,  // measure 10
0000
0001
0000
1000
0000
0010
0100
1000
,  // measure 11
0100
0001
0000
0000
1000
0100
0010
0001
,  // measure 12
0000
1000
0000
0001
0000
0010
0100
1000
,  // measure 13
0001
0000
1000
0000
0010
1000
0001
0010
,  // measure 14
0000
0100
0000
1000
0000
0001
0000
1000
,  // measure 15
0000
0010
0000
0100
0010
1000
0001
0010
,  // measure 16
0100
0000
1000
0001
0000
0100
0000
0002
,  // measure 17
1000
0000
0013
0001
0010
0000
0100
1000
,  // measure 18
0100
0000
0010
0001
0010
0000
0100
1000
,  // measure 19
0100
0000
1000
0001
0100
0000
0010
0100
,  // measure 20
0001
0000
0010
0100
1000
0000
0001
2000
,  // measure 21
0000
3200
0000
2300
0000
3000
0001
0020
,  // measure 22
0000
0230
0000
0320
0000
0000
0031
0010
,  // measure 23
0100
0000
1000
0002
0000
0203
0000
0302
,  // measure 24
0100
1000
0010
1003
,  // measure 25
2001
0100
3200
0010
,  // measure 26
0320
0000
0031
0002
0000
2003
0000
3002
,  // measure 27
0100
0010
2003
3010
,  // measure 28
1000
0000
0100
0010
0001
0010
0100
2000
,  // measure 29
0001
0010
3020
0100
,  // measure 30
0230
0000
0301
0002
0000
0003
1000
0002
,  // measure 31
0000
0023
0000
0032
0000
0003
1000
0020
,  // measure 32
0000
0230
0000
0320
0000
0000
0030
0000
,  // measure 33
0210
1000
0320
0001
,  // measure 34
2030
0000
3100
0010
0001
1000
0001
0200
,  // measure 35
0010
1000
0320
1030
,  // measure 36
0001
0100
0010
0100
1000
0100
0001
0010
,  // measure 37
0100
1000
0100
1000
0001
0100
0001
0100
,  // measure 38
0010
1000
0010
1000
0100
0010
0100
0020
,  // measure 39
0000
0032
0000
2003
0000
3000
0010
2000
,  // measure 40
0000
3002
0000
0023
0000
0000
0130
0000
,  // measure 41
1001
0000
0110
0000
1001
1000
0001
1000
,  // measure 42
1100
0000
0101
0000
1100
1000
0001
0010
,  // measure 43
0101
0000
0110
0000
0101
0001
1000
0010
,  // measure 44
0110
0100
0010
0100
0001
0010
0100
1000
,  // measure 45
1100
0000
0011
0000
1100
1000
0001
0010
,  // measure 46
0101
0000
1010
0000
0101
0001
1000
0100
,  // measure 47
1100
0000
0110
0000
0011
0010
0100
1000
,  // measure 48
0001
0100
0001
1000
0001
0010
0011
0000
,  // measure 49
2010
0100
3002
0000
,  // measure 50
0023
0000
0130
0000
0010
0100
2000
0000
,  // measure 51
3001
0000
1000
0000
0010
1000
0001
1000
,  // measure 52
0100
0000
0010
0000
0100
1000
0001
0010
,  // measure 53
0100
0010
0001
0010
0100
0010
0011
0000
,  // measure 54
0001
1000
0010
1000
0001
1000
1100
0000
,  // measure 55
0101
0100
0001
0100
1000
0100
0010
0100
,  // measure 56
0001
0010
0100
1000
0001
0000
1000
0200
,  // measure 57
0000
0000
0000
0000
0000
0000
0000
0300
;

//---------------dance-single - ----------------
#NOTES:
     dance-single:
     X-Scale 6:
     Easy:
     4:
     0.292448,0.446827,0.069988,0.017497,0.000000,234.000000,226.000000,8.000000,2.000000,0.000000,0.000000,0.292448,0.446827,0.069988,0.017497,0.000000,234.000000,226.000000,8.000000,2.000000,0.000000,0.000000:
// measure 0
0000
0000
0000
0000
,  // measure 1
1000
0000
0000
0000
0001
0000
0000
0100
,  // measure 2
0000
0010
0000
0100
0001
0000
1000
0000
,  // measure 3
0001
0000
0000
0010
0000
0100
0000
0010
,  // measure 4
0000
0001
0000
1000
0001
0000
0010
0100
,  // measure 5
0010
0000
0000
0000
0001
0000
0000
0100
,  // measure 6
0000
0010
0000
0100
0001
0000
1000
0000
,  // measure 7
0001
0000
0000
0010
0000
0100
0000
1000
,  // measure 8
0000
0001
0000
0100
0001
0000
1000
0010
,  // measure 9
1000
0000
0000
0000
0001
0000
0000
0100
,  // measure 10
0000
0010
0000
0100
0001
0000
0010
0001
,  // measure 11
1000
0001
0000
0100
0000
0010
0000
1000
,  // measure 12
0000
0001
0000
1000
0100
0000
0010
0100
,  // measure 13
1000
0000
0000
0000
0001
0000
0000
0100
,  // measure 14
0000
0010
0000
0100
0001
0000
1000
0001
,  // measure 15
0100
0010
0000
1000
0000
0000
0000
0001
,  // measure 16
0100
0000
0010
0100
0000
0001
0000
2000
,  // measure 17
0100
3001
1000
0001
,  // measure 18
0010
0100
0010
0001
,  // measure 19
1000
0001
0100
0010
,  // measure 20
0100
0001
0010
0100
,  // measure 21
1000
0001
1000
0010
,  // measure 22
0100
0010
1000
0100
,  // measure 23
0010
0100
1000
0001
,  // measure 24
0100
0010
0100
0001
,  // measure 25
0101
0000
0001
0000
,  // measure 26
1000
0000
0000
0010
0000
1000
0000
0010
,  // measure 27
0000
0000
0100
0000
,  // measure 28
0001
0000
0000
0100
0000
0010
0000
0100
,  // measure 29
0000
0000
0001
0000
,  // measure 30
1000
0000
0000
0100
0000
0000
0010
0001
,  // measure 31
0000
1000
0000
0001
0000
0000
0010
0100
,  // measure 32
0000
0010
0000
0100
0000
0000
0000
0000
,  // measure 33
1000
0001
0100
0001
,  // measure 34
1000
0100
0010
0100
,  // measure 35
1000
0010
0100
0010
,  // measure 36
1000
0001
0100
0001
,  // measure 37
1000
0001
0010
0001
,  // measure 38
1000
0100
0010
0100
,  // measure 39
1000
0100
0010
0001
1000
0100
0010
0001
,  // measure 40
0000
0100
0000
0010
0000
0000
1000
0100
,  // measure 41
1100
1000
0100
0010
,  // measure 42
0001
1000
0100
0010
,  // measure 43
0001
0100
0010
1000
,  // measure 44
0001
0100
0010
1000
,  // measure 45
0100
0010
0001
1000
,  // measure 46
0100
0010
0001
1000
,  // measure 47
0001
0100
0010
1000
,  // measure 48
0001
0100
0010
1000
,  // measure 49
1001
1000
0001
0000
,  // measure 50
0110
0010
0100
0000
,  // measure 51
1001
1000
0100
0010
,  // measure 52
0001
0100
0010
1000
,  // measure 53
0001
0100
0010
0110
,  // measure 54
1000
0000
0001
0000
0010
0000
0011
0010
,  // measure 55
0100
0010
0001
0010
0100
1000
0001
1000
,  // measure 56
0100
0010
0001
1000
0020
0030
0110
0000
;
