#VERSION:0.83;
#TITLE:X You;
#SUBTITLE:;
#ARTIST:Avicii;
#TITLETRANSLIT:;
#SUBTITLETRANSLIT:;
#ARTISTTRANSLIT:;
#GENRE:Progressive House;
#ORIGIN:;
#CREDIT:;
#BANNER:X You-bn.png;
#BACKGROUND:X You-bg.png;
#PREVIEWVID:;
#JACKET:X You-jacket.png;
#CDIMAGE:;
#DISCIMAGE:;
#LYRICSPATH:;
#CDTITLE:cdtitle.png;
#MUSIC:x you.ogg;
#OFFSET:0.000000;
#SAMPLESTART:85.713997;
#SAMPLELENGTH:15.250000;
#SELECTABLE:YES;
#BPMS:0.000=126.000;
#STOPS:;
#DELAYS:;
#WARPS:;
#TIMESIGNATURES:0.000=4=4;
#TICKCOUNTS:0.000=4;
#COMBOS:0.000=1;
#SPEEDS:0.000=1.000=0.000=0;
#SCROLLS:0.000=1.000;
#FAKES:;
#LABELS:0.000=Song Start;
#BGCHANGES:;
#KEYSOUNDS:;
#ATTACKS:
;

//---------------dance-single - ----------------
#NOTEDATA:;
#CHARTNAME:X-Scale 2;
#STEPSTYPE:dance-single;
#DESCRIPTION:;
#CHARTSTYLE:;
#DIFFICULTY:Beginner;
#METER:1;
#RADARVALUES:0.110116,0.149448,0.024600,0.000000,0.000000,94.000000,91.000000,3.000000,0.000000,0.000000,0.000000,0.000000,0.000000,0.000000,0.110116,0.149448,0.024600,0.000000,0.000000,94.000000,91.000000,3.000000,0.000000,0.000000,0.000000,0.000000,0.000000,0.000000;
#CREDIT:iamthek3n;
#NOTES:
0000
0000
0000
0000
,
0000
0000
0000
0000
,
0000
0000
0000
0000
,
0000
0000
0000
0000
,
0000
0000
0000
0000
,
1001
0000
0000
0000
0000
0000
0000
0001
,
0000
0000
0000
0000
,
1000
0000
0000
0000
,
0100
0000
0010
0000
,
0001
0000
0000
0000
0000
0000
0000
1000
,
0000
0000
0000
0000
,
0010
0000
0000
0000
,
0100
0000
0001
0000
,
1000
0000
0100
0000
,
1000
0000
0001
0000
,
0100
0000
0010
0000
,
0100
0000
0001
0000
,
1000
0000
0000
0000
,
0010
0000
0000
0000
,
0100
0000
0000
0000
,
0001
0000
0000
0000
,
1001
0000
0001
0000
,
0010
0000
0001
0000
,
1000
0000
0010
0000
,
1000
0000
0001
0000
,
0010
0000
0000
0000
,
0001
0000
0000
0000
,
1000
0000
0000
0000
,
0010
0000
0000
0000
,
1000
0000
0000
0000
,
0001
0000
0000
0000
,
1000
0000
0000
0000
,
0010
0000
0100
0000
,
0010
0000
0000
0000
,
1000
0000
0000
0000
,
0001
0000
0000
0000
,
1000
0000
0010
0000
,
1000
0000
0001
0000
,
0010
0000
0001
0000
,
1000
0000
0100
0000
,
0010
0000
0100
0000
,
1000
0000
0100
0000
,
0010
0000
0001
0000
,
0100
0000
0001
0000
,
1000
0000
0010
0000
,
1001
0000
1000
0000
,
0100
0000
1000
0000
,
0001
0000
0010
0000
,
0100
0000
0010
0000
,
0001
0000
1000
0000
,
0010
0000
1000
0000
,
0001
0000
0100
0000
,
0001
0000
0000
0000
,
1000
0000
0100
0000
,
0010
0000
0001
0000
,
0100
0000
0010
0000
,
1000
0000
0001
0000
,
0000
0001
0000
0001
,
0000
1000
0000
1000
,
0000
0100
0000
0100
,
0000
0010
0000
0010
;

//---------------dance-single - ----------------
#NOTEDATA:;
#CHARTNAME:X-Scale 6;
#STEPSTYPE:dance-single;
#DESCRIPTION:;
#CHARTSTYLE:;
#DIFFICULTY:Easy;
#METER:3;
#RADARVALUES:0.236633,0.375157,0.073801,0.213204,0.000000,202.000000,193.000000,9.000000,26.000000,0.000000,0.000000,0.000000,0.000000,0.000000,0.236633,0.375157,0.073801,0.213204,0.000000,202.000000,193.000000,9.000000,26.000000,0.000000,0.000000,0.000000,0.000000,0.000000;
#CREDIT:iamthek3n;
#NOTES:
0000
0000
0000
0000
,
0000
0000
0000
0000
,
0000
0000
0000
0000
,
0000
0000
0000
0000
,
0000
0000
0000
0000
,
0011
0000
0000
0000
0001
0000
0000
2000
,
0000
0000
0000
0000
0000
3000
0000
0000
,
0100
0000
0010
0000
,
0001
1000
0001
1000
,
0001
0000
0000
0000
0100
0000
0000
0020
,
0000
0000
0000
0000
0000
0030
0000
0000
,
0100
0000
0010
0000
,
1000
0001
1000
0001
,
1001
1000
0100
0010
,
0001
1000
0100
0010
,
0001
1000
0010
0100
,
0001
1000
0010
0100
,
0001
0000
0000
0000
,
0010
0000
0000
0000
,
0100
0000
0000
0000
,
1000
0000
0000
0000
,
1100
0000
1000
0000
0001
0000
1000
0002
,
0000
0000
0010
0000
0000
0003
0010
0000
,
0100
1000
0000
0000
0001
1000
0000
0200
,
0000
0000
0000
0300
0010
0000
0100
0000
,
1000
0001
0000
1000
,
0000
0100
0000
0010
,
0000
0001
0000
1000
,
0000
0010
0000
0100
,
0110
0000
0000
0000
,
1000
0000
0100
0010
,
0100
0000
1000
0000
,
0002
0203
0320
2030
,
3100
0000
0000
0000
,
0010
0000
0001
0100
,
0001
0000
1000
0000
,
0002
0203
0320
2030
,
3001
1000
0001
1000
,
0100
0010
0100
0010
,
0001
0100
0001
0100
,
0010
1000
0010
1000
,
0001
0100
0010
0100
,
0001
0100
0010
0100
,
0001
1000
0001
0100
,
0001
1000
0001
0100
,
0110
0000
0010
0000
0100
0000
0010
2000
,
0001
0000
0010
0000
0001
3000
1000
0100
,
0010
0002
0000
0000
1003
0002
0000
0023
,
0000
0000
0000
0030
0010
0000
0100
0000
,
1000
0000
0001
0000
0100
0000
0001
0020
,
0100
0000
0001
0000
0130
0010
0001
2000
,
0010
0000
0001
0000
3010
0000
1000
0200
,
0000
0000
0000
0310
0001
0100
0001
0010
,
0100
1000
0001
0000
0100
0001
1000
0200
,
0010
0000
1000
0000
0310
0100
1000
0001
,
0100
0020
0000
0000
1030
0002
0000
0023
,
0000
0000
0031
0010
0100
1000
0001
1000
,
0010
1010
1000
1001
,
0001
0000
0011
0000
0010
0000
0110
0200
,
0000
0000
0000
1300
0001
0020
0000
0230
,
1000
0010
1000
0010
,
1300
0000
0000
0000
;

//---------------dance-single - ----------------
#NOTEDATA:;
#CHARTNAME:X-Scale 8;
#STEPSTYPE:dance-single;
#DESCRIPTION:;
#CHARTSTYLE:;
#DIFFICULTY:Medium;
#METER:6;
#RADARVALUES:0.335035,0.450188,0.139403,0.401807,0.000000,286.000000,269.000000,17.000000,49.000000,0.000000,1.000000,0.000000,0.000000,0.000000,0.335035,0.450188,0.139403,0.401807,0.000000,286.000000,269.000000,17.000000,49.000000,0.000000,1.000000,0.000000,0.000000,0.000000;
#CREDIT:iamthek3n;
#NOTES:
0000
0000
0000
0000
,
0000
0000
0000
0000
,
0000
0000
0000
0000
,
0000
0000
0000
0000
,
0000
0000
0000
0000
,
1001
0000
1000
0000
0001
0000
1000
0002
,
0000
0000
0000
1003
,
0001
0010
0000
0000
0100
1000
0000
0002
,
1000
0100
1000
0010
,
1003
0000
0100
0000
1000
0000
0100
0020
,
0000
0000
0000
0031
,
1000
0010
0000
0000
0100
0001
0000
2000
,
0010
0000
0001
0000
0100
0000
0001
3001
,
1001
0000
0110
0000
1001
0000
1000
0100
,
1100
0000
0101
0000
0110
0000
0010
0100
,
1001
0000
0101
0000
1100
0000
0100
0010
,
0011
0000
1001
0000
0101
0000
1000
0001
,
2000
0010
0000
0010
0000
3010
1000
0200
,
0000
0010
0000
0010
0000
0310
0100
1000
,
0001
0000
0100
0000
0001
0100
0001
1000
,
0000
0100
0000
0100
0000
0100
2000
0000
,
3001
0000
1000
0000
0100
0000
1000
0002
,
0100
0000
0010
0000
1003
0001
0010
1000
,
0010
0002
0000
0000
1003
0002
0000
0203
,
0000
0000
0000
0310
0100
1000
0100
0001
,
0010
0000
0100
0000
0010
0000
0100
2000
,
0001
0000
0010
0000
3001
1000
0100
0020
,
0000
0000
0130
0010
0001
2000
0000
3020
,
0000
0001
0000
1000
,
2030
0000
0000
0000
,
3002
0000
0203
0320
,
2030
0000
3002
0000
,
0023
2030
3020
0032
,
0203
0000
0000
0000
,
0302
0000
0000
0000
0023
0000
0230
0011
,
2300
0000
3020
0000
,
0032
0023
2030
3002
,
1003
0000
1000
0100
1000
0000
0001
0100
,
0001
0000
0010
0100
0010
0000
0001
1000
,
0001
0000
0100
0010
0100
0000
0001
0100
,
0001
0000
0010
0100
0010
0000
0001
1000
,
1001
0100
1000
0001
,
1000
0010
1000
0001
,
1000
0100
0010
0001
0100
0010
1000
0001
,
0010
0100
0010
0100
1000
0100
1000
0000
,
1001
0000
0100
0000
1000
0000
0001
0020
,
0100
0000
0001
0000
0130
0010
0001
1000
,
0010
0200
0000
0300
0001
0200
0000
0310
,
1000
0000
0100
0010
0100
1000
0100
0010
,
0001
0000
1000
0000
0001
0000
1000
0020
,
0001
0000
0100
0000
1030
0010
1000
0002
,
0010
0000
0100
0000
0013
0001
1000
0002
,
0000
0000
0000
0013
1000
0010
0100
1000
,
1100
0000
1000
0000
0010
1000
0001
0200
,
0010
0000
1000
0000
0310
1000
0001
0010
,
0001
2000
0000
3000
0100
0020
0000
0032
,
1000
0000
0000
0013
0001
1000
0001
0100
,
0010
0000
1000
0000
0010
0000
1000
0200
,
0010
0000
0001
0000
1000
1300
0001
0200
,
0010
0000
0010
0310
0100
0002
0000
2003
,
0001
0100
0001
0010
,
3001
0000
0000
0000
;

//---------------dance-single - ----------------
#NOTEDATA:;
#CHARTNAME:X-Scale 11;
#STEPSTYPE:dance-single;
#DESCRIPTION:;
#CHARTSTYLE:;
#DIFFICULTY:Hard;
#METER:8;
#RADARVALUES:0.433436,0.525220,0.123002,0.426408,0.131202,370.000000,355.000000,15.000000,52.000000,0.000000,0.000000,2.000000,0.000000,0.000000,0.433436,0.525220,0.123002,0.426408,0.131202,370.000000,355.000000,15.000000,52.000000,0.000000,0.000000,2.000000,0.000000,0.000000;
#CREDIT:iamthek3n;
#NOTES:
// measure 0
0000
0000
0000
0000
,  // measure 1
0000
0000
0000
0000
,  // measure 2
0000
0000
0000
0000
,  // measure 3
0000
0000
0000
0000
,  // measure 4
0000
0000
0000
0000
,  // measure 5
1002
0000
0100
0000
1000
0000
0010
0023
,  // measure 6
0000
0000
0000
0000
0000
1030
0010
0001
,  // measure 7
1000
0002
0000
0000
0013
0200
0000
2300
,  // measure 8
0010
0000
3001
1000
0100
0001
1000
0010
,  // measure 9
0002
0000
0010
0000
1000
0000
0100
0203
,  // measure 10
0000
0000
0000
0000
0000
1300
0100
0010
,  // measure 11
0100
0002
0000
0000
1003
0200
0000
0320
,  // measure 12
0100
0000
0031
0010
1000
0010
0100
1000
,  // measure 13
1001
0001
1000
0100
0001
0100
1000
0020
,  // measure 14
0000
0031
0010
1000
0001
0100
0010
2000
,  // measure 15
0000
3001
0100
1000
0100
0001
0100
0020
,  // measure 16
0000
0031
0010
1000
0001
1000
0100
1000
,  // measure 17
1100
0000
0001
0100
0000
0100
0001
1000
,  // measure 18
0000
0100
0000
0100
0000
0100
0010
0001
,  // measure 19
1000
0010
0100
1000
0001
0010
0100
0001
,  // measure 20
1000
0010
0001
0010
1000
0001
0200
0300
,  // measure 21
0101
0000
0100
0010
0100
0000
0001
0000
1000
0000
0100
1000
0100
0000
0020
0000
,  // measure 22
0001
0000
0000
0000
1000
0000
0000
0000
0031
0000
0010
0100
1000
0000
0100
0010
,  // measure 23
0001
0000
1000
0000
0001
0000
0100
0001
1000
0000
0020
0000
0000
0000
0230
0000
,  // measure 24
0010
0000
1300
0100
0010
0100
0001
1000
,  // measure 25
0001
0101
0100
0110
,  // measure 26
0010
0000
1010
0000
1000
0100
0010
0002
,  // measure 27
0100
0000
1003
0001
0010
0200
0000
2300
,  // measure 28
0100
0001
0010
0001
,  // measure 29
3200
0000
0000
0000
,  // measure 30
2300
0000
0000
0000
3004
0000
0103
0010
,  // measure 31
2000
0000
3200
0000
,  // measure 32
0302
2003
3020
0032
,  // measure 33
0203
0000
0000
0000
,  // measure 34
0302
0000
0000
0000
4003
0000
3010
1000
,  // measure 35
0001
0000
0000
1000
0100
0000
1000
0000
0001
0100
0000
0100
0010
0000
1000
0000
,  // measure 36
2200
3300
0220
0330
0202
0303
2002
3003
,  // measure 37
0001
1000
0000
1000
0100
0000
0010
0000
0001
0100
0000
0100
0010
0000
1000
0000
,  // measure 38
0001
0100
0000
0100
0001
0000
1000
0000
0010
0000
0001
0000
0010
0000
1000
0000
,  // measure 39
0001
0100
0000
0100
0010
0000
1000
0000
0100
0010
0000
0010
0001
0000
1000
0000
,  // measure 40
0001
0100
0000
0100
0010
0000
1000
0000
0001
0000
0000
0010
0100
0000
1000
0000
,  // measure 41
1100
0000
0000
0100
1000
0000
0100
0000
0010
0000
0000
0100
0010
0000
0001
0000
,  // measure 42
1000
0000
0000
0010
1000
0000
0010
0000
0100
0000
0000
0001
1000
0000
0001
0000
,  // measure 43
1000
0100
0010
1000
0001
0100
0010
0001
,  // measure 44
0100
1000
0100
0001
1000
0100
0010
0010
,  // measure 45
1001
0001
1000
0001
1000
0100
0010
0002
,  // measure 46
1000
0000
0010
0000
1003
0001
0010
1000
,  // measure 47
0010
0002
1000
0000
0103
0020
0000
0230
,  // measure 48
1000
0000
0310
0100
0001
0010
1000
0010
,  // measure 49
0001
1000
0001
1000
0001
1000
0100
0020
,  // measure 50
1000
0000
0100
0000
0031
0010
0001
2000
,  // measure 51
0010
0000
0000
0000
0001
0000
0000
0000
3100
1000
0100
0000
1000
0000
0002
0000
,  // measure 52
0000
0000
0000
1003
0010
0100
0001
1000
,  // measure 53
1000
0000
0010
0100
0001
0000
1000
0000
0001
0000
0010
0100
1000
0000
0001
0000
,  // measure 54
0100
0000
0010
0100
0001
0000
1000
0000
0001
0000
0100
0001
1000
0000
0001
0000
,  // measure 55
0010
0000
0200
0000
1300
0000
0100
1000
0010
0000
0200
0000
1300
0000
0200
0000
,  // measure 56
0001
0000
0000
0000
0310
0000
0100
0001
1000
0000
0100
0000
0001
0000
0100
0000
,  // measure 57
1000
0000
1100
0000
0001
0000
1001
2000
,  // measure 58
0000
0000
0001
0000
0000
3100
0010
0002
,  // measure 59
0000
0000
0013
1000
0010
0002
0000
2003
,  // measure 60
0000
0000
0010
0000
0000
0000
0100
0100
,  // measure 61
3100
0000
0000
0000
;
