#VERSION:0.83;
#TITLE:Wrecking Ball;
#SUBTITLE:;
#ARTIST:Miley Cyrus;
#TITLETRANSLIT:;
#SUBTITLETRANSLIT:;
#ARTISTTRANSLIT:;
#GENRE:Emotional Pop;
#ORIGIN:;
#CREDIT:;
#BANNER:Wrecking Ball-bn.png;
#BACKGROUND:Wrecking Ball-bg.png;
#PREVIEWVID:;
#JACKET:Wrecking Ball-jacket.png;
#CDIMAGE:;
#DISCIMAGE:;
#LYRICSPATH:;
#CDTITLE:cdtitle.png;
#MUSIC:wrecking ball.ogg;
#OFFSET:0.000000;
#SAMPLESTART:40.750000;
#SAMPLELENGTH:16.000000;
#SELECTABLE:YES;
#BPMS:0.000=60.000,
42.000=120.000,
78.000=60.000,
122.000=120.000,
194.000=60.000;
#STOPS:;
#DELAYS:;
#WARPS:;
#TIMESIGNATURES:0.000=4=4;
#TICKCOUNTS:0.000=4;
#COMBOS:0.000=1;
#SPEEDS:0.000=1.000=0.000=0;
#SCROLLS:0.000=1.000;
#FAKES:;
#LABELS:0.000=Song Start;
#BGCHANGES:
;
#KEYSOUNDS:;
#ATTACKS:
;

//---------------dance-single - All you ever did was... WRE-E-ECK MEEEEE!!!----------------
#NOTEDATA:;
#CHARTNAME:X-Scale 8;
#STEPSTYPE:dance-single;
#DESCRIPTION:All you ever did was... WRE-E-ECK MEEEEE!!!;
#CHARTSTYLE:;
#DIFFICULTY:Hard;
#METER:7;
#RADARVALUES:0.324391,0.389343,0.095754,0.636080,0.249644,332.000000,318.000000,14.000000,93.000000,0.000000,0.000000,0.000000,0.000000,0.000000,0.324391,0.389343,0.095754,0.636080,0.249644,332.000000,318.000000,14.000000,93.000000,0.000000,0.000000,0.000000,0.000000,0.000000;
#CREDIT:;
#NOTES:
// measure 0
0000
0000
0000
0000
,  // measure 1
0000
0000
0000
0000
0000
0000
0000
1000
,  // measure 2
2000
0000
3001
0000
0002
0000
0103
0000
0200
0000
0310
0000
0020
0000
0130
0010
,  // measure 3
2000
0000
3000
0000
0001
1000
0100
2000
3000
0002
0000
0003
0100
0001
0100
0000
,  // measure 4
0200
0000
0310
0000
0020
0000
1030
0000
2000
0000
3001
0000
0002
0000
0013
0001
,  // measure 5
0200
0000
0300
0000
0100
0001
1000
0200
0300
2000
0000
0000
3001
1000
0001
1000
,  // measure 6
0001
0000
0001
0000
1000
0100
1000
0000
0010
0000
0010
0000
0100
0010
0100
0000
,  // measure 7
0001
0000
1000
0000
0100
0020
0030
0200
0300
0020
0000
0030
0001
1000
0100
0010
,  // measure 8
0001
0000
0100
0000
0001
1000
0001
0000
1000
0000
0010
0000
1000
0100
1000
0000
,  // measure 9
0010
0000
0100
0000
0001
2000
3000
0200
0300
0020
0000
0000
1030
0000
0010
0000
,  // measure 10
0001
0000
0100
0001
1000
0100
0010
0100
0220
0000
0000
0000
0330
0000
0100
0000
,  // measure 11
2000
0000
0000
0000
3001
1000
0000
1000
,  // measure 12
0100
0010
0100
1000
2200
0000
3300
0010
,  // measure 13
0020
0000
0000
0000
1030
0010
0001
0010
,  // measure 14
1000
0100
1000
0001
2002
0000
3003
0100
,  // measure 15
0200
0000
0000
0000
0310
0100
0001
0010
,  // measure 16
1000
0010
0100
1000
2200
0000
3300
0000
,  // measure 17
0001
0000
1000
0000
0001
0000
0200
0000
0000
0000
0000
0000
,  // measure 18
0310
0000
0010
1000
2020
0000
3030
0010
,  // measure 19
1000
0000
0100
0000
1000
0000
0020
0000
0000
2030
0000
0000
,  // measure 20
3200
0000
0000
0010
0320
0000
0000
0001
0031
0010
0001
1000
0010
0000
0100
0020
,  // measure 21
0200
0000
0030
0000
0320
0000
1000
0000
1030
0010
0100
0001
0010
0000
0001
0020
,  // measure 22
0002
0000
0030
0000
0023
0000
0000
0000
0031
0010
0100
0010
0001
0000
1000
0200
,  // measure 23
2000
0000
0300
0000
3020
0000
0000
0000
1030
0010
0100
0001
1000
0000
1000
0200
,  // measure 24
1000
0000
0310
0100
0020
0000
0000
0100
0130
0010
0001
1000
0001
0000
0001
0020
,  // measure 25
0002
0000
0030
0000
0023
0000
0001
0000
0130
0010
0001
0010
0100
0000
1000
0002
,  // measure 26
0200
0000
0003
0000
0302
0000
0000
0100
0103
0001
1000
0010
1000
0000
0001
1000
,  // measure 27
0002
1000
2003
0000
,  // measure 28
3100
0000
1000
0000
0001
0010
0100
0000
0010
0000
0001
0000
1000
0100
0010
0000
,  // measure 29
0100
0000
0000
0000
1000
0000
0000
0000
0010
0000
0200
0000
0300
0000
0002
0000
0003
0000
0000
2000
0000
0000
0000
0000
0000
0000
0000
0000
3000
0000
0000
0000
,  // measure 30
0000
0000
0000
1000
0001
0010
0100
0010
0220
0000
0000
0000
0330
0000
1000
0000
,  // measure 31
0020
0000
0000
0000
0130
0010
0000
1000
,  // measure 32
0010
0001
0010
0100
0220
0000
0330
0001
,  // measure 33
0200
0000
0000
0000
1300
0100
0001
0010
,  // measure 34
0100
0010
0001
1000
2002
0000
3003
0100
,  // measure 35
2000
0000
0000
0000
3010
0000
1000
0100
,  // measure 36
0001
0100
0010
0001
0022
0000
0033
0000
,  // measure 37
1000
0000
0000
0000
0001
0000
0000
0000
1000
0000
0000
0000
0002
0000
0000
0000
0000
0000
0000
0000
0000
0010
0000
0000
,  // measure 38
0013
0001
1000
0010
2020
0000
3030
0010
,  // measure 39
0200
0000
0000
0000
0302
0000
0000
1000
,  // measure 40
1003
0001
0010
0100
0220
0000
0330
1000
,  // measure 41
0002
0000
0000
2000
0003
0000
3001
1000
,  // measure 42
0100
0001
0100
1000
2200
0000
3300
0100
,  // measure 43
2000
0000
0001
0002
3000
0000
1000
1000
,  // measure 44
1003
0001
0100
0001
0202
0000
0303
0000
,  // measure 45
0001
0000
0100
0000
0010
0000
0200
0000
0000
0000
0000
0000
,  // measure 46
0320
0000
1000
1000
2030
0000
3000
1000
,  // measure 47
0001
0000
0100
0000
0001
0000
0020
0000
0000
0000
0000
0000
,  // measure 48
0031
0000
0000
0000
0000
0000
0000
0000
0000
0000
0000
0000
0000
0000
0000
0000
0000
0000
0000
0000
0000
0000
0000
0000
0000
0000
0000
0000
0000
0000
0000
0000
0000
0000
0000
0000
0000
0000
0000
0000
0000
0000
0000
0000
0000
0000
0000
0000
0100
0000
0000
0000
0000
0000
0000
0000
0000
0000
0000
0000
0000
0000
0000
0000
0000
0000
0000
0000
0000
0000
0000
0000
0002
0000
0000
0000
0000
0000
0000
0000
0000
0000
0000
0000
0000
0000
0000
0000
0000
0000
0000
0000
0000
0000
0000
0000
0000
0000
0000
0000
0000
0000
0000
0000
0000
0000
0000
0000
0000
0000
0000
0000
0000
0000
0003
0000
0000
0000
0000
0000
0000
0000
0000
0000
0000
0000
0000
0000
0000
0000
0000
0000
0001
0000
0000
0000
0000
0000
0000
0000
0000
0000
0000
0000
0010
0000
0000
0000
0000
0000
0000
0000
0000
0000
0000
0000
0000
0000
0000
0000
0100
0000
0000
0000
0000
0000
0000
0000
0000
0000
0000
0000
0000
0000
0000
0000
1000
0000
0000
0000
0000
0000
0000
0000
0000
0000
0000
0000
0000
0000
0000
0000
,  // measure 49
2200
0000
0000
0000
0000
0000
0000
0000
0000
0300
0000
0000
0000
0000
0000
0000
3000
0000
0000
0000
0000
0000
0000
0000
0000
0000
0000
0000
0000
0000
0000
0000
;

//---------------dance-single - All I wanted was to BREEEAAAKKK these WALLLLLLSSS!----------------
#NOTEDATA:;
#CHARTNAME:X-Scale 6;
#STEPSTYPE:dance-single;
#DESCRIPTION:All I wanted was to BREEEAAAKKK these WALLLLLLSSS!;
#CHARTSTYLE:;
#DIFFICULTY:Medium;
#METER:4;
#RADARVALUES:0.253064,0.321631,0.061556,0.424053,0.085495,259.000000,250.000000,9.000000,62.000000,0.000000,0.000000,0.000000,0.000000,0.000000,0.253064,0.321631,0.061556,0.424053,0.085495,259.000000,250.000000,9.000000,62.000000,0.000000,0.000000,0.000000,0.000000,0.000000;
#CREDIT:;
#NOTES:
0000
0000
0000
0000
,
0000
0000
0000
0000
0000
0000
0000
1000
,
0001
1000
0001
0010
0100
0010
0100
0010
,
0001
0000
1000
0000
0001
0000
0100
0000
0010
0000
1000
0000
0100
1000
0100
0000
,
0010
0100
0010
0001
1000
0001
1000
0010
,
0001
0000
0010
0000
1000
0000
0100
2000
3000
2000
0000
0000
3001
0000
1000
0001
,
1000
0010
0100
0001
0010
1000
0010
0001
,
1000
0000
0010
0000
1000
0000
0100
0000
0010
0000
0001
0000
0100
1000
0100
0010
,
0100
0001
0010
1000
0010
0100
1000
0100
,
0010
0000
0001
0000
0010
0002
0003
2000
3000
0002
0000
0000
2003
0000
0000
0000
,
0000
0000
3000
0100
1000
0100
0010
0100
2000
0000
0000
0000
3000
0000
0100
0000
,
2100
0000
0000
0000
3002
0000
0000
0013
,
0100
0010
0001
0010
0002
0000
0003
1000
,
1002
0000
0000
0000
1003
0000
0001
0010
,
1000
0010
0001
0010
0200
0000
0300
0010
,
1200
0000
0000
0000
1300
0000
1000
0100
,
0010
0001
0010
0100
2000
0000
0000
0000
,
3002
0000
0203
0000
,
0320
1000
0230
0000
,
0320
0000
2030
3200
,
0302
0000
0000
0000
0203
0000
0000
0000
1300
0000
0100
0000
1000
0000
0010
2000
,
0000
0000
3000
0000
0100
0000
0001
0000
0100
0000
0010
0000
0001
0000
1000
0002
,
0000
0000
0003
0000
0010
0000
0000
0000
0001
0000
1000
0000
0100
0000
0010
0002
,
0000
0000
0003
0000
0100
0000
0000
0000
0010
0000
0001
0000
0010
0000
0100
0002
,
0000
0000
0003
0000
1000
0000
0000
0000
0001
0000
0100
0000
0010
0000
1000
0200
,
0000
0000
0300
0000
0001
0000
0100
0000
1000
0000
0100
0000
0010
0000
0100
0020
,
0000
0000
0030
0000
0001
0000
0000
0000
1000
0000
0100
0000
0010
0000
0001
0020
,
0000
0030
0100
0000
2000
0000
0000
0000
,
3100
1000
0100
0010
0001
0100
0010
1000
,
0100
0000
0000
0000
1000
0000
0000
0000
0010
0000
2000
0000
3000
0000
0200
0000
0300
0000
0000
0020
0000
0000
0000
0000
0000
0000
0000
0000
0030
0000
0000
0000
,
0000
0000
0000
0010
0100
0010
0001
0010
0002
0000
0000
0000
0003
0000
1000
0000
,
1002
0000
0000
0000
0103
0000
0001
0100
,
1000
0100
0010
1000
0200
0000
0300
1000
,
1200
0000
0310
0001
,
0001
0010
0100
1000
2000
0000
3000
0001
,
2001
0000
3100
1000
,
0001
0100
0010
0100
0002
0000
0000
0000
,
2003
0000
3020
0000
,
0230
0000
0000
0000
0302
0000
0003
0010
,
0012
0000
0000
0000
1003
0000
0000
0001
,
1000
0100
0010
0100
2000
0000
3000
0010
,
2010
0000
3001
1000
,
0001
0100
0010
1000
0200
0000
0300
0010
,
0210
0000
1300
0100
,
0010
0100
0010
0001
0020
0000
0000
0000
,
0032
0000
0203
0000
,
0320
1000
2030
0000
,
3002
0000
0023
0000
,
0230
0010
0320
0032
,
2003
3020
0030
0000
;

//---------------dance-single - I never hit so HAAAARD in LOOOOOVEEEE!----------------
#NOTEDATA:;
#CHARTNAME:X-Scale 2;
#STEPSTYPE:dance-single;
#DESCRIPTION:I never hit so HAAAARD in LOOOOOVEEEE!;
#CHARTSTYLE:;
#DIFFICULTY:Easy;
#METER:2;
#RADARVALUES:0.149493,0.203135,0.000000,0.383016,0.000000,153.000000,153.000000,0.000000,56.000000,0.000000,0.000000,0.000000,0.000000,0.000000,0.149493,0.203135,0.000000,0.383016,0.000000,153.000000,153.000000,0.000000,56.000000,0.000000,0.000000,0.000000,0.000000,0.000000;
#CREDIT:;
#NOTES:
0000
0000
0000
0000
,
0000
0000
0000
0000
,
0010
0000
1000
0000
0100
0000
0010
0100
,
1000
0001
0100
0010
,
1000
0000
0001
0000
0100
0000
0001
0010
,
0100
1000
0001
0100
,
0001
0000
1000
0100
1000
0000
0010
0100
,
0010
0000
0100
0001
0100
0000
0010
0000
,
1000
0000
0001
0010
0001
0000
0100
0010
,
0100
0000
0010
1000
0010
0000
1000
0000
,
0001
0000
0100
0010
0200
0000
0000
0000
,
0320
0000
0230
0000
,
0301
0100
0002
0000
,
2003
0000
3002
0000
,
1003
0001
0200
0000
,
0302
0000
0023
0000
,
0130
1000
0020
0000
,
2030
0000
3200
0000
,
0320
0000
0032
0000
,
0203
0000
0320
0230
,
0302
2003
3001
1000
,
0100
0001
0010
0100
,
0001
0010
0100
1000
,
0010
0100
0001
0100
,
1000
0010
0001
1000
,
0010
0100
0001
0010
,
0001
1000
0100
1000
,
0020
0000
0230
0000
,
0310
0000
0100
0001
0100
0000
0001
0010
,
0001
0100
0020
0000
,
0000
0000
1030
0010
2000
0000
0000
0000
,
3200
0000
0320
0000
,
0031
0010
0200
0000
,
0320
0000
0032
0000
,
1003
0010
2000
0000
,
3002
0000
0203
0000
,
0301
0010
0002
0000
,
2003
0000
3020
0000
,
0230
0000
0302
0000
,
2003
0000
3020
0000
,
1030
0010
2000
0000
,
3200
0000
0320
0000
,
0130
1000
0002
0000
,
0203
0000
0302
0000
,
1003
0010
2000
0000
,
3002
0000
2003
0000
,
3020
0000
2030
0000
,
3200
0000
0320
0000
,
0032
0000
0203
0302
,
0023
0230
0300
0000
;

//---------------dance-single - I came in like a WRE~CKING BAAALLLLLL!----------------
#NOTEDATA:;
#CHARTNAME:X-Scale 1;
#STEPSTYPE:dance-single;
#DESCRIPTION:I came in like a WRE~CKING BAAALLLLLL!;
#CHARTSTYLE:;
#DIFFICULTY:Beginner;
#METER:1;
#RADARVALUES:0.097708,0.118496,0.000000,0.273583,0.000000,100.000000,100.000000,0.000000,40.000000,0.000000,0.000000,0.000000,0.000000,0.000000,0.097708,0.118496,0.000000,0.273583,0.000000,100.000000,100.000000,0.000000,40.000000,0.000000,0.000000,0.000000,0.000000,0.000000;
#CREDIT:;
#NOTES:
0000
0000
0000
0000
,
0000
0000
0000
0000
,
0100
0000
1000
0000
,
0010
0000
0100
0000
,
0001
0000
1000
0000
,
0010
0000
0100
0000
,
0001
0000
0010
0000
,
0100
0000
1000
0001
,
1000
0000
0100
0000
,
0010
0000
0002
0000
,
0000
0003
0002
0000
,
1000
0000
0203
0000
,
0001
0000
0320
0000
,
0100
0000
0230
0000
,
0001
0000
0302
0000
,
1000
0000
2003
0000
,
0100
0000
3200
0000
,
1000
0000
0320
0000
,
0100
0000
0032
0000
,
0100
0000
0203
0000
,
0310
0100
0020
0000
,
1030
0001
2000
0000
,
3001
0010
0002
0000
,
0103
0001
0200
0000
,
0310
0100
0002
0000
,
1003
0001
2000
0000
,
3001
1000
0200
0000
,
2300
0000
0000
0000
,
3010
0000
1000
0000
,
0001
0000
0020
0000
,
0000
0030
0200
0000
,
1000
0000
2300
0000
,
0010
0000
3020
0000
,
0100
0000
0230
0000
,
0001
0000
0302
0000
,
1000
0000
2003
0000
,
0010
0000
3020
0000
,
0100
0000
0230
0000
,
0001
0000
0302
0000
,
0010
0000
0023
0000
,
0001
0000
0230
0000
,
1000
0000
2300
0000
,
0100
0000
3002
0000
,
1000
0000
0023
0000
,
0100
0000
0032
0000
,
0010
0000
2003
0000
,
0010
0000
3020
0000
,
1000
0000
2030
0000
,
0100
0000
3200
0000
,
2300
0000
3000
0000
;
