#TITLE:Wooly;
#SUBTITLE:;
#ARTIST:Breathe Carolina;
#TITLETRANSLIT:;
#SUBTITLETRANSLIT:;
#ARTISTTRANSLIT:;
#GENRE:Electronicore;
#CREDIT:;
#BANNER:wooly-bn.png;
#BACKGROUND:wooly-bg.png;
#LYRICSPATH:;
#CDTITLE:cdtitle.png;
#MUSIC:Wooly.ogg;
#OFFSET:-0.035000;
#SAMPLESTART:50.738998;
#SAMPLELENGTH:13.521000;
#SELECTABLE:YES;
#BPMS:0.000000=142.000000
;
#STOPS:
;
#BGCHANGES:;
#KEYSOUNDS:;
#ATTACKS:;

//---------------dance-single - ----------------
#NOTES:
     dance-single:
     X-Scale 7:
     Easy:
     5:
     0.310352,0.347056,0.067259,0.262310,0.000000,323.000000,313.000000,10.000000,39.000000,0.000000,0.000000,0.310352,0.347056,0.067259,0.262310,0.000000,323.000000,313.000000,10.000000,39.000000,0.000000,0.000000:
0000
0000
0000
0000
,
0000
0000
0000
0000
,
0000
0000
0000
0000
,
0000
0000
0000
0000
,
0000
0000
0000
0000
,
0000
0000
0000
0000
,
0001
0000
0100
0000
0010
0000
1000
0100
,
0000
0100
0010
0000
0001
0000
0100
0001
,
0000
0001
1000
0000
0010
0000
1000
0000
,
0001
0000
0010
0000
0100
0000
1000
0100
,
0000
0100
0010
0000
0001
0000
1000
0010
,
0000
0010
0100
0000
0001
0000
0010
0000
,
0011
0000
0000
0000
,
1001
0000
0000
0000
,
1010
0000
0010
0000
1000
0000
0001
0010
,
0100
0000
0010
0000
0001
0000
1000
0001
,
0010
0000
0001
0000
1000
0000
0001
1000
,
0010
0000
0100
0000
0001
0000
0010
0100
,
1000
0000
0001
0000
0100
0000
0001
1000
,
0100
0000
1000
0000
0010
0000
0100
0010
,
1000
0000
0001
0000
0100
0000
0010
0100
,
0001
1000
0001
0000
,
2001
0100
3020
0100
,
1030
0010
1000
0000
0001
0020
0000
0032
,
0000
0000
1003
0001
0100
0020
0000
2030
,
0000
3200
0000
0320
0000
0032
0010
0000
,
1003
0001
0100
0000
0010
0100
0001
0000
,
1000
0000
0100
0010
0001
0000
1000
0000
,
0010
0000
1000
0000
0001
0010
0100
2000
,
0000
0000
0020
0000
0000
0000
0000
3030
,
1020
0000
0100
0000
1030
0000
0100
0010
,
0001
0000
1000
0000
0001
0000
0100
0001
,
1000
0000
0001
0000
0010
0000
0100
0010
,
0001
0000
1000
0000
0001
0000
0010
0100
,
2000
0010
3002
0010
,
0203
0010
0302
0100
,
1003
0000
0001
0000
0100
0001
1000
0000
,
0100
0000
0010
0000
0100
0010
0001
0000
,
0012
0000
1000
0000
,
0100
0000
1003
0001
,
0010
0000
0100
2000
0001
0000
0000
0000
,
3010
0000
1000
0100
,
0020
0000
0000
0032
,
0000
0000
0013
0100
1000
0000
0020
0000
,
0100
0000
1000
1030
,
0001
0100
0001
0001
,
0100
0000
0101
0000
,
0001
0000
0000
1000
0001
0000
0000
0000
,
0020
0000
0000
0230
0000
0000
2300
0000
,
0000
0000
3001
0000
,
0100
0002
0000
0000
1000
0000
0003
0000
,
0001
0010
0001
0000
0011
0000
0000
0000
,
1000
0000
0000
0000
0010
0000
0000
0100
,
0000
0000
0001
0000
0000
0100
0000
0000
,
0001
0000
1001
0000
,
0200
0000
0000
2300
0000
0000
3002
0000
,
0100
0000
1000
0000
,
0003
0100
0000
0000
0001
0000
0000
0000
,
1000
0200
0000
0000
0010
0000
0000
0000
,
1300
0000
0000
0001
0100
0000
0001
0000
,
1000
0000
0000
0000
0100
0000
0000
0010
,
0000
0000
0001
0000
0000
1000
0000
0000
,
0001
0000
0000
0000
,
0000
0000
0000
0000
,
1000
0100
0010
0001
,
0100
0010
1000
0001
,
0010
0100
1000
0010
,
0100
0001
1000
0100
,
0010
0001
0100
0010
,
1000
0001
0010
0100
,
2001
0000
0100
0000
3001
0000
0100
0001
,
1000
0000
0100
0000
0010
0000
0100
0010
,
0001
0000
1000
0000
0010
0000
0100
0001
,
0010
0000
0100
0000
0010
0000
0001
0010
,
0100
0000
1000
0000
0001
0000
0100
0001
,
1000
0000
0001
0200
0000
0302
0000
2003
,
0000
0000
3100
0000
0010
0100
1000
0000
,
0001
0000
0100
0000
0010
0100
0001
0000
,
0020
0000
0100
0000
0031
0000
0010
0100
,
1000
0000
0001
0000
0100
0000
0001
1000
,
0010
0000
1000
0000
0100
0000
0010
0100
,
1000
0000
0001
0000
0100
0000
0010
0100
,
0002
0100
2003
0100
,
3020
0100
2030
0010
,
3001
1000
0100
0000
1000
0001
0100
0000
,
0001
0000
0100
0000
0010
0100
0002
0000
,
0003
0000
0000
0000
;

//---------------dance-single - ----------------
#NOTES:
     dance-single:
     X-Scale 12:
     Medium:
     8:
     0.467930,0.634420,0.195051,0.437183,0.242132,487.000000,458.000000,29.000000,65.000000,0.000000,0.000000,0.467930,0.634420,0.195051,0.437183,0.242132,487.000000,458.000000,29.000000,65.000000,0.000000,0.000000:
// measure 0
0000
0000
0000
0000
,  // measure 1
0000
0000
0000
0000
,  // measure 2
0000
0000
0000
0000
,  // measure 3
0000
0000
0000
0000
,  // measure 4
0000
0000
0000
0000
,  // measure 5
0000
0000
0000
0000
,  // measure 6
2100
0000
0001
0000
0100
0000
0010
0010
,  // measure 7
3000
1000
0100
0001
0100
0010
0100
1000
,  // measure 8
0000
0001
0100
0010
1000
0001
0010
0100
,  // measure 9
1000
0000
0001
0000
0100
0000
0001
0001
,  // measure 10
0000
1000
0010
0001
1000
0100
0001
1000
,  // measure 11
0000
0001
0100
0010
0001
0010
1000
0001
,  // measure 12
1001
0000
0000
0000
1000
0100
0010
0000
,  // measure 13
0011
0000
0000
0000
0001
1000
0010
0000
,  // measure 14
1010
0000
1000
0001
0020
0000
1030
0010
,  // measure 15
0002
0000
0000
0023
0000
0230
0000
1000
,  // measure 16
0300
1000
0000
0000
0001
0000
0000
0000
1000
0000
0100
0000
0010
0000
0200
0000
,  // measure 17
1000
0000
0000
0000
0310
0000
0000
0000
0100
0000
0000
1000
0000
0000
0010
0000
,  // measure 18
0000
0100
0000
0000
0001
0000
1000
0000
0200
0000
0000
0000
0301
0000
0100
0000
,  // measure 19
2000
0000
0000
3002
0000
0203
0000
0010
,  // measure 20
0300
0010
0000
0000
0100
0000
0001
0000
1000
0000
0001
0000
0010
0000
0200
0000
,  // measure 21
0000
1000
0000
0000
0010
0000
0000
1000
0000
0000
0310
0000
0000
0000
0000
0000
,  // measure 22
2001
0000
0000
0000
0010
0000
0000
0000
3001
0000
0010
0000
0100
1000
0000
0100
,  // measure 23
1000
0000
0001
0000
0100
0002
0000
2003
,  // measure 24
0001
0000
3100
1000
0001
0100
0010
0002
,  // measure 25
0000
0023
0000
2030
0000
3002
0000
0000
,  // measure 26
0103
0000
0001
0000
1000
0001
0100
0000
0001
0000
0010
0000
0100
1000
0000
0100
,  // measure 27
1000
0010
0100
1000
0001
0010
0100
0000
,  // measure 28
0001
0010
1000
0001
0100
0010
0001
2000
,  // measure 29
0010
0010
0010
0000
0000
0000
3000
0000
,  // measure 30
1001
0000
1000
0000
0001
0010
0000
0000
0001
0000
0000
0000
0100
0000
0010
0000
,  // measure 31
1000
0000
0001
0000
0010
0000
0000
0000
0100
0000
0000
1000
0001
0000
0200
0000
,  // measure 32
0000
0320
0000
2030
0000
3002
0000
0203
,  // measure 33
0000
0000
0010
0000
0310
0000
0000
0000
0100
0000
0000
0001
1000
0000
0001
0000
,  // measure 34
0010
0000
0100
0000
0000
1000
0000
0000
0001
0000
0000
0100
0000
0000
0001
0000
,  // measure 35
0000
0000
0010
0000
0000
0100
0000
0000
1000
0000
0000
0001
0000
0000
0100
0000
,  // measure 36
0001
0000
1000
0000
0010
0000
0000
0100
0000
0000
0001
0000
0010
0000
0000
0000
,  // measure 37
1000
0010
0100
0010
0001
1000
0020
0000
,  // measure 38
0001
0100
1000
0000
,  // measure 39
0130
0000
0010
1000
0001
0000
0010
0000
,  // measure 40
0100
0000
1000
0020
0001
0001
0000
0000
,  // measure 41
0130
0010
1000
0000
0001
0000
0010
0000
,  // measure 42
0200
0001
1000
2300
,  // measure 43
0010
3010
1000
0001
0011
0000
0010
0000
,  // measure 44
0001
0100
0000
1000
0100
0000
0002
0000
,  // measure 45
0023
0000
0000
0000
0230
0000
0000
0000
1300
0001
1000
0001
1000
0000
0000
0000
,  // measure 46
0101
0000
0000
0001
0000
1000
0000
0001
0010
0100
0000
0000
0000
0000
0000
0000
,  // measure 47
1100
0000
0000
1000
0001
0000
0000
0000
,  // measure 48
2001
0000
0000
0000
0000
3002
0000
0000
0000
0000
0003
0200
0001
0000
0000
1000
,  // measure 49
0000
0000
0010
0000
0000
1000
0000
0000
0301
0000
0000
0010
0000
0000
0100
0000
,  // measure 50
1000
0000
0000
0001
0000
0100
0000
0001
0010
0100
0000
0000
0000
0000
0000
0000
,  // measure 51
1000
0100
0010
0001
0011
1000
0001
0000
,  // measure 52
0110
0000
0000
0010
0000
1000
0000
0001
1000
0100
0000
0000
1000
0000
0100
0000
,  // measure 53
0020
0030
0012
0003
,  // measure 54
1001
0000
0000
1000
0000
0001
0000
0100
0001
0010
0000
0000
0000
0000
0000
0000
,  // measure 55
2200
0000
3300
2002
0000
3003
0020
0000
,  // measure 56
0200
0000
0000
0000
0300
0002
0000
0000
0000
0003
0030
0200
0010
0000
0000
1000
,  // measure 57
0000
0000
0010
0000
0000
0001
0000
0000
0310
0000
0000
0100
0000
0000
0001
0000
,  // measure 58
1000
0000
0000
0010
0000
1000
0000
0100
0010
0001
0000
0000
0000
0000
0000
0000
,  // measure 59
0101
0000
0000
0001
1001
0000
1000
0000
,  // measure 60
1100
0000
0000
0100
0000
1000
0000
0001
0100
0010
0000
0000
0110
0000
0000
0011
,  // measure 61
0000
0000
1001
0000
0000
1010
0000
0000
1100
0000
0000
0110
0000
0000
1001
0000
,  // measure 62
0001
0000
0010
0000
0100
0000
1000
0100
,  // measure 63
1000
0000
0001
0000
0100
0002
0000
0023
,  // measure 64
0000
2030
0000
3200
0000
0302
0000
2003
,  // measure 65
0001
0000
3100
0010
0001
0000
0100
0000
,  // measure 66
0001
0000
0010
0000
0000
0010
0000
0000
0100
0000
0000
0100
0000
0000
1000
0000
,  // measure 67
0001
0100
0001
2000
0000
3020
0000
0230
,  // measure 68
0001
0000
0300
0000
0101
0000
0001
0000
0000
1000
0000
0000
0010
0000
0100
0000
,  // measure 69
0001
0000
1000
0000
0000
0010
0000
0000
1000
0000
0000
0000
0100
0000
0000
0000
,  // measure 70
1001
0000
1000
0000
0010
1000
0000
0000
0001
0000
0000
0000
0010
0000
0100
0000
,  // measure 71
1000
0002
0103
2000
3100
0002
0103
0020
,  // measure 72
1000
0000
0100
0000
1030
0000
0100
0010
,  // measure 73
0001
0000
1000
0000
0001
0000
0000
0000
0100
0000
0000
0010
0100
0000
0001
0000
,  // measure 74
0010
0000
0100
0000
0000
0100
0000
0000
0010
0000
0000
0010
0000
0000
0001
0000
,  // measure 75
1000
0000
0100
0000
1000
0000
0001
0000
0100
0000
0000
0010
0100
0000
0001
0000
,  // measure 76
0010
0000
0001
0000
0100
0000
0000
0100
0001
0000
1000
0000
0010
0000
0000
0000
,  // measure 77
1000
0100
0001
1000
0010
0100
1000
0000
,  // measure 78
1001
0000
1000
0000
0010
0000
0000
0000
1000
0000
0000
1000
0100
0000
0010
0000
,  // measure 79
0001
0200
0310
2000
3001
0020
0130
2000
,  // measure 80
0010
0000
0000
0000
3001
0000
1000
0000
0010
0000
0000
0010
1000
0000
0100
0000
,  // measure 81
0001
0000
0100
0000
1000
0000
0000
0000
0001
0000
0000
0001
0100
0000
0010
0000
,  // measure 82
2000
0100
3002
0100
,  // measure 83
0023
0100
0032
0100
,  // measure 84
1003
0000
0001
0000
0100
0000
0000
0100
0010
0000
0100
0000
0001
0000
0000
0000
,  // measure 85
1000
0010
0001
1000
0001
0010
1000
0000
;

//---------------dance-single - ----------------
#NOTES:
     dance-single:
     X-Scale 16:
     Hard:
     11:
     0.632235,0.694113,0.376650,0.195051,0.544798,658.000000,602.000000,56.000000,29.000000,0.000000,0.000000,0.632235,0.694113,0.376650,0.195051,0.544798,658.000000,602.000000,56.000000,29.000000,0.000000,0.000000:
// measure 0
0000
0000
0000
0000
,  // measure 1
0000
0000
0000
0000
,  // measure 2
0000
0000
0000
0000
,  // measure 3
0000
0000
0000
0000
,  // measure 4
0000
0000
0000
0000
,  // measure 5
0000
0000
0000
0000
,  // measure 6
1100
0000
1000
0000
1000
0100
0010
0001
0100
0010
1000
0000
1001
0000
0001
0000
,  // measure 7
0000
1000
0100
0001
1000
0010
0100
1000
,  // measure 8
0000
0001
0100
1000
0100
0010
0100
0001
,  // measure 9
1000
0000
1000
0000
0001
0100
0010
1000
0100
0010
0001
0000
0101
0000
0100
0000
,  // measure 10
0000
0001
0010
1000
0001
0100
0010
0001
,  // measure 11
0000
1000
0001
0100
0001
0010
0100
1000
,  // measure 12
2200
0000
0000
3300
,  // measure 13
2002
0000
0000
3003
,  // measure 14
0101
0000
0001
0000
0100
0001
0000
0000
0010
0000
0000
1000
0010
0000
0001
0000
,  // measure 15
0100
0010
0000
0000
0100
0000
0000
1000
0100
0000
0001
0000
1000
0100
0000
1000
,  // measure 16
0001
0000
0000
0001
0100
0000
0001
0000
1000
0100
0000
0000
1000
0000
0000
0001
,  // measure 17
0100
0000
0001
0000
0010
0100
0000
0000
1000
0000
0000
0001
0100
0000
0001
0000
,  // measure 18
0010
0100
0000
0000
1000
0000
0000
0100
0001
0000
0100
0000
0010
0001
0000
0000
,  // measure 19
0100
0000
0000
0001
1000
0000
0001
0000
0100
0010
0000
0000
1000
0000
0001
0000
,  // measure 20
0100
0000
0001
0000
0010
0100
0000
0000
1000
0000
0000
0100
0010
0000
0001
1000
,  // measure 21
0001
0100
0000
0000
0010
0000
0000
0010
1000
0000
0002
0000
0000
0000
0003
0000
,  // measure 22
1000
0001
0100
0010
1000
0001
0010
0100
0000
0000
1000
0000
0100
0010
0000
0100
,  // measure 23
1000
0000
0100
0000
0010
0001
1000
0001
0000
0000
0100
0000
1100
0000
0000
0000
,  // measure 24
1000
0100
0010
0001
1000
0010
0100
0001
0000
0000
1000
0000
0001
0010
0000
1000
,  // measure 25
0010
0000
0001
0000
1000
0010
0100
0010
0000
0000
1000
0000
1200
0000
0000
0000
,  // measure 26
0310
0100
1000
0001
0100
0010
0100
0001
0000
0000
1000
0000
0001
0100
0000
1000
,  // measure 27
0100
0000
0001
0000
4000
0000
3000
0001
0000
0000
0100
0000
0110
0000
0000
0000
,  // measure 28
0001
1000
0010
1000
0100
0010
0100
1000
0000
0000
0001
0000
1000
0100
0000
0001
,  // measure 29
0100
1000
2002
0000
0000
0000
0000
3003
,  // measure 30
0110
0000
0010
0000
0100
0010
0000
0000
2000
0000
0000
0000
3100
0000
0010
0000
,  // measure 31
0001
0000
1000
0000
0001
0000
0000
0000
0100
0000
0000
0100
0010
0000
1000
0000
,  // measure 32
0001
0010
1000
0010
0100
1000
0001
2000
,  // measure 33
0100
0000
0000
0000
3001
0000
0000
0000
0100
0000
0000
0100
0001
0000
0010
0000
,  // measure 34
0200
0000
0010
0000
0000
1000
0000
0000
2300
0000
0000
0010
0000
0000
0001
0000
,  // measure 35
3002
0000
1000
0000
0000
0100
0000
0000
0203
0000
0000
0010
0000
0000
0001
0000
,  // measure 36
0301
0000
1000
0000
0100
0000
0000
0100
0010
0000
0001
0000
1000
0000
0000
0000
,  // measure 37
0001
0000
0100
0000
0001
0000
0000
0000
0010
0100
0000
0000
1100
0000
0000
1000
,  // measure 38
0001
0000
0000
0000
0001
0000
1000
0000
1001
0000
0000
0000
0000
0000
0010
0100
,  // measure 39
0010
0000
1000
0100
4100
0000
3100
0010
,  // measure 40
0001
0100
0000
1000
0100
0001
0000
0100
,  // measure 41
0001
0000
1000
0000
0100
0000
0001
0000
0100
0000
1000
0100
1000
0000
1000
0000
,  // measure 42
0001
0100
0001
0010
0400
0000
0300
1000
,  // measure 43
0010
0100
1000
0100
0002
0003
0020
0000
,  // measure 44
0031
0100
0000
1000
0100
0000
0001
0010
,  // measure 45
1000
0000
0001
0000
0100
0000
1000
0000
1000
0001
0100
0010
1000
0000
1000
0000
,  // measure 46
1010
0010
1000
0010
0000
0100
0000
0001
0010
0100
0000
0000
1000
0000
0000
0000
,  // measure 47
1001
0000
0000
0100
1100
0000
1000
0000
,  // measure 48
0001
0100
0001
1000
0000
0100
0000
0010
0100
1000
0000
0000
1001
0000
0000
0101
,  // measure 49
0000
0000
0110
0000
0000
1001
0000
0000
1100
0000
0000
0110
0000
0000
0101
0000
,  // measure 50
0001
0100
0010
1000
0000
0001
0000
0100
0001
1000
0000
0000
0400
0000
0000
0000
,  // measure 51
0304
0043
4030
3001
1001
1000
0010
0000
,  // measure 52
0100
0010
1000
0001
0000
0010
0000
0010
0100
1000
0000
0000
1100
0000
0000
0101
,  // measure 53
0000
0000
0011
0000
0000
0110
0000
0000
1001
0000
0000
1100
0000
0000
0101
0000
,  // measure 54
0001
0100
0001
1000
0000
0100
0000
0100
0010
0001
0000
0000
0000
0000
0000
0000
,  // measure 55
0011
0000
0000
0001
1001
0000
0100
0000
,  // measure 56
1000
0100
0010
0001
0000
0100
0000
0001
1000
0010
0000
0000
1010
0000
0000
0110
,  // measure 57
0000
0000
0011
0000
0000
1001
0000
0000
1010
0000
0000
0110
0000
0000
1001
0000
,  // measure 58
0001
0100
0010
1000
0000
0001
0000
0001
0100
0010
0000
0000
0000
0000
0000
0000
,  // measure 59
1001
0000
0000
1000
1100
0000
0001
0000
,  // measure 60
0100
0001
1000
0001
0000
0010
0000
0010
0100
1000
0000
0000
1100
0000
0000
0101
,  // measure 61
0000
0000
0110
0000
0000
1001
0000
0000
1100
0000
0000
1010
0000
0000
0101
0000
,  // measure 62
0001
0000
0100
0000
0010
0100
0010
0100
0010
0000
0010
0000
0100
0000
0200
0000
,  // measure 63
0000
0310
0010
1000
1000
0001
0001
0100
,  // measure 64
0100
0000
0001
0000
1000
0100
0010
0100
1000
0000
0001
0100
0010
0100
0002
0000
,  // measure 65
0100
0000
0000
0000
1003
0001
1000
0001
0100
0001
0100
0000
0001
0000
0001
0000
,  // measure 66
1000
0000
0100
0000
0100
0010
0001
1000
0001
0000
0010
0100
0000
0100
1000
0000
,  // measure 67
0001
1000
0010
0200
0000
0302
0000
2003
,  // measure 68
0100
0000
3100
0000
1000
0100
1000
0100
1000
0000
0001
0010
0000
0010
0100
0000
,  // measure 69
1000
0000
0001
0000
0100
0010
0100
0010
0100
0000
0001
1000
0000
0010
1000
0000
,  // measure 70
1010
0000
0010
0000
1000
0100
0000
0000
1001
0000
0000
0000
0010
0000
1000
0000
,  // measure 71
0001
0000
0100
0000
0001
0010
0000
0000
0001
0000
0000
1000
0010
0000
1000
0000
,  // measure 72
0001
0010
1000
0001
0100
0010
0001
0200
,  // measure 73
1000
0000
0000
0000
0301
0000
0000
0000
0100
0000
0000
0010
0100
0000
0001
0000
,  // measure 74
0020
0000
0100
0000
0000
0100
0000
0000
0001
0000
0000
0001
0030
0000
0010
0000
,  // measure 75
0100
1000
0001
0101
0000
0110
0000
1100
,  // measure 76
0001
0000
1000
0000
0100
0000
0000
0100
0010
0000
0001
0000
0100
0000
0000
0000
,  // measure 77
0001
0000
0000
0001
1000
0000
0010
0000
0100
0010
0000
0000
1000
0000
0100
0010
,  // measure 78
0001
0000
0001
0000
0010
0000
0000
0000
0110
0000
0000
0100
1000
0000
0001
0000
,  // measure 79
0100
0000
0001
0000
1000
0010
0000
0000
0100
0000
0000
1000
0100
0000
0001
0000
,  // measure 80
1000
0010
0001
1000
0100
0001
1000
0020
,  // measure 81
0001
0000
0000
0000
1030
0000
0010
0000
1000
0000
0000
0100
0010
0000
0001
0000
,  // measure 82
0200
0000
1000
0000
0000
0010
0000
0000
0320
0000
0000
0001
0000
0000
0100
0000
,  // measure 83
0230
0000
0010
0000
0000
0001
0000
0000
0302
0000
0000
0100
0000
0000
1000
0000
,  // measure 84
1003
0000
0001
0000
0100
0000
0000
0100
1000
0000
0100
0000
0001
0000
0000
0000
,  // measure 85
1000
0010
0100
0001
0010
0100
2000
0000
,  // measure 86
3000
0000
0000
0000
;
