#VERSION:0.83;
#TITLE:Without Words;
#SUBTITLE:;
#ARTIST:Dominant Space;
#TITLETRANSLIT:;
#SUBTITLETRANSLIT:;
#ARTISTTRANSLIT:;
#GENRE:Future House;
#ORIGIN:;
#CREDIT:;
#BANNER:Without Words-bn.png;
#BACKGROUND:Without Words-bg.png;
#PREVIEWVID:;
#JACKET:Without Words-jacket.png;
#CDIMAGE:;
#DISCIMAGE:;
#LYRICSPATH:;
#CDTITLE:cdtitle.png;
#MUSIC:Without Words.ogg;
#OFFSET:-0.337000;
#SAMPLESTART:28.781000;
#SAMPLELENGTH:14.222000;
#SELECTABLE:YES;
#BPMS:0.000=135.000;
#STOPS:;
#DELAYS:;
#WARPS:;
#TIMESIGNATURES:0.000=4=4;
#TICKCOUNTS:0.000=4;
#COMBOS:0.000=1;
#SPEEDS:0.000=1.000=0.000=0;
#SCROLLS:0.000=1.000;
#FAKES:;
#LABELS:0.000=Song Start;
#BGCHANGES:;
#KEYSOUNDS:;
#ATTACKS:
;

//---------------dance-single - ----------------
#NOTEDATA:;
#CHARTNAME:X-Scale 3;
#STEPSTYPE:dance-single;
#DESCRIPTION:;
#CHARTSTYLE:;
#DIFFICULTY:Beginner;
#METER:2;
#RADARVALUES:0.125452,0.166938,0.017389,0.000000,0.000000,101.000000,99.000000,2.000000,0.000000,0.000000,0.000000,0.000000,0.000000,0.000000,0.125452,0.166938,0.017389,0.000000,0.000000,101.000000,99.000000,2.000000,0.000000,0.000000,0.000000,0.000000,0.000000,0.000000;
#CREDIT:iamthek3n;
#NOTES:
// measure 0
0000
0000
0000
0000
,  // measure 1
0000
0000
0000
0000
,  // measure 2
0000
0000
0000
0000
,  // measure 3
0000
0000
0000
0000
,  // measure 4
0001
0000
0000
0000
,  // measure 5
0010
0000
0000
0000
,  // measure 6
0100
0000
0000
0000
,  // measure 7
1000
0000
0000
0000
,  // measure 8
0001
0000
1000
0000
,  // measure 9
0010
0000
1000
0000
,  // measure 10
0001
0000
1000
0000
,  // measure 11
0100
0000
0010
0000
,  // measure 12
0100
0000
1000
0000
,  // measure 13
0100
0000
0010
0000
,  // measure 14
0001
0000
0000
0000
,  // measure 15
1000
0000
0000
0000
,  // measure 16
1001
0000
1000
0000
,  // measure 17
0010
0000
1000
0000
,  // measure 18
0001
0000
0100
0000
,  // measure 19
0001
0000
0010
0000
,  // measure 20
0100
0000
0010
0000
,  // measure 21
0001
0000
1000
0000
,  // measure 22
0010
0000
1000
0000
,  // measure 23
0100
0000
0000
0000
,  // measure 24
0010
0000
0000
0000
,  // measure 25
0001
0000
1000
0000
,  // measure 26
0010
0000
1000
0000
,  // measure 27
0001
0000
0010
0000
,  // measure 28
0100
0000
1000
0000
,  // measure 29
0001
0000
1000
0000
,  // measure 30
0010
0000
1000
0000
,  // measure 31
0001
0000
0000
0000
,  // measure 32
0100
0000
0000
0000
,  // measure 33
0010
0000
0000
0000
,  // measure 34
1000
0000
0000
0000
,  // measure 35
0001
0000
0000
0000
,  // measure 36
0010
0000
0000
0000
,  // measure 37
0100
0000
0000
0000
,  // measure 38
1000
0000
0000
0000
,  // measure 39
0001
0000
0000
0000
,  // measure 40
1000
0000
0100
0000
,  // measure 41
1000
0000
0001
0000
,  // measure 42
1000
0000
0100
0000
,  // measure 43
0010
0000
0001
0000
,  // measure 44
0100
0000
0001
0000
,  // measure 45
1000
0000
0001
0000
,  // measure 46
0100
0000
0000
0000
,  // measure 47
0010
0000
0000
0000
,  // measure 48
1001
0000
1000
0000
,  // measure 49
0010
0000
1000
0000
,  // measure 50
0100
0000
0010
0000
,  // measure 51
0100
0000
1000
0000
,  // measure 52
0001
0000
0100
0000
,  // measure 53
0001
0000
0010
0000
,  // measure 54
0100
0000
0010
0000
,  // measure 55
0001
0000
0000
0000
,  // measure 56
1000
0000
0000
0000
,  // measure 57
0010
0000
1000
0000
,  // measure 58
0001
0000
1000
0000
,  // measure 59
0100
0000
1000
0000
,  // measure 60
0001
0000
0010
0000
,  // measure 61
0100
0000
0010
0000
,  // measure 62
0001
0000
1000
0000
,  // measure 63
0001
0000
0000
0000
,  // measure 64
1000
0000
0000
0000
;

//---------------dance-single - ----------------
#NOTEDATA:;
#CHARTNAME:X-Scale 6;
#STEPSTYPE:dance-single;
#DESCRIPTION:;
#CHARTSTYLE:;
#DIFFICULTY:Easy;
#METER:4;
#RADARVALUES:0.325429,0.417344,0.113031,0.156504,0.000000,262.000000,249.000000,13.000000,18.000000,0.000000,0.000000,0.000000,0.000000,0.000000,0.325429,0.417344,0.113031,0.156504,0.000000,262.000000,249.000000,13.000000,18.000000,0.000000,0.000000,0.000000,0.000000,0.000000;
#CREDIT:iamthek3n;
#NOTES:
// measure 0
0000
0000
0000
0000
,  // measure 1
0000
0000
0000
0000
,  // measure 2
0000
0000
0000
0000
,  // measure 3
0000
0000
0000
0000
,  // measure 4
1000
0100
0010
0000
,  // measure 5
0001
0010
0100
0000
,  // measure 6
1000
0100
0010
0000
,  // measure 7
0001
0010
0100
0000
,  // measure 8
1001
1000
0001
0100
,  // measure 9
0001
0000
0010
0100
1000
0000
0001
0000
,  // measure 10
0100
0001
1000
0010
,  // measure 11
0100
0000
0001
0000
1000
0010
1000
0000
,  // measure 12
0001
0010
0100
1000
,  // measure 13
0100
0000
0010
0000
0002
0000
0000
0003
,  // measure 14
0101
0000
0000
0000
,  // measure 15
1000
1000
0001
0001
,  // measure 16
2001
0000
3100
1000
0001
0000
0100
0001
,  // measure 17
0010
0000
0100
0010
0001
0000
1000
0001
,  // measure 18
0200
0000
0310
0100
0001
0000
0010
0100
,  // measure 19
1000
0000
0001
1000
0010
0000
0100
0000
,  // measure 20
1002
0000
0013
0100
1000
0000
0010
1000
,  // measure 21
0001
0000
0100
0001
1000
0000
0100
0010
,  // measure 22
0002
0000
1003
0000
0001
0010
0100
0000
,  // measure 23
1000
0020
0000
2030
0000
3002
0000
0003
,  // measure 24
0022
0000
0033
0000
1000
0000
0001
1000
,  // measure 25
1001
0000
0001
0000
0100
0001
1000
0001
,  // measure 26
0200
0000
0310
0000
0100
0001
1000
0001
,  // measure 27
0100
0000
0001
0000
1000
0000
0100
0010
,  // measure 28
0002
0000
0103
0000
0001
0010
0100
0010
,  // measure 29
0001
0000
1000
0000
0010
1000
0001
0100
,  // measure 30
0102
1003
2100
3001
,  // measure 31
1001
0000
1000
0000
0001
0000
0100
0001
,  // measure 32
0200
0000
0000
0000
,  // measure 33
0000
0000
0000
0000
,  // measure 34
0301
0000
0100
0000
,  // measure 35
0001
0000
1000
0000
,  // measure 36
0010
0000
0100
0001
,  // measure 37
1000
0000
0010
0100
,  // measure 38
0001
0000
0010
0100
,  // measure 39
1000
0000
0100
0010
,  // measure 40
0001
0100
0010
1000
,  // measure 41
0100
0000
0010
0100
1000
0000
0001
0000
,  // measure 42
0100
0001
0010
0100
,  // measure 43
1000
0000
0001
0100
0010
0100
0001
0000
,  // measure 44
0100
0010
1000
0100
,  // measure 45
0010
0000
0001
0000
2000
0000
0000
3000
,  // measure 46
1001
0000
0000
0000
,  // measure 47
1000
1000
0001
0001
,  // measure 48
1001
0000
1000
0000
0001
0100
0001
0000
,  // measure 49
0010
0000
0100
0000
1000
0100
1000
0000
,  // measure 50
0001
0000
0100
0000
0001
0010
0100
0000
,  // measure 51
1000
0000
0001
0000
0100
0001
1000
0000
,  // measure 52
0010
0000
0100
0000
0001
0010
0100
0000
,  // measure 53
0010
0000
0001
0000
1000
0001
0010
0000
,  // measure 54
0001
0000
1000
0000
0010
1000
0001
0000
,  // measure 55
0010
0000
0100
0000
,  // measure 56
1001
0000
0010
0000
,  // measure 57
0110
0000
0100
0000
0001
0010
0100
0000
,  // measure 58
1000
0000
0001
0000
0100
0001
1000
0000
,  // measure 59
0100
0000
0010
0000
0001
0000
1000
0010
,  // measure 60
1000
0000
0001
0000
0100
0010
0100
0000
,  // measure 61
0001
0000
0010
0000
0100
0010
0001
0000
,  // measure 62
1000
0000
0010
0000
0100
0001
1000
0000
,  // measure 63
0001
0000
1000
0000
0020
0000
0000
2000
,  // measure 64
3030
0000
0000
0000
;

//---------------dance-single - ----------------
#NOTEDATA:;
#CHARTNAME:X-Scale 11;
#STEPSTYPE:dance-single;
#DESCRIPTION:;
#CHARTSTYLE:;
#DIFFICULTY:Medium;
#METER:8;
#RADARVALUES:0.493112,0.556459,0.443428,0.399955,0.199977,397.000000,346.000000,51.000000,46.000000,0.000000,0.000000,0.000000,0.000000,0.000000,0.493112,0.556459,0.443428,0.399955,0.199977,397.000000,346.000000,51.000000,46.000000,0.000000,0.000000,0.000000,0.000000,0.000000;
#CREDIT:iamthek3n;
#NOTES:
// measure 0
0000
0000
0000
0000
,  // measure 1
0000
0000
0000
0000
,  // measure 2
0000
0000
0000
0000
,  // measure 3
0000
0000
0000
0000
,  // measure 4
1000
0000
0000
0000
0001
0000
0000
0000
0020
0000
0000
0200
0000
0000
0330
0000
,  // measure 5
1000
0000
0000
0000
0100
0000
0000
0000
0020
0000
0000
0002
0000
0000
0033
0000
,  // measure 6
0001
0000
0000
0000
1000
0000
0000
0000
0020
0000
0000
2000
0000
0000
3030
0000
,  // measure 7
0001
0000
0000
0000
1000
0000
0000
0000
0020
0000
0000
0200
0000
0000
0330
0000
,  // measure 8
1001
0000
0000
0000
0001
0000
0000
0000
0011
0000
0000
0010
0000
0000
0000
0000
,  // measure 9
0100
0000
0000
1000
0100
0000
2000
0000
0001
0000
0000
0000
3010
0000
1000
0000
,  // measure 10
1001
0001
0101
1000
,  // measure 11
0001
0010
0100
1000
0010
0100
0001
0000
,  // measure 12
0101
1000
1001
0100
,  // measure 13
0110
0000
1001
0000
0220
0000
0000
0330
,  // measure 14
2002
0000
0000
3003
1000
0100
0001
0100
,  // measure 15
0010
0002
0000
2003
0000
3002
0000
0003
,  // measure 16
0011
0000
0000
0000
0010
0000
0100
0000
1000
0000
0001
0100
0000
0001
0100
0000
,  // measure 17
0001
0000
0000
0000
1000
0000
0100
0000
0010
0000
0100
1000
0000
0100
1000
0000
,  // measure 18
1100
0000
0000
0000
0001
0000
0100
0000
0001
0000
1000
0100
0000
1000
0100
0000
,  // measure 19
0010
0000
0000
0000
0001
0000
1000
0000
0010
0000
0100
0010
0000
0100
0010
0000
,  // measure 20
1001
0000
0000
0000
0001
0000
0010
0000
0100
0000
1000
0001
0000
1000
0001
0000
,  // measure 21
0100
0000
0000
0000
0010
0000
0100
0000
0001
0000
0010
0100
0000
0010
0100
0000
,  // measure 22
2000
0000
3100
0000
1000
0100
0001
0100
,  // measure 23
1000
0002
0000
0203
0000
0302
0000
0003
,  // measure 24
1001
0000
0000
0000
0100
0000
0000
1000
0000
1000
0000
0000
1010
0000
0001
0000
,  // measure 25
1000
0100
0001
0100
1000
0010
0100
0001
,  // measure 26
0020
0000
0130
0010
0001
1000
0010
0100
,  // measure 27
0001
0000
0010
0000
0100
0000
1000
0000
1100
0000
0000
1001
0000
0000
0101
0000
,  // measure 28
0002
0000
0013
0100
1000
0010
0001
0010
,  // measure 29
1000
0100
0010
0001
1000
0001
0100
0010
,  // measure 30
2020
3030
0202
0303
,  // measure 31
0110
0000
0100
0000
0001
0000
0100
0001
,  // measure 32
0201
0010
1000
0010
,  // measure 33
0001
0010
1000
0010
,  // measure 34
0301
1000
0010
1000
,  // measure 35
0100
0010
0001
1000
,  // measure 36
0001
0000
0100
0000
0001
0000
0000
0000
0010
0000
0000
0011
0000
0000
0000
0000
,  // measure 37
1000
0000
0010
0000
1000
0000
0000
0000
0100
0000
0000
0110
0000
0000
0000
0000
,  // measure 38
0001
0000
0100
0000
0001
0000
0000
0000
1000
0000
0000
1001
0000
0000
0000
0000
,  // measure 39
1000
0000
0010
0000
1000
0000
0000
0000
0100
0000
0000
0110
0000
0000
0000
0000
,  // measure 40
0101
0000
0001
0010
0100
0000
1000
0100
,  // measure 41
0010
0000
0000
0001
0100
0000
0002
0000
0100
0000
0000
0000
1003
0000
0100
0000
,  // measure 42
0010
0000
0001
1000
0010
0000
0100
0000
,  // measure 43
0001
1000
0010
0001
0010
1000
0100
0000
,  // measure 44
1100
1000
1001
0001
,  // measure 45
0110
0000
1001
0000
0220
0000
0000
0330
,  // measure 46
2002
0000
0000
3003
1000
0100
0001
0100
,  // measure 47
0010
0002
0000
2003
0000
3002
0000
0003
,  // measure 48
0011
0000
0000
0000
0001
0000
1000
0000
0010
0000
0000
1010
0000
0000
1000
0000
,  // measure 49
0001
0000
0100
0000
0001
0000
0000
0000
0010
0000
0000
0110
0000
0000
1000
0000
,  // measure 50
1010
0000
0000
0000
0001
0000
1000
0000
0010
0000
0000
1001
0000
0000
0001
0000
,  // measure 51
0100
0000
0010
0000
1000
0000
0000
0001
0100
0001
0000
1000
0010
1000
0010
0000
,  // measure 52
1010
0000
0000
0000
1000
0000
0100
0000
0010
0000
0000
0011
0000
0000
0001
0000
,  // measure 53
0100
0000
0001
0000
0010
0000
0000
0000
0100
0000
0000
1100
0000
0000
1000
0000
,  // measure 54
0002
0000
0103
0001
0010
1000
0001
0100
,  // measure 55
1000
0002
0000
2003
0000
3002
0000
0003
,  // measure 56
0011
0000
0000
0000
1000
0000
0000
0000
0010
0000
0000
0010
0000
0000
1000
0000
,  // measure 57
0001
0000
0100
0000
0010
0000
1000
0000
0100
0000
0000
0010
0100
0000
0010
0000
,  // measure 58
0002
0000
0000
0000
0103
0000
0001
0000
0010
0000
0000
0100
1000
0000
0001
0000
,  // measure 59
0100
0000
1000
0000
0100
0000
0000
0001
1000
0001
0000
0100
0010
0100
0010
0000
,  // measure 60
1001
0000
0000
0000
1000
0000
0010
0000
0100
0000
0000
0001
0010
0000
0001
0000
,  // measure 61
0100
0000
1000
0000
0100
0000
0001
0000
1000
0000
0000
0100
1000
0000
0001
0000
,  // measure 62
1001
0000
0000
0000
1000
0000
0100
0000
1100
0000
0000
1001
0000
0000
0001
0000
,  // measure 63
0011
0000
0000
0000
0110
0000
0000
0000
2002
0000
3003
2020
0000
3030
0220
0000
,  // measure 64
0330
0000
0000
0000
;

//---------------dance-single - ----------------
#NOTEDATA:;
#CHARTNAME:X-Scale 14;
#STEPSTYPE:dance-single;
#DESCRIPTION:;
#CHARTSTYLE:;
#DIFFICULTY:Hard;
#METER:9;
#RADARVALUES:0.578817,0.639928,0.452123,0.356481,0.439081,466.000000,414.000000,52.000000,41.000000,0.000000,0.000000,0.000000,0.000000,0.000000,0.578817,0.639928,0.452123,0.356481,0.439081,466.000000,414.000000,52.000000,41.000000,0.000000,0.000000,0.000000,0.000000,0.000000;
#CREDIT:iamthek3n;
#NOTES:
// measure 0
0000
0000
0000
0000
,  // measure 1
0000
0000
0000
0000
,  // measure 2
0000
0000
0000
0000
,  // measure 3
0000
0000
0000
0000
,  // measure 4
1000
0000
0000
0000
1000
0000
0000
0000
0100
0000
0000
0010
0000
0000
0000
0000
,  // measure 5
0001
0000
0000
0000
0001
0000
0000
0000
1000
0000
0000
0010
0000
0000
0000
0000
,  // measure 6
1000
0000
0000
0000
1000
0000
0000
0000
0001
0000
0000
0010
0000
0000
0000
0000
,  // measure 7
0100
0000
0000
0000
0100
0000
0000
0000
1000
0000
0000
0001
0000
0000
0000
0000
,  // measure 8
1001
0000
1000
0000
0010
0000
0001
0010
,  // measure 9
1000
0000
0000
1000
0010
0000
2000
0000
0001
0000
0000
0000
3010
0000
0100
0000
,  // measure 10
0001
0100
1000
0100
,  // measure 11
0001
0010
0100
1000
0010
0100
0001
0000
,  // measure 12
1001
0000
0001
0000
0100
0000
1000
0100
,  // measure 13
0002
0023
0230
0001
,  // measure 14
1300
0000
0000
0000
1000
0010
0001
0010
,  // measure 15
1000
0002
0000
2003
0000
3002
0000
0003
,  // measure 16
2002
0000
3003
0000
1000
0100
0000
1000
0001
0000
0010
0100
0000
0010
0001
0000
,  // measure 17
0100
0001
0000
1000
0010
0000
1000
0100
0000
0010
0100
0000
1000
0001
1000
0000
,  // measure 18
2002
0000
3003
0000
0001
0010
0000
0100
1000
0000
0010
0100
0000
0001
2000
0000
,  // measure 19
3001
0100
0000
0100
0010
0000
0010
1000
0000
0100
1000
0000
0001
0100
0001
0000
,  // measure 20
2002
0000
3003
0000
1000
0100
0000
0100
0010
0000
0001
0100
0000
0001
1000
0000
,  // measure 21
0010
0100
0000
0010
1000
0000
1000
0001
0000
0100
0001
0000
1000
0100
1000
0000
,  // measure 22
2200
0000
3300
0000
0100
0010
0000
0010
0001
0000
0010
0000
1000
0000
0010
0000
,  // measure 23
0001
0000
1000
0000
0000
1000
0010
1000
0010
0000
0010
0000
0100
0000
0010
0000
,  // measure 24
2002
0000
3003
0000
0001
0000
0000
1000
0000
1000
0000
0000
0100
0000
0010
0000
,  // measure 25
1001
0000
1000
0000
0010
0000
1000
0100
0000
0100
0010
0000
0001
0010
0100
0000
,  // measure 26
2002
0000
3003
0000
1000
0000
0001
0000
0100
0000
0001
0010
0000
0010
0200
0000
,  // measure 27
1300
0100
0000
0100
0010
0000
0001
0000
0011
0000
0000
1001
0000
0000
1100
0000
,  // measure 28
2200
0000
3300
0000
1000
0000
0010
0000
0001
0000
0010
0100
0000
0010
1000
0001
,  // measure 29
1000
0000
0100
0000
0001
0000
0100
0000
1000
0000
0001
0000
0100
0010
0100
0000
,  // measure 30
0220
0330
0001
1000
2200
3300
0100
0010
,  // measure 31
0001
0100
0000
0001
0010
0000
0100
1000
0000
0010
1000
0000
0100
0000
0010
0000
,  // measure 32
0021
0000
0000
0000
0100
0000
0000
0000
1000
0000
0000
1000
0000
0000
0000
0000
,  // measure 33
0001
0000
0000
0000
0100
0000
0000
0000
0001
0000
0000
0001
0000
0000
0000
0000
,  // measure 34
0130
0000
0000
0000
0010
0000
0000
0000
1001
0000
0000
0110
0000
0000
0000
0000
,  // measure 35
1000
0000
0000
0000
0010
0000
0000
0000
1010
0000
0000
0011
0000
0000
0000
0000
,  // measure 36
0001
0000
1000
0000
0010
0000
0000
0000
0110
0000
0000
1001
0000
0000
0000
0000
,  // measure 37
1000
0000
0100
0000
0010
0000
0000
0000
0011
0000
0000
1001
0000
0000
0000
0000
,  // measure 38
0010
0000
1000
0000
0001
0000
0000
0000
1001
0000
0000
1100
0000
0000
0000
0000
,  // measure 39
0001
0000
1000
0000
0100
0000
0000
0000
1001
0000
0000
0101
0000
0000
0000
0000
,  // measure 40
0110
0000
0000
0000
0100
0000
0001
0000
1000
0000
0000
1000
0001
0000
0000
0000
,  // measure 41
0010
0000
0000
0100
1000
0000
0010
0000
1000
0000
0000
1001
0000
0000
0001
0000
,  // measure 42
0010
0000
0001
0000
1000
0000
0000
0000
0100
0000
0000
0010
0001
0000
1000
0000
,  // measure 43
0001
0000
0010
0000
0100
0000
0000
0000
1000
0000
0000
1010
0000
0000
0000
0000
,  // measure 44
1000
0001
1000
0100
0010
0001
1000
0001
,  // measure 45
0011
0110
2001
0010
,  // measure 46
3001
0000
0000
0000
0010
0000
0000
0000
0100
0000
0000
1100
0000
0000
0000
0000
,  // measure 47
1000
0000
0001
0000
0100
0000
0000
0000
0101
0000
0000
0001
0100
0001
1000
0000
,  // measure 48
1001
0000
0000
0000
1100
0000
0100
1000
0001
0000
0000
1001
0000
0000
1000
0000
,  // measure 49
0001
0000
0100
0000
0001
0000
0010
0100
1000
0000
0000
1100
0000
0000
1000
0000
,  // measure 50
2001
0000
0000
0000
3010
0000
1000
0100
0010
0000
0000
0011
0000
0000
1000
0000
,  // measure 51
0001
0000
0100
0000
0001
0000
0000
1000
0100
1000
0000
0001
0100
0010
0100
0000
,  // measure 52
1001
0000
0000
0000
0110
0000
0010
0100
0001
0000
0000
0101
0000
0000
0001
0000
,  // measure 53
1000
0000
0010
0000
0100
0000
0001
0010
0100
0000
0000
1100
0000
0000
1000
0000
,  // measure 54
0200
0000
0000
0000
0310
0000
0100
0010
0001
0000
1000
0000
0010
0000
0001
0000
,  // measure 55
1000
0000
0100
0000
0001
0000
0000
0000
0010
0000
0000
0100
0000
0000
1000
0000
,  // measure 56
2020
0000
3030
0000
1000
0000
0000
0000
0001
0000
0000
0001
0000
0100
0001
0100
,  // measure 57
0001
0000
0010
0000
1000
0000
0010
0100
1000
0000
0100
0000
0001
0000
0100
0000
,  // measure 58
0010
0000
0001
0000
1000
0000
0010
1000
0001
0000
0100
0000
0001
0000
0010
0000
,  // measure 59
0100
0000
1000
0000
0001
0000
1000
0000
0100
0010
0000
0010
0001
1000
0001
0000
,  // measure 60
2002
0000
3003
0000
1100
0000
0100
0010
0001
0000
1000
0000
0010
0000
0001
0000
,  // measure 61
0010
0000
1000
0000
0001
0000
0010
0100
1000
0000
0001
0000
1000
0000
0010
0000
,  // measure 62
0200
0000
0000
0000
0000
0000
0000
0000
1300
0000
0000
0000
0100
0000
0000
0000
0001
0000
0000
0000
0000
0000
0100
0000
0001
0000
0000
0000
1000
0000
0001
1000
,  // measure 63
0001
0000
0000
0000
0101
0000
0001
0010
0200
0000
0300
2200
0000
3300
2002
0000
,  // measure 64
3003
0000
0000
0000
;
