#VERSION:0.83;
#TITLE:Wide Awake feat. Ellie Lawson;
#SUBTITLE:;
#ARTIST:Richard Durand;
#TITLETRANSLIT:;
#SUBTITLETRANSLIT:;
#ARTISTTRANSLIT:;
#GENRE:Trance;
#ORIGIN:;
#CREDIT:;
#BANNER:Wide Awake-bn.png;
#BACKGROUND:Wide Awake-bg.png;
#PREVIEWVID:;
#JACKET:Wide Awake-jacket.png;
#CDIMAGE:;
#DISCIMAGE:;
#LYRICSPATH:;
#CDTITLE:cdtitle.png;
#MUSIC:Wide Awake.ogg;
#OFFSET:-0.004000;
#SAMPLESTART:32.312000;
#SAMPLELENGTH:29.500000;
#SELECTABLE:YES;
#BPMS:0.000=130.000;
#STOPS:;
#DELAYS:;
#WARPS:;
#TIMESIGNATURES:0.000=4=4;
#TICKCOUNTS:0.000=4;
#COMBOS:0.000=1;
#SPEEDS:0.000=1.000=0.000=0;
#SCROLLS:0.000=1.000;
#FAKES:;
#LABELS:0.000=Song Start;
#BGCHANGES:;
#KEYSOUNDS:;
#ATTACKS:
;

//---------------dance-single - ----------------
#NOTEDATA:;
#CHARTNAME:X-Scale 13;
#STEPSTYPE:dance-single;
#DESCRIPTION:;
#CHARTSTYLE:;
#DIFFICULTY:Challenge;
#METER:9;
#RADARVALUES:0.563117,0.658634,0.021307,0.340914,0.475859,555.000000,552.000000,3.000000,48.000000,27.000000,0.000000,1.000000,0.000000,0.000000,0.563117,0.658634,0.021307,0.340914,0.475859,555.000000,552.000000,3.000000,48.000000,27.000000,0.000000,1.000000,0.000000,0.000000;
#CREDIT:;
#NOTES:
0000
0000
0000
0000
,
0000
0000
0000
1000
1001
0001
0010
0100
,
2000
0000
0000
0000
3020
0000
0000
0000
1030
0000
0001
0000
0010
0000
0001
0010
,
0100
0000
0010
0000
0001
0000
0000
0000
1000
0000
0010
0000
0100
0000
0001
0010
,
0100
0010
0001
1000
0020
0000
0130
0010
,
1000
0000
0001
0000
0010
0000
0010
0000
0010
0000
0000
0000
0100
0000
1000
0100
,
0010
0100
1000
0001
0100
0001
0010
0100
,
2000
0000
0000
0000
3020
0000
0000
0000
1030
0000
0001
0000
0010
0000
0100
0010
,
0001
1000
0001
0010
1000
0001
0100
1000
,
0010
0000
1000
0000
0100
0000
0100
0000
0100
1000
0100
1000
0100
0000
1000
0000
,
0001
0000
0010
0000
0001
0000
0100
0000
0010
0100
0010
0100
0010
0000
1000
0000
,
0001
0000
1000
0000
0100
0000
0000
0000
0010
0001
0010
0001
0010
0000
0001
0000
,
0100
0001
0010
0100
1000
0010
1000
0100
,
0010
0000
0001
0000
0100
0000
0100
0000
0100
0001
0100
0001
0100
0000
0010
0000
,
1000
0000
0001
0000
1000
0000
0010
0000
0100
0001
0100
0001
0100
0000
0010
0000
,
1000
0000
0100
0000
0010
0000
0000
0000
0100
1000
0100
1000
0100
0000
1000
0000
,
0010
0000
1000
0000
0100
0000
0010
0000
0001
0100
0001
0100
0001
0000
0020
0000
,
0000
0000
0031
0000
0011
0000
0001
0100
,
0001
0000
0000
0000
1000
0000
0010
0000
0100
0000
0010
0000
1000
0000
0001
0100
,
0001
0010
0100
1000
0020
0000
0230
0000
,
0320
0000
1030
0200
0000
0310
0100
2000
,
3000
0002
1003
0000
0001
0000
0100
0001
,
1000
0000
0000
0000
0010
0000
0100
0000
1000
0000
0100
0000
0010
0000
1000
0010
,
1000
0001
0100
0010
0001
0010
1000
0001
,
0100
0000
0010
2000
3000
0200
0300
2000
,
3000
0001
0020
0000
0031
0000
0100
0001
,
1000
0000
0000
0000
0100
0000
0010
0000
0001
0000
0010
0000
0100
0000
1000
0100
,
1000
0010
0200
0000
0301
0000
1000
0010
,
0100
0000
0000
0000
0001
0000
0010
0000
1000
0000
0010
0000
0001
0000
0100
0001
,
0100
0000
0001
0100
0001
0000
0001
0000
1000
0000
0000
0000
0010
0000
0100
0000
,
0001
0000
0000
0000
1000
0000
0010
0000
0100
0000
0010
0000
1000
0000
0001
0010
,
0001
1000
0020
0000
0130
0000
0001
1000
,
0100
0000
0000
0000
0010
0000
0100
0000
1000
0000
0100
0000
0010
0000
0001
0010
,
0001
0000
0010
0001
0010
0000
0010
0000
0100
0000
0000
0000
0000
0000
0000
0000
,
0000
0000
0000
0000
0M00
0000
0000
0000
1000
0100
0010
0001
0000
0000
1000
0100
,
0010
0001
0000
0000
1000
0100
0010
0001
0000
0000
1000
0100
0010
0001
0000
0000
,
1000
0100
0010
0001
M000
0000
000M
0000
M000
0000
000M
0000
M000
0000
000M
0000
,
M000
000M
M000
000M
M000
000M
M000
000M
,
M000
0000
000M
0000
M000
0000
000M
0000
M001
0100
0010
1000
0000
0000
0001
0100
,
0010
1000
0000
0000
0001
0100
0010
1000
0000
0000
0001
0100
0010
1000
0000
0000
,
0001
0100
0010
1000
000M
0000
M000
0000
000M
0000
M000
0000
000M
0000
M000
0000
,
200M
0000
0000
0000
0000
0000
0000
0000
0002
0000
0003
0002
0000
0003
0002
0000
,
0003
0002
0000
0003
3002
0000
0003
0000
1000
0100
0010
0001
0000
0000
1000
0100
,
0010
0001
0000
0000
1000
0100
0010
0001
0000
0000
1000
0100
0010
0001
0000
0000
,
1000
0100
0010
0001
0000
0000
0000
0000
0001
0100
0010
1000
0000
0000
0001
0100
,
0010
1000
0000
0000
0001
0100
0010
1000
0000
0000
0001
0100
0010
1000
0000
0000
,
0001
0100
0010
1000
0000
0000
0000
0000
0001
0010
0100
1000
0000
0000
0001
0010
,
0100
1000
0000
0000
0001
0010
0100
1000
0000
0000
0001
0010
0100
1000
0000
0000
,
0001
0010
0100
1000
0000
0000
0000
0000
1000
0010
0100
0001
0000
0000
1000
0010
,
0100
0001
0000
0000
1000
0010
0100
0001
0000
0000
1000
0010
0100
0001
0000
0000
,
1000
0010
0100
0001
0000
0000
0000
0000
1000
0100
0010
0001
0000
0000
1000
0100
,
0010
0001
0000
0000
0100
0000
0002
0000
0003
0000
0200
0000
0300
0000
0020
0000
,
0030
0000
2000
0000
3000
0000
0000
0000
0001
0100
0010
1000
0000
0000
0001
0100
,
0010
1000
0020
0000
0030
0000
2000
0000
3000
0000
0002
0000
0003
0000
2000
0000
,
3000
0200
0000
0300
0010
0100
0010
0100
,
1000
0010
1000
0010
0100
0001
0010
0100
,
1000
0000
0001
0000
1000
0000
0001
0000
0010
0100
0010
0100
0010
0100
0010
0100
,
1000
0001
1000
0001
1000
0001
1000
0001
0040
0000
0000
0000
0000
0000
0000
0000
,
0030
0000
0100
0000
0110
0000
0010
0100
,
1000
0000
0000
0000
0001
0100
0010
1000
0010
0000
0010
0000
1000
0000
0100
0010
,
0001
1000
0010
0100
0002
0000
0023
0000
,
0032
0000
1003
0200
0000
0310
0100
2000
,
3000
0020
1030
0000
1000
0000
0100
0010
,
0001
0000
0000
0000
1000
0100
0010
0001
0010
0000
0001
0000
0100
0000
0001
0010
,
0100
0010
0001
1000
0010
0001
0010
1000
,
0200
0000
0310
0002
0003
2000
3000
0002
,
0003
0010
0200
0000
2300
0000
3010
1000
,
0001
0000
0000
0000
1000
0010
0100
0001
0000
0000
1000
0010
0100
0001
0000
0000
,
1000
0010
0100
0001
0000
0000
0000
0000
0020
0000
0000
0000
0130
0000
0010
0000
,
0001
0000
0000
0000
1000
0100
0010
0001
0000
0000
1000
0100
0010
0001
0000
0000
,
1000
0100
0010
0001
0000
0000
0000
0000
2000
0000
0000
0000
3001
0000
1000
0000
,
0010
0000
0000
0000
0001
0100
0010
1000
0000
0000
0001
0100
0010
1000
0000
0000
,
0001
0100
0010
1000
0000
0000
0000
0000
0002
0000
0000
0000
0103
0000
0010
0000
,
1000
0000
0000
0000
1000
0100
0010
0001
0000
0000
1000
0100
0010
0001
0000
0000
,
1000
0100
0010
0001
0000
0000
0000
0000
0000
0000
0000
0000
0000
0000
0000
0000
;

//---------------dance-single - ----------------
#NOTEDATA:;
#CHARTNAME:X-Scale 11;
#STEPSTYPE:dance-single;
#DESCRIPTION:;
#CHARTSTYLE:;
#DIFFICULTY:Hard;
#METER:8;
#RADARVALUES:0.488035,0.608496,0.035512,0.298300,0.287646,481.000000,476.000000,5.000000,42.000000,0.000000,0.000000,0.000000,0.000000,0.000000,0.488035,0.608496,0.035512,0.298300,0.287646,481.000000,476.000000,5.000000,42.000000,0.000000,0.000000,0.000000,0.000000,0.000000;
#CREDIT:;
#NOTES:
0000
0000
0000
0000
,
0000
0000
0000
1000
0010
1000
0100
0010
,
0002
0000
0000
0000
0203
0000
0000
0000
0301
0000
0000
0000
0100
0000
0001
0100
,
0001
0000
0010
0000
0100
0000
0000
0000
1000
0000
0000
0000
0010
0000
1000
0010
,
1000
0100
0010
0001
0100
0000
0001
0200
,
0310
0200
0001
0300
0010
0000
1010
0000
,
1000
0000
1001
0002
0000
0103
0001
1000
,
0200
0320
0031
0101
,
0010
1000
0100
1000
0010
0001
0010
2000
,
0000
0000
3200
0000
0000
0000
0300
0000
1000
0000
0100
0000
1000
0000
0001
0100
,
0001
0010
0100
2000
0000
3020
0000
2030
,
0000
0000
0000
0000
0001
0000
3000
0000
1000
0000
0010
0000
1000
0000
0001
0010
,
0001
0100
0010
1000
0001
1000
0100
0010
,
0001
0000
0200
0000
0000
0000
0300
0000
0010
0000
0100
0000
0010
0000
1000
0010
,
1000
0100
0010
0001
0100
0001
0010
0200
,
0000
0000
2300
0000
0000
0000
3000
0000
0010
0000
1000
0000
0010
0000
1000
0100
,
1000
0001
0010
0002
0000
1003
0100
0020
,
0000
0030
0010
0000
0102
0000
1003
0001
,
1000
0000
0000
0000
0100
0000
0010
0000
0001
0000
0001
0000
0001
0000
1000
0001
,
1000
0010
0100
0001
0010
0000
0100
0000
,
1000
0000
0001
1000
0000
0100
0010
0001
,
0000
0100
0001
0001
0002
0000
1003
0010
,
1000
0000
0000
0000
0001
0000
0010
0000
0100
0000
0100
0000
0100
0000
1000
0100
,
1000
0010
0100
1000
0100
0001
0010
0100
,
1000
0000
0001
1000
0000
0100
0000
0010
,
0000
0001
0100
0000
0200
0000
0301
0100
,
0010
0000
1000
0010
0100
0000
0001
0010
,
0100
0010
0002
0000
2003
0000
3001
1000
,
0100
0000
0000
0000
0010
0000
0001
0000
1000
0000
0000
0000
0010
0000
0100
0010
,
0100
0001
1000
1000
2000
0000
3010
1000
,
0100
0000
0010
0001
0100
0000
0010
1000
,
0001
0010
0200
0000
0320
0000
0031
1000
,
0010
0000
0000
0000
0100
0000
0010
0000
1000
0000
0000
0000
0100
0000
0010
0100
,
0010
0001
1000
0100
2000
0000
0000
0000
,
0000
0000
0000
0000
0100
0000
0000
0000
3100
0000
1000
0100
0000
0000
0010
0000
,
0100
0010
0000
0000
0001
0000
0100
0001
0000
0000
1000
0000
0100
1000
0000
0000
,
0010
0000
0100
0010
0000
0000
0000
0000
0000
0000
0000
0000
0000
0000
0000
0000
,
0000
0000
0000
0000
,
0000
0000
0000
0000
0000
0000
0000
0000
0001
0000
0100
0001
0000
0000
1000
0000
,
0100
1000
0000
0000
0010
0000
0100
0010
0000
0000
1000
0000
0001
1000
0000
0000
,
0010
0000
0100
0010
0000
0000
0000
0000
0000
0000
0000
0000
0000
0000
0000
0000
,
0000
0000
0000
0000
0000
0000
0000
0000
1000
0000
0000
0010
0000
0000
1000
0000
,
0000
0010
0000
0000
1000
0000
0000
0000
0001
0000
0100
0001
0000
0000
1000
0000
,
0010
1000
0000
0000
0001
0000
0010
0001
0000
0000
0100
0000
0010
0100
0000
0000
,
0001
0000
1000
0001
0000
0000
0000
0000
1000
0000
0100
1000
0000
0000
0010
0000
,
0100
0010
0000
0000
1000
0000
0001
1000
0000
0000
0010
0000
0100
0010
0000
0000
,
1000
0000
0010
1000
0000
0000
0000
0000
0001
0000
0010
0001
0000
0000
0100
0000
,
0010
0100
0000
0000
0001
0000
1000
0001
0000
0000
1000
0000
0100
1000
0000
0000
,
0010
0000
0100
0010
0000
0000
0000
0000
1000
0000
0001
1000
0000
0000
0001
0000
,
0100
0001
0000
0000
0010
0000
0100
0010
0000
0000
0001
0000
1000
0001
0000
0000
,
0100
0000
0010
0100
0000
0000
0000
0000
0001
0000
0000
1000
0000
0000
0100
0000
,
0000
1000
0000
0000
0010
0000
1000
0000
0000
0000
0001
0000
0000
0000
1000
0000
,
0000
0000
0001
0000
0000
0000
0000
0000
1000
0000
0000
0010
0000
0000
0100
0000
,
0000
0001
0000
0100
0000
1000
0000
0100
,
0000
0001
0000
0000
0001
0100
0001
0100
,
0010
1000
0010
1000
0100
0010
0100
0010
,
0001
0000
0100
0000
0001
0000
0100
0000
0010
1000
0010
1000
0010
1000
0010
1000
,
0010
1000
0010
1000
0010
0000
2000
0000
3000
0000
0001
0000
1000
0000
0100
0000
,
0020
0000
0031
0000
0201
0000
0301
1000
,
0001
0000
0000
0000
1000
0010
1000
0010
0000
0000
0100
0001
0100
0001
0000
0000
,
0010
0100
1000
0001
2000
0000
3020
0000
,
2030
0000
3100
0010
0001
0100
0001
0010
,
0100
1000
0010
0010
0020
0000
0130
0010
,
1000
0000
0000
0000
0001
0010
0001
0010
0000
0000
0100
1000
0100
1000
0000
0000
,
0001
1000
0001
1000
0000
0000
0010
0000
0100
0000
1000
0000
0100
0000
0010
0000
,
2000
0000
3001
0100
0000
0001
0000
0100
,
0000
0001
0020
0000
0230
0000
0310
0100
,
1000
0000
0000
0000
1000
0001
1000
0001
0000
0000
1000
0100
1000
0100
0000
0000
,
0010
0001
0200
0000
0302
0000
1003
0010
,
1000
0000
0000
0000
0001
0100
0001
0100
0000
0000
0010
1000
0010
1000
0000
0000
,
0001
0010
0001
0010
0000
0000
0000
0000
0200
0000
0000
0000
1300
0000
0010
0000
,
1000
0000
0000
0000
0001
1000
0001
1000
0000
0000
0100
0010
0100
0010
0000
0000
,
0001
0100
0020
0000
2030
0000
3100
0010
,
0100
0000
0000
0000
1000
0100
1000
0100
0000
0000
0010
0001
0010
0001
0000
0000
,
1000
0001
1000
0001
2000
0000
0000
0000
3000
0000
0000
0000
0000
0000
0000
0000
;

//---------------dance-single - ----------------
#NOTEDATA:;
#CHARTNAME:X-Scale 8;
#STEPSTYPE:dance-single;
#DESCRIPTION:;
#CHARTSTYLE:;
#DIFFICULTY:Medium;
#METER:6;
#RADARVALUES:0.357148,0.370389,0.007102,0.049717,0.106536,352.000000,351.000000,1.000000,7.000000,0.000000,0.000000,0.000000,0.000000,0.000000,0.357148,0.370389,0.007102,0.049717,0.106536,352.000000,351.000000,1.000000,7.000000,0.000000,0.000000,0.000000,0.000000,0.000000;
#CREDIT:;
#NOTES:
0000
0000
0000
0000
,
0000
0000
0000
0000
1010
0000
1000
0100
,
0010
0000
0100
0000
1000
0010
1000
0000
,
0001
0100
0001
0000
0010
0100
0010
0000
,
0001
0000
1000
0010
1000
0000
0100
0010
,
0000
0100
0000
1000
0010
0000
1000
0000
,
0001
0000
1000
0010
0000
0100
0001
0010
,
0100
0000
0010
0000
0100
1000
0100
0000
,
1000
0010
0100
0001
1000
0100
0010
0001
,
0000
0100
0000
0001
0010
0000
0100
0000
,
0010
0100
1000
0001
0000
1000
0000
0001
,
0000
0010
0100
0000
0010
0100
0010
0000
,
0001
1000
0001
0010
0000
0100
1000
0010
,
1000
0100
0000
0010
0001
0000
0100
0000
,
0001
0000
0010
0100
0000
1000
0010
0100
,
0000
0010
0000
1000
0001
0000
0100
0000
,
0010
1000
0100
0010
0000
0100
0000
2000
,
0000
0010
3010
1000
,
0001
0000
1000
0100
0010
0000
0100
0000
,
1000
0000
0001
0100
0001
0000
0010
0000
,
0100
0000
0010
0001
0000
1000
0100
0010
,
0000
0100
0000
0010
0100
0000
1000
0000
,
0010
0000
1000
0100
0010
0000
0001
0000
,
0100
0000
0001
0010
0100
1000
0001
0100
,
0001
0000
1000
0010
0000
0100
0000
0010
,
0000
0100
0001
0000
1000
0000
0001
0000
,
0010
0000
0001
1000
0001
0000
1000
0000
,
0001
0000
0100
0010
0100
0000
0001
0000
,
1000
0000
0010
0100
0010
0000
1000
0000
,
0100
0000
0010
0001
0010
0000
0001
0000
,
0100
0000
0001
1000
0001
0000
1000
0000
,
0100
0000
1000
0010
1000
0000
0001
0000
,
0100
0000
0010
0000
0100
0001
0100
0000
,
0010
0000
1000
0100
2000
0000
0000
0000
,
0000
0000
0000
0000
0001
0000
0000
0000
3001
0000
0000
1000
0000
0000
0001
0000
,
0000
1000
0000
0000
0001
0000
0000
0100
0000
0000
0010
0000
0000
0100
0000
0000
,
0010
0000
0000
1000
0000
0000
0000
0000
0000
0000
0000
0000
0000
0000
0000
0000
,
0000
0000
0000
0000
,
0000
0000
0000
0000
0000
0000
0000
0000
0001
0000
0000
0100
0000
0000
0010
0000
,
0000
1000
0000
0000
0001
0000
0000
1000
0000
0000
0010
0000
0000
0100
0000
0000
,
0001
0000
0000
0100
0000
0000
0000
0000
0000
0000
0000
0000
2000
0000
0000
0000
,
0000
0000
0000
0000
,
0000
0000
0000
0000
0001
0000
0000
0000
3001
0000
0000
1000
0000
0000
0001
0000
,
0000
1000
0000
0000
0100
0000
0000
0010
0000
0000
0100
0000
0000
0010
0000
0000
,
0001
0000
0000
1000
0000
0000
0000
0000
1000
0000
0000
0100
0000
0000
0010
0000
,
0000
0100
0000
0000
1000
0000
0000
0001
0000
0000
1000
0000
0000
0010
0000
0000
,
0100
0000
0000
0001
0000
0000
0000
0000
0001
0000
0000
0010
0000
0000
0100
0000
,
0000
1000
0000
0000
0010
0000
0000
1000
0000
0000
0100
0000
0000
0010
0000
0000
,
0001
0000
0000
0100
0000
0000
0000
0000
0100
0000
0000
0010
0000
0000
0001
0000
,
0000
0010
0000
0000
0100
0000
0000
0001
0000
0000
1000
0000
0000
0001
0000
0000
,
0100
0000
0000
0010
0000
0000
0000
0000
1000
0000
0000
0000
0000
0000
0100
0000
,
0000
0000
1000
0001
0000
1000
0000
0001
,
0000
1000
0000
0000
0100
0000
0000
0010
,
0000
0010
0000
0001
0000
0100
0000
0001
,
0000
0010
0000
0000
0100
0000
1000
0000
,
0100
0000
0010
0002
0000
1003
0001
1000
,
0100
0010
0001
0100
0001
0000
0010
0000
,
0100
0000
1000
0010
1000
0100
0010
0001
,
0200
0000
0010
0000
0310
0000
1000
0001
,
1000
0010
0100
0001
,
0010
1000
0010
0001
0100
0000
0001
0000
,
1000
0000
0100
0010
0000
0001
0010
0100
,
0000
1000
0100
0010
0001
0000
1000
0010
,
1000
0000
0001
0000
0100
0000
0010
1000
,
0001
1000
0010
0000
0100
0010
0001
0010
,
0100
0000
0001
1000
0000
0010
0000
1000
,
0000
0010
1000
0100
0010
0000
0001
0100
,
0001
0010
0100
1000
,
0010
1000
0010
0000
0100
0000
0001
0010
,
0001
1000
0010
1000
,
0100
0000
0010
0100
0010
0000
0001
0100
,
0001
0010
0100
1000
,
0010
1000
0010
0000
0100
0000
0001
0100
,
0001
0010
0200
0000
,
0000
2000
3300
0000
;

//---------------dance-single - ----------------
#NOTEDATA:;
#CHARTNAME:X-Scale 6;
#STEPSTYPE:dance-single;
#DESCRIPTION:;
#CHARTSTYLE:;
#DIFFICULTY:Easy;
#METER:4;
#RADARVALUES:0.271919,0.369146,0.078126,0.000000,0.000000,268.000000,257.000000,11.000000,0.000000,0.000000,0.000000,0.000000,0.000000,0.000000,0.271919,0.369146,0.078126,0.000000,0.000000,268.000000,257.000000,11.000000,0.000000,0.000000,0.000000,0.000000,0.000000,0.000000;
#CREDIT:;
#NOTES:
// measure 0
0000
0000
0000
0000
,  // measure 1
0000
0000
0011
0100
,  // measure 2
0001
0010
0100
1000
,  // measure 3
0010
1000
0001
0100
,  // measure 4
0001
0010
0100
1000
,  // measure 5
0010
1000
0100
1100
,  // measure 6
0010
0110
0100
0101
,  // measure 7
0001
1001
1000
1010
,  // measure 8
0100
0110
0001
0101
,  // measure 9
0100
0000
0110
0000
1000
0010
1000
0000
,  // measure 10
0100
0000
0010
0000
0001
0100
0001
0000
,  // measure 11
0010
0000
0100
0000
1000
0001
1000
0000
,  // measure 12
0010
0000
0100
0000
0001
1000
0001
0000
,  // measure 13
0100
0000
0010
0000
1000
0001
1000
0000
,  // measure 14
0001
0000
0010
0000
0001
1000
0001
0000
,  // measure 15
1000
0000
0100
0000
1000
0010
1000
0000
,  // measure 16
0001
0000
0100
0000
0001
0100
0001
0000
,  // measure 17
1000
0000
1001
0010
,  // measure 18
1000
0001
1000
0010
,  // measure 19
0100
0010
1000
0100
,  // measure 20
0010
0001
1000
0001
,  // measure 21
0010
0100
0010
0001
,  // measure 22
1000
0010
0100
0001
,  // measure 23
1000
0100
0010
0001
,  // measure 24
1000
0010
0100
0010
,  // measure 25
1000
0001
0010
0100
,  // measure 26
0010
0001
1000
0010
,  // measure 27
1000
0100
0010
0100
,  // measure 28
1000
0001
0100
0001
,  // measure 29
1000
0010
0100
0001
,  // measure 30
0010
0100
1000
0001
,  // measure 31
1000
0010
0100
0001
,  // measure 32
0100
0010
1000
0001
,  // measure 33
1000
0100
0010
0000
,  // measure 34
0000
0000
0000
0000
1000
0000
0000
0001
,  // measure 35
0000
0000
1000
0000
0000
0100
0000
0000
,  // measure 36
0010
0000
0000
0000
,  // measure 37
0000
0000
0000
0000
,  // measure 38
0000
0000
0000
0000
0001
0000
0000
0100
,  // measure 39
0000
0000
0001
0000
0000
0010
0000
0000
,  // measure 40
0100
0000
0000
0000
,  // measure 41
0000
0000
0000
0000
,  // measure 42
0000
0000
0000
0000
0001
0000
0000
1000
,  // measure 43
0000
0000
0100
0000
0000
0010
0000
0000
,  // measure 44
0001
0000
0000
0000
1000
0000
0000
0001
,  // measure 45
0000
0000
0010
0000
0000
0100
0000
0000
,  // measure 46
1000
0000
0000
0000
0010
0000
0000
1000
,  // measure 47
0000
0000
0001
0000
0000
1000
0000
0000
,  // measure 48
0100
0000
0000
0000
1000
0000
0000
0001
,  // measure 49
0000
0000
0100
0000
0000
0001
0000
0000
,  // measure 50
1000
0000
0000
0000
0010
0000
0000
1000
,  // measure 51
0000
0000
0001
0000
0000
1000
0000
0000
,  // measure 52
0010
0000
0000
0000
0100
0000
0000
0010
,  // measure 53
0000
0000
1000
0000
0000
0001
0000
0000
,  // measure 54
1000
0000
0000
0000
0001
0000
0000
0100
,  // measure 55
0000
0000
0001
1000
0000
0001
0010
0100
,  // measure 56
1000
0100
0010
0001
0010
0000
0000
0001
,  // measure 57
0000
0000
1000
0001
0000
0010
0100
1000
,  // measure 58
0001
0000
1001
0010
,  // measure 59
1000
0100
0010
0100
,  // measure 60
1000
0001
0100
0001
,  // measure 61
0010
0100
0010
0001
,  // measure 62
1000
0010
1000
0100
,  // measure 63
0010
0100
1000
0001
,  // measure 64
0100
0001
1000
0010
,  // measure 65
0100
0001
1000
0100
,  // measure 66
0010
0001
0100
0001
,  // measure 67
0010
0100
0010
0001
,  // measure 68
1000
0010
1000
0100
,  // measure 69
0010
0001
0100
0001
,  // measure 70
0010
0100
1000
0001
,  // measure 71
1000
0100
0010
0100
,  // measure 72
1000
0001
0100
0001
,  // measure 73
0010
0100
1000
0000
,  // measure 74
0000
0001
0000
0000
;

//---------------dance-single - ----------------
#NOTEDATA:;
#CHARTNAME:X-Scale 1;
#STEPSTYPE:dance-single;
#DESCRIPTION:;
#CHARTSTYLE:;
#DIFFICULTY:Beginner;
#METER:1;
#RADARVALUES:0.129872,0.130506,0.000000,0.000000,0.000000,128.000000,128.000000,0.000000,0.000000,0.000000,0.000000,0.000000,0.000000,0.000000,0.129872,0.130506,0.000000,0.000000,0.000000,128.000000,128.000000,0.000000,0.000000,0.000000,0.000000,0.000000,0.000000,0.000000;
#CREDIT:;
#NOTES:
// measure 0
0000
0000
0000
0000
,  // measure 1
0000
0000
0100
0000
,  // measure 2
0010
0000
1000
0000
,  // measure 3
0001
0000
1000
0000
,  // measure 4
0100
0000
0010
0000
,  // measure 5
0100
0000
1000
0000
,  // measure 6
0001
0000
0100
0000
,  // measure 7
0001
0000
0010
0000
,  // measure 8
0100
0000
0010
0000
,  // measure 9
0001
0000
1000
0000
,  // measure 10
0010
0000
1000
0000
,  // measure 11
0100
0000
0010
0000
,  // measure 12
0001
0000
0100
0000
,  // measure 13
0001
0000
1000
0000
,  // measure 14
0001
0000
0100
0000
,  // measure 15
0010
0000
0100
0000
,  // measure 16
0001
0000
0010
0000
,  // measure 17
0100
0000
1000
0000
,  // measure 18
0010
0000
1000
0000
,  // measure 19
0100
0000
0010
0000
,  // measure 20
0001
0000
0100
0000
,  // measure 21
0001
0000
0010
0000
,  // measure 22
0100
0000
1000
0000
,  // measure 23
0001
0000
1000
0000
,  // measure 24
0100
0000
0010
0000
,  // measure 25
0100
0000
1000
0000
,  // measure 26
0001
0000
0100
0000
,  // measure 27
0001
0000
1000
0000
,  // measure 28
0100
0000
0010
0000
,  // measure 29
0001
0000
0100
0000
,  // measure 30
0001
0000
0010
0000
,  // measure 31
0100
0000
1000
0000
,  // measure 32
0001
0000
1000
0000
,  // measure 33
0100
0000
0010
0000
,  // measure 34
0000
0000
0001
0000
,  // measure 35
0000
1000
0000
0000
,  // measure 36
0001
0000
0000
0000
,  // measure 37
0000
0000
0000
0000
,  // measure 38
0000
0000
0100
0000
,  // measure 39
0000
0010
0000
0000
,  // measure 40
0100
0000
0000
0000
,  // measure 41
0000
0000
0000
0000
,  // measure 42
0000
0000
0001
0000
,  // measure 43
0000
1000
0000
0000
,  // measure 44
0001
0000
1000
0000
,  // measure 45
0000
0010
0000
0000
,  // measure 46
1000
0000
0100
0000
,  // measure 47
0000
0010
0000
0000
,  // measure 48
0100
0000
1000
0000
,  // measure 49
0000
0001
0000
0000
,  // measure 50
1000
0000
0010
0000
,  // measure 51
0000
0100
0000
0000
,  // measure 52
0010
0000
1000
0000
,  // measure 53
0000
0010
0000
0000
,  // measure 54
1000
0000
0001
0000
,  // measure 55
0100
0000
0001
0000
,  // measure 56
0010
0000
0100
0000
,  // measure 57
1000
0000
0001
0000
,  // measure 58
1000
0000
0010
0000
,  // measure 59
1000
0000
0001
0000
,  // measure 60
1000
0000
0100
0000
,  // measure 61
0010
0000
0001
0000
,  // measure 62
0100
0000
0001
0000
,  // measure 63
0010
0000
0100
0000
,  // measure 64
1000
0000
0010
0000
,  // measure 65
1000
0000
0001
0000
,  // measure 66
1000
0000
0010
0000
,  // measure 67
0100
0000
0001
0000
,  // measure 68
0010
0000
0100
0000
,  // measure 69
1000
0000
0001
0000
,  // measure 70
1000
0000
0010
0000
,  // measure 71
1000
0000
0001
0000
,  // measure 72
0010
0000
0100
0000
,  // measure 73
1000
0000
0001
0000
;
