#VERSION:0.83;
#TITLE:Who the Hell is Edgar?;
#SUBTITLE:;
#ARTIST:Teya & Salena;
#TITLETRANSLIT:;
#SUBTITLETRANSLIT:;
#ARTISTTRANSLIT:;
#GENRE:Pop;
#ORIGIN:;
#CREDIT:;
#BANNER:WtHiE-bn.png;
#BACKGROUND:WtHiE-bg.png;
#PREVIEWVID:;
#JACKET:WtHiE-jacket.png;
#CDIMAGE:;
#DISCIMAGE:;
#LYRICSPATH:;
#CDTITLE:cdtitle.png;
#MUSIC:WtHiE.ogg;
#OFFSET:-0.036000;
#SAMPLESTART:95.789001;
#SAMPLELENGTH:13.151000;
#SELECTABLE:YES;
#BPMS:0.000=146.000;
#STOPS:131.000=0.411,
224.000=2.877;
#DELAYS:;
#WARPS:;
#TIMESIGNATURES:0.000=4=4;
#TICKCOUNTS:0.000=4;
#COMBOS:0.000=1;
#SPEEDS:0.000=1.000=0.000=0;
#SCROLLS:0.000=1.000;
#FAKES:;
#LABELS:0.000=Song Start;
#BGCHANGES:0.000=WtHiE.avi=1.000=0=0=0=StretchNoLoop====,
99999=-nosongbg-=1.000=0=0=0 // don't automatically add -songbackground-
;
#KEYSOUNDS:;
#ATTACKS:
;

//---------------dance-single - ----------------
#NOTEDATA:;
#CHARTNAME:X-Scale 6;
#STEPSTYPE:dance-single;
#DESCRIPTION:;
#CHARTSTYLE:;
#DIFFICULTY:Easy;
#METER:4;
#RADARVALUES:0.266867,0.347410,0.050717,0.135245,0.000000,221.000000,215.000000,6.000000,16.000000,0.000000,0.000000,0.000000,0.000000,0.000000,0.266867,0.347410,0.050717,0.135245,0.000000,221.000000,215.000000,6.000000,16.000000,0.000000,0.000000,0.000000,0.000000,0.000000;
#CREDIT:iamthek3n;
#NOTES:
// measure 0
0000
0000
0000
0000
,  // measure 1
0000
0000
0000
0000
,  // measure 2
0000
0000
0000
0000
,  // measure 3
0000
0000
0000
0000
,  // measure 4
0000
0000
0000
0000
,  // measure 5
0000
1000
0001
0100
,  // measure 6
0001
0000
1000
0000
0100
0010
0001
0000
,  // measure 7
1000
0001
0100
0010
,  // measure 8
0100
0000
0001
0000
0010
0100
1000
0000
,  // measure 9
0001
0100
0010
0100
,  // measure 10
0001
0000
1000
0000
0100
0010
0002
0000
,  // measure 11
1000
0103
0001
1000
,  // measure 12
0001
0010
0100
0010
,  // measure 13
0001
0000
1000
0000
0001
0100
0001
0000
,  // measure 14
1000
0000
0100
0000
0010
0100
0010
0000
,  // measure 15
0001
0000
1000
0000
0010
0100
0010
0000
,  // measure 16
1000
0000
0001
0000
0100
0001
0100
0000
,  // measure 17
0010
0000
1000
0000
0100
0010
0100
0000
,  // measure 18
1000
0000
0001
0000
0100
0010
0100
0000
,  // measure 19
0001
0000
1000
0000
0010
1000
0010
0000
,  // measure 20
1000
0001
0000
0000
,  // measure 21
0000
1001
0000
0000
,  // measure 22
0000
0100
0000
0000
,  // measure 23
0000
1000
0000
0001
,  // measure 24
0000
0100
0000
0010
,  // measure 25
0000
1000
1000
1000
,  // measure 26
0000
0001
0001
0001
,  // measure 27
0000
0100
0100
0100
,  // measure 28
0000
0010
0010
0010
,  // measure 29
0000
1000
1010
1000
,  // measure 30
0100
0010
0001
0000
1000
0000
0001
0000
,  // measure 31
0100
0001
1000
0000
0001
0000
0100
0000
,  // measure 32
0010
0100
0001
0000
1000
0100
0000
0000
,  // measure 33
0021
0100
0000
0130
,  // measure 34
0010
0000
0001
0000
1000
0001
0100
0001
,  // measure 35
1000
0000
0010
0000
0100
0000
0001
0010
,  // measure 36
0200
0000
2300
0000
,  // measure 37
3001
0000
0100
0000
0001
0000
1000
0100
,  // measure 38
0010
0000
0100
0000
1000
0001
0100
0001
,  // measure 39
1000
0001
0010
0100
,  // measure 40
2000
0002
3003
0000
,  // measure 41
0110
0000
0000
0000
,  // measure 42
1000
0000
0000
0000
,  // measure 43
0001
0000
0000
0000
,  // measure 44
0010
0000
0000
0000
,  // measure 45
0100
0000
1000
0000
,  // measure 46
0001
0000
1000
0000
,  // measure 47
0010
0100
0001
1000
,  // measure 48
0100
0010
0001
1000
,  // measure 49
0001
0000
0100
0000
,  // measure 50
0001
0000
1000
0000
,  // measure 51
0001
0000
0010
0000
,  // measure 52
0100
0000
1000
0000
,  // measure 53
0001
0000
1000
0000
,  // measure 54
0100
0000
1000
0000
,  // measure 55
0001
0100
0001
0100
,  // measure 56
0000
1000
1100
0100
,  // measure 57
1000
0001
0200
0000
0010
0000
0302
0000
,  // measure 58
0103
0001
1000
0000
0100
0000
0010
0000
,  // measure 59
0100
1000
0020
0000
0000
0000
0230
0000
,  // measure 60
0000
0301
1000
0100
,  // measure 61
0010
0100
2000
0000
0000
0000
3002
0000
,  // measure 62
0103
0001
1000
0000
0001
0000
0010
0000
,  // measure 63
0100
0010
0002
0000
2000
0000
3003
0000
,  // measure 64
0000
1001
0000
0100
,  // measure 65
1000
0100
0000
0010
,  // measure 66
0001
0010
0000
0001
,  // measure 67
0000
2000
0000
0020
,  // measure 68
0000
0000
3030
0000
;

//---------------dance-single - ----------------
#NOTEDATA:;
#CHARTNAME:X-Scale 11;
#STEPSTYPE:dance-single;
#DESCRIPTION:;
#CHARTSTYLE:;
#DIFFICULTY:Medium;
#METER:8;
#RADARVALUES:0.405734,0.463213,0.118339,0.532526,0.097207,336.000000,322.000000,14.000000,63.000000,0.000000,0.000000,0.000000,0.000000,0.000000,0.405734,0.463213,0.118339,0.532526,0.097207,336.000000,322.000000,14.000000,63.000000,0.000000,0.000000,0.000000,0.000000,0.000000;
#CREDIT:iamthek3n;
#NOTES:
// measure 0
0000
0000
0000
0000
,  // measure 1
0000
0000
0000
0000
,  // measure 2
0000
0000
0000
0000
,  // measure 3
0000
0000
0000
0000
,  // measure 4
0000
0000
0000
0000
,  // measure 5
0000
0000
0002
0000
0103
0001
1000
0100
,  // measure 6
0000
0100
0010
0000
0001
0010
0200
0000
,  // measure 7
1300
0000
0001
0000
0100
0001
1000
0100
,  // measure 8
0000
0100
0010
0000
0001
1000
0020
0000
,  // measure 9
0130
0010
0001
0000
0001
0010
1000
0001
,  // measure 10
0000
0001
0100
0000
0010
0100
0002
0000
,  // measure 11
0100
0000
0000
0000
1003
0000
0000
0001
0000
0000
0100
0000
0000
0000
0010
0000
,  // measure 12
0200
0301
1000
0001
,  // measure 13
1000
0100
0020
0000
1030
0010
0001
1000
,  // measure 14
0001
0100
0010
0001
0010
1000
0002
0000
,  // measure 15
0103
0001
1000
0001
0100
0010
1000
0100
,  // measure 16
0001
0100
0010
0001
1000
0001
0200
0000
,  // measure 17
1300
0100
0010
0100
0001
0010
0200
0000
,  // measure 18
0301
0100
1000
0001
1000
0100
0020
0000
,  // measure 19
0100
0000
0000
0000
0031
0000
0000
1000
0000
0000
1000
0000
0010
0000
0100
0000
,  // measure 20
0010
0000
0000
0000
1000
0000
0000
0001
0000
0000
1000
0000
0000
0001
0000
0000
,  // measure 21
1000
1001
0000
0200
,  // measure 22
0302
2003
3000
0002
,  // measure 23
0023
2030
3002
0203
,  // measure 24
0320
0032
0000
2000
,  // measure 25
0000
0000
3003
0000
1000
0000
0000
0000
1000
0000
0000
0000
1000
0000
0000
0100
,  // measure 26
0000
0000
0010
0000
0001
0000
0000
0000
0001
0000
0000
0000
0001
0000
0000
0100
,  // measure 27
0000
0000
0010
0000
1000
0000
0000
0000
1000
0000
0000
0000
1000
0000
0000
0001
,  // measure 28
0000
0100
0010
1000
0010
1000
0100
0010
,  // measure 29
0100
0000
0010
0000
0001
0000
0000
0000
0011
0000
0000
0000
0010
0000
0000
0100
,  // measure 30
1000
0000
0001
0000
1000
0000
0000
0000
1010
0000
0000
0000
0010
0000
0000
0100
,  // measure 31
0001
0000
1000
0000
0001
0000
0000
0000
1001
0000
0000
0000
0100
0000
0000
1000
,  // measure 32
0001
0100
0001
0010
0100
1000
0000
0000
,  // measure 33
1200
0000
0010
0000
1000
0000
0310
0100
,  // measure 34
2000
0000
0010
0000
3001
1000
0001
1000
,  // measure 35
0001
0000
0000
0000
0100
0000
0000
0000
0001
0000
0000
0010
0000
0000
0100
0000
,  // measure 36
2000
0100
3002
0100
,  // measure 37
1003
0000
0000
0000
1001
0000
0000
0000
0100
0000
0000
0001
0100
0000
0001
0000
,  // measure 38
2000
0000
0100
0000
3010
0100
0010
0100
,  // measure 39
0010
0000
0000
0000
1001
0000
0000
0000
1000
0000
0000
0001
0000
0000
0100
0000
,  // measure 40
0020
2030
3001
0010
,  // measure 41
0011
0001
1000
1000
,  // measure 42
0001
0000
0000
0000
,  // measure 43
1000
0100
0010
0000
0100
0000
1000
0000
,  // measure 44
0001
0000
0100
0001
1000
0000
0000
0000
,  // measure 45
0001
0000
0010
0000
0100
0010
0001
1000
,  // measure 46
0002
0100
1003
0001
,  // measure 47
1000
0100
0001
1000
,  // measure 48
0010
0100
1000
0001
,  // measure 49
2000
0200
3300
0000
2200
0000
3300
0000
,  // measure 50
0002
0200
0303
0000
0002
0200
0303
0000
,  // measure 51
0002
0200
0303
0000
0202
0000
0303
0000
,  // measure 52
2000
0002
3003
0000
2000
0002
3003
0000
,  // measure 53
1001
0000
0000
0000
1000
0000
0000
0000
0001
0000
0000
0010
0000
0000
0100
0000
,  // measure 54
1000
0000
0000
0000
1000
0000
0000
0000
0010
0000
0000
0100
0000
0000
0001
0000
,  // measure 55
1000
0010
0001
0010
0100
0010
1000
0001
,  // measure 56
0000
1010
0020
0001
,  // measure 57
0130
0000
0010
0100
0002
0000
0000
0000
0100
0000
0000
0000
2003
0000
0000
0000
,  // measure 58
3100
0000
0010
0000
0001
0000
0000
0000
0101
0000
0100
0000
0001
0000
0000
1000
,  // measure 59
0000
0010
0200
0000
1000
0000
0302
0000
,  // measure 60
0100
0000
0000
0000
1003
0000
0000
1000
0020
0000
0000
0000
0001
0000
0000
0000
,  // measure 61
0130
0000
0010
0100
0002
0000
0000
0000
0100
0000
0000
0000
0023
0000
0000
0000
,  // measure 62
0130
0000
0010
0000
0001
0000
0000
0000
1001
0000
0100
0000
1000
0000
0000
0001
,  // measure 63
0000
0100
0002
0000
0023
0000
0130
1000
,  // measure 64
0001
0000
1000
0000
0200
0000
0000
0000
0300
0000
0010
0100
2000
0000
0000
0000
,  // measure 65
3002
0000
0103
0001
2000
0000
0000
0000
3000
0000
0010
1000
0002
0000
0000
0000
,  // measure 66
0203
0300
0001
0000
0100
0000
1000
0000
,  // measure 67
0100
0002
0000
2000
,  // measure 68
0000
0000
3003
0000
;

//---------------dance-single - ----------------
#NOTEDATA:;
#CHARTNAME:X-Scale 15;
#STEPSTYPE:dance-single;
#DESCRIPTION:;
#CHARTSTYLE:;
#DIFFICULTY:Hard;
#METER:10;
#RADARVALUES:0.550640,0.752722,0.084528,0.329659,0.380376,456.000000,446.000000,10.000000,39.000000,0.000000,0.000000,0.000000,0.000000,0.000000,0.550640,0.752722,0.084528,0.329659,0.380376,456.000000,446.000000,10.000000,39.000000,0.000000,0.000000,0.000000,0.000000,0.000000;
#CREDIT:iamthek3n;
#NOTES:
// measure 0
0000
0000
0000
0000
,  // measure 1
0000
0000
0000
0000
,  // measure 2
0000
0000
0000
0000
,  // measure 3
0000
0000
0000
0000
,  // measure 4
0000
0000
0000
0000
,  // measure 5
0000
0000
0000
0000
1100
0000
0000
1000
0001
0000
0100
0000
0000
0000
0100
0000
,  // measure 6
0000
0000
0100
0000
0001
0000
0000
0010
0100
0000
1000
0000
0000
0000
1000
0000
,  // measure 7
0000
0000
1000
0001
0100
0000
0000
1000
0100
0000
0001
0000
0000
0000
0001
0000
,  // measure 8
0000
0000
0001
0000
0010
0000
0000
0001
1000
0000
0010
0000
0000
0000
0010
0000
,  // measure 9
0000
0000
0010
1000
0100
0000
0000
0001
0100
0000
1000
0000
0000
0000
1000
0000
,  // measure 10
0000
0000
1000
0000
0100
0000
0000
0010
0001
0000
0100
0000
0000
0000
0100
0000
,  // measure 11
0000
0000
0100
0010
1000
0000
0000
0001
0100
0000
0001
0000
0010
0000
0100
0000
,  // measure 12
2000
0000
0000
0000
3000
0000
0001
0100
0000
0010
1000
0000
0100
0010
0001
1000
,  // measure 13
0001
0000
1000
0000
0001
0000
0000
0100
0001
0000
1000
0000
0010
0000
0001
0000
,  // measure 14
0010
0000
1000
0000
0001
0000
0000
0100
0001
0000
1000
0000
0010
0000
1000
0000
,  // measure 15
0100
0000
0010
0100
0010
0000
0000
0001
0100
0000
0001
0000
1000
0000
0100
0000
,  // measure 16
0001
0000
0100
0000
0010
0000
0000
0010
0001
0000
1000
0000
0010
0000
0001
0000
,  // measure 17
0010
0000
0100
0010
1000
0000
0000
1000
0001
0000
0100
0000
0001
0000
0010
0000
,  // measure 18
0100
0000
0010
0000
0001
0000
0000
0001
1000
0000
0010
0000
1000
0000
0100
0000
,  // measure 19
0010
0000
1000
0010
0001
0000
0000
0010
0100
0000
1000
0000
0001
0000
0100
0000
,  // measure 20
0001
0000
1000
0000
0020
0000
0030
0020
0000
0030
0020
0000
0030
0020
0000
0030
,  // measure 21
0020
0000
0030
0000
2002
0000
0000
0000
3003
0000
0001
0010
0200
0000
0000
0000
,  // measure 22
0320
0000
1030
0010
0002
0000
0000
0000
0000
0000
0103
0001
2000
0000
0000
0000
,  // measure 23
3020
0032
0203
2300
,  // measure 24
3002
0023
0000
0200
,  // measure 25
0000
0000
0330
0000
1000
0000
0000
0000
1000
0000
0000
0000
1000
0000
0000
1000
,  // measure 26
0000
0000
1000
0000
0001
0000
0000
0000
0001
0000
0000
0000
0001
0000
0000
0001
,  // measure 27
0000
0000
0001
0000
0100
0000
0000
0000
0100
0000
0000
0000
0100
0000
0000
0100
,  // measure 28
0000
0100
0010
1000
0001
0100
0010
1000
,  // measure 29
0001
0000
0100
0000
0101
0000
0000
0100
0001
0000
0000
0001
1000
0000
0100
0010
,  // measure 30
0001
0000
0001
0000
0001
0000
0000
0010
0100
0000
0000
1000
0010
1000
0001
1000
,  // measure 31
0010
0000
0010
0000
0010
0000
0000
0100
0001
0000
0000
0010
0100
0000
1000
0100
,  // measure 32
0010
0000
0010
0000
0100
0000
1000
0000
0001
0000
0010
0000
0000
0000
1000
0001
,  // measure 33
1000
0000
0100
0000
0010
0000
0000
0000
0100
0000
0000
0100
0010
0000
0100
0000
,  // measure 34
1000
0001
0010
1000
0001
0100
0010
0001
,  // measure 35
1000
0000
0000
1000
0010
0000
0100
0000
0001
0000
0000
0100
0010
0000
1000
0000
,  // measure 36
0001
0000
1000
0000
0010
1000
0001
1000
0010
0000
1000
0100
0010
0000
0100
0000
,  // measure 37
1000
0000
0001
0000
0100
0000
0000
0000
0001
0000
0000
0001
0100
0000
0001
0000
,  // measure 38
1000
0010
0001
1000
0100
0001
1000
0001
,  // measure 39
0100
0000
0000
0100
0001
0000
1000
0000
0001
0000
0000
0001
0010
0000
0100
0000
,  // measure 40
1000
0100
0010
0100
1000
0100
0010
0100
1000
0000
0000
0001
0010
0000
0000
0000
,  // measure 41
0011
0000
0001
0000
2000
3002
2003
3002
,  // measure 42
0203
0000
0000
0300
0000
0000
0000
0000
,  // measure 43
0001
0010
0200
0000
0302
0000
0103
0010
,  // measure 44
0001
1000
0001
0100
0020
0000
0000
0030
,  // measure 45
1001
0000
0000
0000
0001
0000
0000
0000
0100
0000
0000
0100
0000
0000
0100
0000
,  // measure 46
0001
0000
0000
0000
1000
0000
0000
0000
0010
0000
0000
0010
0000
0000
0010
0000
,  // measure 47
1000
0000
0000
0000
0001
0000
0000
0000
0100
0000
0000
0100
0000
0000
0100
0000
,  // measure 48
0010
0000
0000
0000
0100
0000
0001
0100
0001
0000
0000
1000
0000
1000
0010
0000
,  // measure 49
1001
0000
0100
0000
0001
0000
0000
0000
1001
0000
0000
0100
0000
0000
0100
0000
,  // measure 50
1000
0000
0001
0010
0100
0001
0100
0010
,  // measure 51
0001
0000
0000
0000
1000
0000
0000
0000
0010
0000
0000
0010
0000
0000
0010
0000
,  // measure 52
1000
0000
0001
0000
0100
0001
0100
0000
,  // measure 53
1001
0000
0000
0000
1000
0000
0001
0000
0100
0000
0000
0100
0001
0000
1000
0000
,  // measure 54
0001
0000
0000
0000
0010
0000
0100
0000
1000
0000
0000
1000
0001
0000
0100
0001
,  // measure 55
1000
0000
0100
0000
0001
0000
1000
0000
0010
0000
0100
1000
0001
0100
0001
1000
,  // measure 56
0001
0000
0100
0010
0100
0000
0000
0000
1001
0000
0100
0000
0001
0000
0010
0100
,  // measure 57
0010
0001
1000
0010
0001
1000
0100
0001
,  // measure 58
1000
0000
0001
0000
0100
0000
0000
0000
0010
0000
1000
0010
0100
0000
0000
0001
,  // measure 59
0000
1000
0100
0010
1000
0010
0100
1000
,  // measure 60
0001
0000
1000
0000
0010
0000
0000
0010
0100
0000
0001
0000
1000
0000
0100
1000
,  // measure 61
0100
0010
0001
0100
1000
0100
0010
0100
,  // measure 62
0001
0000
1000
0000
0100
0000
0000
0000
1100
0000
0100
1000
0001
0000
0000
0100
,  // measure 63
0010
0000
0100
0000
0001
0100
0001
0100
0010
1000
0010
1000
0001
0010
0001
0010
,  // measure 64
0100
1000
0100
1000
0200
0000
0000
0000
0300
0000
0010
0100
2000
0000
0000
0000
,  // measure 65
3002
0000
0013
0001
0200
0000
0000
0000
0300
0000
0010
0100
0002
0000
0000
0000
,  // measure 66
2003
3000
0002
0000
0023
0000
2030
0000
,  // measure 67
3200
0302
0000
2000
,  // measure 68
0000
0000
3003
0000
;

//---------------dance-single - ----------------
#NOTEDATA:;
#CHARTNAME:X-Scale 2;
#STEPSTYPE:dance-single;
#DESCRIPTION:;
#CHARTSTYLE:;
#DIFFICULTY:Beginner;
#METER:1;
#RADARVALUES:0.099019,0.142113,0.000000,0.000000,0.000000,82.000000,82.000000,0.000000,0.000000,0.000000,0.000000,0.000000,0.000000,0.000000,0.099019,0.142113,0.000000,0.000000,0.000000,82.000000,82.000000,0.000000,0.000000,0.000000,0.000000,0.000000,0.000000,0.000000;
#CREDIT:iamthek3n;
#NOTES:
// measure 0
0000
0000
0000
0000
,  // measure 1
0000
0000
0000
0000
,  // measure 2
0000
0000
0000
0000
,  // measure 3
0000
0000
0000
0000
,  // measure 4
0000
0000
0000
0000
,  // measure 5
0000
0001
0000
0000
,  // measure 6
0000
1000
0000
0000
,  // measure 7
0000
0001
0000
0000
,  // measure 8
0000
1000
0000
0000
,  // measure 9
0000
0010
0000
0000
,  // measure 10
0000
0100
0000
0000
,  // measure 11
0000
0010
0000
0000
,  // measure 12
0000
0100
0000
0000
,  // measure 13
0000
0001
0000
0000
,  // measure 14
0000
0010
0000
0000
,  // measure 15
0000
0001
0000
0000
,  // measure 16
0000
0010
0000
0000
,  // measure 17
0000
0001
0000
0000
,  // measure 18
0000
0100
0000
0000
,  // measure 19
0000
0001
0000
0000
,  // measure 20
0000
0100
0000
0000
,  // measure 21
0000
0001
0000
0000
,  // measure 22
0000
1000
0000
0000
,  // measure 23
0000
0100
0000
0000
,  // measure 24
0000
0010
0000
0000
,  // measure 25
0000
0001
0000
0000
,  // measure 26
0000
1000
0000
0000
,  // measure 27
0000
0001
0000
0000
,  // measure 28
0000
1000
0000
0000
,  // measure 29
0000
0001
0000
0100
,  // measure 30
0000
0001
0000
1000
,  // measure 31
0000
0001
0000
0100
,  // measure 32
0000
0001
0000
0000
,  // measure 33
1000
0000
0001
0000
,  // measure 34
0100
0000
0001
0000
,  // measure 35
0010
0000
0100
0000
,  // measure 36
1000
0000
0001
0000
,  // measure 37
1000
0000
0010
0000
,  // measure 38
1000
0000
0001
0000
,  // measure 39
1000
0000
0100
0000
,  // measure 40
0010
0000
0001
0000
,  // measure 41
1000
0000
0000
0000
,  // measure 42
0100
0000
0000
0000
,  // measure 43
1000
0000
0000
0000
,  // measure 44
0100
0000
0000
0000
,  // measure 45
0010
0000
0000
0000
,  // measure 46
0001
0000
0000
0000
,  // measure 47
0010
0000
0000
0000
,  // measure 48
0001
0000
0000
0000
,  // measure 49
0100
0000
0000
0000
,  // measure 50
0001
0000
0000
0000
,  // measure 51
0100
0000
0000
0000
,  // measure 52
0001
0000
0000
0000
,  // measure 53
1000
0000
0000
0000
,  // measure 54
0001
0000
0000
0000
,  // measure 55
1000
0000
0000
0000
,  // measure 56
0000
0001
0000
0100
,  // measure 57
0000
0010
0000
1000
,  // measure 58
0000
0001
0000
1000
,  // measure 59
0000
0100
0000
0010
,  // measure 60
0000
0001
0000
0100
,  // measure 61
0000
0001
0000
1000
,  // measure 62
0000
0001
0000
0100
,  // measure 63
0000
0001
0000
0010
,  // measure 64
0000
0001
0000
0000
,  // measure 65
0000
1000
0000
0000
,  // measure 66
0000
0001
0000
0000
,  // measure 67
0000
1000
0000
0000
;
