#VERSION:0.83;
#TITLE:Wedding Bells;
#SUBTITLE:;
#ARTIST:The-Dream;
#TITLETRANSLIT:;
#SUBTITLETRANSLIT:;
#ARTISTTRANSLIT:;
#GENRE:R&B;
#ORIGIN:;
#CREDIT:;
#BANNER:wb-bn.png;
#BACKGROUND:wb-bg.png;
#PREVIEWVID:;
#JACKET:wb-jacket.png;
#CDIMAGE:;
#DISCIMAGE:;
#LYRICSPATH:;
#CDTITLE:cdtitle.png;
#MUSIC:wedding bells.ogg;
#OFFSET:0.000000;
#SAMPLESTART:99.123993;
#SAMPLELENGTH:14.500000;
#SELECTABLE:YES;
#BPMS:0.000=67.505,
16.000=135.010,
100.000=67.505,
101.000=135.010,
107.000=67.505,
109.000=135.010,
165.000=67.505,
169.000=135.010,
249.000=67.535;
#STOPS:;
#DELAYS:;
#WARPS:;
#TIMESIGNATURES:0.000=4=4;
#TICKCOUNTS:0.000=4;
#COMBOS:0.000=1;
#SPEEDS:0.000=1.000=0.000=0;
#SCROLLS:0.000=1.000;
#FAKES:;
#LABELS:0.000=Song Start;
#BGCHANGES:;
#KEYSOUNDS:;
#ATTACKS:
;

//---------------dance-single - ----------------
#NOTEDATA:;
#CHARTNAME:;
#STEPSTYPE:dance-single;
#DESCRIPTION:;
#CHARTSTYLE:;
#DIFFICULTY:Hard;
#METER:9;
#RADARVALUES:0.534258,0.689335,0.122617,0.068972,0.241401,488.000000,472.000000,16.000000,9.000000,0.000000,0.000000,0.000000,0.000000,0.000000,0.534258,0.689335,0.122617,0.068972,0.241401,488.000000,472.000000,16.000000,9.000000,0.000000,0.000000,0.000000,0.000000,0.000000;
#CREDIT:;
#NOTES:
// measure 0
0000
0000
0000
0000
,  // measure 1
0000
0000
0000
0000
,  // measure 2
1010
0000
0000
0000
0100
0000
0000
0000
0010
0000
0000
0000
0100
0001
0000
0000
0100
0001
0000
0000
0010
0000
0000
0000
0100
0000
0000
0000
1000
0000
0000
0000
,  // measure 3
1001
0000
1000
0000
0100
0000
1000
0000
0001
0000
0010
0000
0100
0010
0100
0010
,  // measure 4
0110
0000
0100
0000
1000
0000
0010
0000
1000
0000
0000
0000
0100
1000
0000
0000
,  // measure 5
0001
0000
0010
0000
0100
0000
1000
0000
0100
0000
0010
0000
0100
0000
1000
0010
,  // measure 6
1000
0000
1000
0100
0010
0000
0001
0010
,  // measure 7
0100
0000
1000
0100
1000
0010
0100
0001
,  // measure 8
0101
0000
0000
0000
0001
0000
0010
0000
0001
0000
0000
0000
0100
0001
0000
0000
,  // measure 9
0001
0000
0010
0000
1000
0000
0010
0000
0001
0000
0010
0000
0100
0000
0010
0001
,  // measure 10
0010
0000
0100
0010
0000
0010
0100
0000
1000
0000
0000
0010
0000
0000
0000
0000
,  // measure 11
1000
0000
0100
1000
0000
1000
0100
0000
0010
0000
0100
0000
0010
0000
0001
0000
,  // measure 12
0011
0001
0001
0000
1000
1000
1000
0000
,  // measure 13
0010
0000
0100
0000
0010
0000
0001
0000
0010
0000
0100
0000
0001
0000
0001
1000
,  // measure 14
0002
0000
0013
0001
1000
0000
0100
1000
,  // measure 15
0001
0000
0001
0010
0001
0100
0000
0100
,  // measure 16
0101
0001
0001
0000
1000
1000
1000
0000
,  // measure 17
0100
0000
1000
0000
0100
0000
0001
0000
0100
0000
1000
0000
0010
0000
1000
0001
,  // measure 18
2000
0000
3100
0010
0001
0000
0010
0100
,  // measure 19
1000
0000
0001
0010
0100
0000
0100
0000
,  // measure 20
0110
0010
0100
0010
0001
0010
1000
0010
,  // measure 21
0002
0000
0100
0000
0100
0000
0000
0000
0013
0000
0000
0000
0100
0000
0001
0100
,  // measure 22
0001
0010
0100
1000
0100
0010
0100
1000
,  // measure 23
0200
0010
0010
0000
1300
0000
0100
0010
,  // measure 24
0110
0000
0100
0000
0010
0000
0001
0000
0100
0000
1000
0000
0100
0010
0100
0000
,  // measure 25
0020
0000
0000
0000
0130
0000
0010
0000
0100
0000
0010
0100
0010
0000
0000
1000
,  // measure 26
0000
0000
0001
0000
1000
0000
0001
0100
0000
0000
0010
0000
2000
0000
0000
0000
,  // measure 27
3010
0000
1000
0000
1010
0000
0000
0010
0000
0000
1000
0000
0100
0000
1000
0100
,  // measure 28
0000
0000
0010
0100
0010
0000
0001
0100
,  // measure 29
0001
0000
0100
0010
0100
0000
0000
0100
0000
0000
0001
0000
1000
0000
0001
0100
,  // measure 30
0000
0010
1000
0001
1000
0000
0010
0100
,  // measure 31
0001
0000
0010
0000
0011
0000
0000
0001
0000
0000
1000
0000
0001
0000
0000
1000
,  // measure 32
0010
0100
0010
0010
1000
0000
1000
1000
,  // measure 33
0000
0010
1000
0001
0000
0100
0010
0000
,  // measure 34
0010
0000
0010
1000
0100
0000
0100
1000
,  // measure 35
0010
0000
1010
0010
1000
0001
1000
0100
,  // measure 36
0010
0100
1000
0010
0001
0100
1000
0001
,  // measure 37
1000
0100
0001
0010
1000
0000
1000
0001
,  // measure 38
0100
0010
0100
0001
0010
0000
0001
1000
,  // measure 39
0010
0100
0001
0000
0001
1000
0100
1000
,  // measure 40
0010
1000
0000
0000
0100
0000
0010
0000
0001
0000
0000
0000
0010
0000
0100
0000
,  // measure 41
1000
0000
0000
0000
0100
0000
0000
0000
0010
0000
0100
0010
0000
0100
1000
0000
0100
0000
1000
0010
0000
0100
0000
0000
0001
0000
0001
1000
0000
0010
0100
0000
,  // measure 42
0010
0010
0010
0010
0110
0000
0100
0000
0001
0000
1000
0000
0100
0000
0000
0000
,  // measure 43
1000
0001
0000
0000
0001
0000
0010
0000
0001
0000
0100
0000
0010
0000
1000
0000
,  // measure 44
0100
0000
0010
0100
0010
0000
0000
0000
0001
0000
0100
0000
0001
0000
0000
0000
,  // measure 45
0010
0100
1000
0001
1000
0100
1000
0100
,  // measure 46
0010
0001
0011
0000
0100
0001
1000
0000
,  // measure 47
0100
1000
0000
0000
0010
0000
0100
0000
0001
0000
0100
0000
0010
0000
1000
0000
,  // measure 48
0010
0000
0100
0010
0100
0000
0001
1000
0001
0000
0100
0010
0100
0000
0000
0100
,  // measure 49
0000
0000
0001
0010
0100
0010
0001
1000
,  // measure 50
0001
1000
1001
0010
0100
0000
0010
0100
,  // measure 51
0001
1000
0000
0000
1000
0000
0001
0000
0010
0000
0100
0000
0010
0000
0001
0000
,  // measure 52
1000
0000
0010
0100
0001
0000
0100
0000
0010
0000
0000
0000
1000
0000
0010
0000
,  // measure 53
0100
0010
1000
0100
1000
0000
0100
0100
,  // measure 54
0000
0010
0010
0001
1000
0010
1000
0100
,  // measure 55
1000
0100
0000
0000
1000
0100
1000
0000
0001
0000
0100
0000
0001
0000
1000
0000
,  // measure 56
0001
0000
0100
0001
0100
0000
0100
0000
0001
0000
0000
0000
0001
0000
0010
0000
,  // measure 57
0100
1000
0001
0000
0001
0010
0001
0000
,  // measure 58
0100
0000
0101
0000
0001
0001
1000
0100
,  // measure 59
0010
0100
1000
0100
0001
0100
1000
0001
,  // measure 60
0000
0000
0001
0100
0001
0000
0000
0000
1000
0000
0100
0000
0010
0000
0100
0000
,  // measure 61
1000
0100
0010
0100
1000
0001
0010
0000
,  // measure 62
0010
0000
0000
0000
0011
0000
0000
0000
0001
1000
0001
1000
0001
0010
0100
1000
,  // measure 63
0001
0000
0100
0010
1000
0000
0001
1000
0100
0010
0001
0100
0020
0000
0000
0100
,  // measure 64
0230
0320
0030
0000
0000
0000
0000
0000
;

//---------------dance-single - ----------------
#NOTEDATA:;
#CHARTNAME:;
#STEPSTYPE:dance-single;
#DESCRIPTION:;
#CHARTSTYLE:;
#DIFFICULTY:Medium;
#METER:7;
#RADARVALUES:0.421495,0.515996,0.084299,0.107290,0.053645,385.000000,374.000000,11.000000,14.000000,0.000000,0.000000,0.000000,0.000000,0.000000,0.421495,0.515996,0.084299,0.107290,0.053645,385.000000,374.000000,11.000000,14.000000,0.000000,0.000000,0.000000,0.000000,0.000000;
#CREDIT:;
#NOTES:
0000
0000
0000
0000
,
0000
0000
0000
0000
,
0110
0100
0010
0100
0001
1000
0100
1000
,
0001
0000
0010
0000
0100
0000
1000
0000
0100
0000
0010
0000
0100
1000
0100
1000
,
1100
0100
1000
0010
1000
0000
0001
0000
,
0001
0010
0100
1000
0100
0010
0100
0000
,
2000
0000
3001
1000
0001
0000
0001
0010
,
0100
0000
0010
0100
1000
0010
1000
0010
,
1000
0001
1000
0001
,
1000
0010
0001
0010
1000
0000
0100
0000
,
0010
0000
0000
0000
0001
0000
0100
0000
0001
0000
0000
0001
0000
0000
0000
0000
,
1000
0100
1000
0000
0010
0000
0010
0100
,
0110
0010
1000
0001
,
0010
0100
0010
0001
0010
0100
0010
0000
,
0002
0000
1003
0001
1000
0000
0010
0100
,
0010
0000
0100
0001
0100
0010
0000
0010
,
1000
0010
0100
0001
,
0010
1000
0010
0001
0010
1000
0010
0000
,
0002
0000
0103
0001
0100
0000
0010
1000
,
0010
0000
0100
0010
0100
0000
0100
0000
,
0110
0000
0100
0000
1000
0010
1000
0010
,
2000
0000
0001
0000
3100
0000
0100
1000
,
0010
0100
1000
0100
,
0020
0000
0001
0000
1030
0000
1000
0010
,
0100
0010
0100
0001
,
2000
0000
0000
0000
3001
0000
0000
0000
1000
0000
0000
0000
0010
0000
0000
0100
,
0000
0000
0010
0000
1000
0000
0000
0001
0000
0000
1000
0000
0002
0000
0000
0000
,
0013
0001
0011
0000
0001
1000
0010
0000
,
1000
0000
0010
0100
0010
0000
1000
0001
,
0000
0000
0001
0100
0001
0000
0000
0000
1000
0000
0001
0000
1000
0000
0000
0000
,
0100
0000
0010
0001
0100
0000
0010
0100
,
0001
0010
0011
0000
0001
1000
0100
0000
,
1000
0000
0010
0100
0001
0000
0001
1000
,
0000
1000
0010
0100
0000
0100
0010
0000
,
0010
0000
0010
0001
0010
0000
1000
0100
,
0010
0000
0110
0010
0100
0000
1000
0100
,
0010
0100
1000
0100
0010
0000
0001
1000
,
0001
0100
0001
0010
0001
0000
1000
0100
,
0010
0001
0010
0100
1000
0000
0001
1000
,
0010
1000
0001
0000
1000
0001
0100
0010
,
0100
1000
0100
0010
0100
0000
0001
0000
,
1000
0100
0020
0000
0001
0000
0100
0000
,
0031
1000
0001
1000
1001
0000
0000
0000
0001
0000
1000
0000
0010
0000
0000
0000
,
1000
1000
0000
0000
0001
0000
0010
0000
0001
0000
0100
0000
0010
0000
1000
0000
,
0001
0000
2000
0000
3001
1000
0001
0000
,
0100
0010
0100
0000
0001
0100
0001
0100
,
0001
0010
0011
0000
0001
0000
1000
0000
,
0100
0000
0010
0100
1000
0100
0010
0100
,
1000
0000
0000
0000
0001
0000
0000
0000
0001
0000
1000
0000
0010
0000
0000
0010
,
0000
1000
0100
0010
,
0001
1000
1001
0000
0010
0000
0100
0000
,
0010
0000
0100
1000
0100
0010
0100
0000
,
0001
0010
0100
0010
0001
0000
1000
0010
,
0100
0010
1000
1000
1000
0000
0001
0100
,
0000
0100
0001
1000
0001
0000
0100
0010
,
0100
0000
0001
1000
0100
0010
0001
0000
,
1000
0100
0001
0010
1000
0010
0001
0010
,
0100
0001
1000
0000
0001
0010
0001
0000
,
0100
0000
0101
0000
0001
0001
1000
0000
,
0010
0000
1000
1000
0010
0000
0100
0001
,
0000
0001
0100
0000
0001
0100
0001
0010
,
0100
1000
0100
0000
1000
0000
0010
0000
,
0100
0200
0302
2003
,
3002
0000
0000
0000
1003
0000
1000
0001
1000
0100
0010
0001
0020
0000
0000
0001
,
0031
0001
0000
0000
0000
0000
0000
0000
;

//---------------dance-single - ----------------
#NOTEDATA:;
#CHARTNAME:;
#STEPSTYPE:dance-single;
#DESCRIPTION:;
#CHARTSTYLE:;
#DIFFICULTY:Easy;
#METER:3;
#RADARVALUES:0.328437,0.318803,0.061308,0.176261,0.000000,300.000000,292.000000,8.000000,23.000000,0.000000,0.000000,0.000000,0.000000,0.000000,0.328437,0.318803,0.061308,0.176261,0.000000,300.000000,292.000000,8.000000,23.000000,0.000000,0.000000,0.000000,0.000000,0.000000;
#CREDIT:;
#NOTES:
0000
0000
0000
0000
,
0000
0000
0000
0000
,
0020
2030
3002
0023
,
0230
0000
2300
0000
3020
0000
1030
0010
,
1010
1000
0010
0100
,
0001
0010
0001
0000
1000
0010
1000
0000
,
2000
0000
3001
1000
0001
0000
0010
0000
,
0100
0000
0010
0000
0001
0010
0001
0010
,
0001
1000
0100
1000
,
0001
0010
0001
0000
1000
0010
1000
0000
,
0100
0000
0010
0100
1000
0000
0001
0000
,
1000
0100
0010
0000
0001
0000
0010
0000
,
0011
0001
1000
0001
,
0010
0100
1000
0010
,
2000
0000
3001
1000
0001
0000
0100
0000
,
0010
0100
0010
0000
0010
1000
0000
1000
,
0001
0010
0100
0010
,
0001
1000
0100
0010
,
0002
0000
0103
0001
0100
0000
0010
0000
,
1000
0100
0010
0000
0100
0000
0100
0000
,
1100
0000
0001
0010
,
0002
0000
1003
0001
,
1000
0000
1000
0100
,
2000
0000
3001
1000
,
0010
0000
0100
0001
,
0020
0031
0001
1000
,
0000
0001
0010
0200
,
0301
0100
0110
0000
0001
0000
0010
0000
,
0100
0000
1000
0100
0010
0000
0100
0000
,
1000
0010
0100
0001
,
0100
0000
0001
0010
0100
0000
0010
0001
,
0010
0100
0010
0000
0001
0000
1000
0000
,
0100
0010
0100
0010
0000
0000
0001
1000
,
0000
0001
0010
0100
0000
0100
0010
0000
,
0001
0000
0010
0100
1000
0000
1000
0100
,
0010
0110
0100
0010
,
0001
0000
1000
0100
0010
0000
0001
0000
,
1000
0000
0001
0010
0100
0000
0010
0000
,
0001
0000
1000
0100
1000
0000
1000
0100
,
0010
0100
1000
0000
0001
1000
0100
0000
,
0001
0100
0010
1000
,
0010
2000
0000
0000
,
3100
1000
1100
0000
0001
0000
1000
0000
,
0010
0000
0001
1000
0001
0000
1000
0100
,
1000
0020
0130
0010
,
1000
0000
0010
0100
0001
0000
1000
0100
,
0010
0001
0010
0000
0001
0000
1000
0000
,
0100
0000
0010
0100
1000
0100
0010
0100
,
1000
0000
0001
0000
0100
0001
0010
0000
,
0001
0000
1000
0001
0010
0000
0100
0000
,
1000
0100
1100
0000
0010
0000
1000
0000
,
0010
0000
0100
0010
0001
0000
0100
0000
,
1000
0010
0100
0010
1000
0000
0001
0000
,
0100
0000
0010
1000
0010
0000
1000
0100
,
0000
0100
1000
0000
0001
0000
0100
0000
,
0001
0000
0001
1000
0010
0000
0100
0000
,
0001
0100
0001
0000
1000
0000
0001
0000
,
0100
0001
1000
0000
0001
0000
0010
0000
,
0010
0000
0011
0000
0000
0001
0001
0000
,
0000
0000
1000
0010
1000
0000
0100
0010
,
0000
0010
0001
0000
0000
1000
1000
0000
,
0000
0000
0010
0100
1000
0000
0001
0000
,
0001
2000
3002
2003
,
3002
2003
3002
2003
,
3000
0000
0000
0000
;

//---------------dance-single - ----------------
#NOTEDATA:;
#CHARTNAME:;
#STEPSTYPE:dance-single;
#DESCRIPTION:;
#CHARTSTYLE:;
#DIFFICULTY:Beginner;
#METER:1;
#RADARVALUES:0.159840,0.220710,0.038318,0.183925,0.000000,146.000000,141.000000,5.000000,24.000000,0.000000,0.000000,0.000000,0.000000,0.000000,0.159840,0.220710,0.038318,0.183925,0.000000,146.000000,141.000000,5.000000,24.000000,0.000000,0.000000,0.000000,0.000000,0.000000;
#CREDIT:;
#NOTES:
0000
0000
0000
0000
,
0000
0000
0000
0000
,
0002
2003
3002
2003
,
3002
2003
3002
2003
,
3010
0000
1000
0100
,
1000
0000
0001
0000
,
0002
0003
0001
0000
,
0100
0000
0001
0010
,
0100
0000
1000
0000
,
0001
0000
1000
0000
,
0100
0000
0010
0000
,
0001
0000
1000
0100
,
1100
0000
1000
0000
,
0010
0000
1000
0000
,
0002
0003
0001
0000
,
1000
0000
0010
0000
,
1000
0000
0010
0000
,
0100
0000
0001
0000
,
0200
0300
0001
0000
,
1000
0000
0010
0010
,
0110
0000
1000
0000
,
0002
0000
1003
0001
,
1000
0000
0100
0000
,
0020
0000
0031
1000
,
0010
0000
0100
0000
,
2000
3010
1000
0001
,
0000
0100
0000
0002
,
0003
0101
0000
0001
,
0000
1000
0000
0100
,
0000
0010
0000
0001
,
0000
1000
0000
0001
,
0000
0100
0000
0010
,
0000
0100
0000
1000
,
0000
0010
0000
1000
,
0000
0100
0000
1000
,
0000
0001
0000
0010
,
0000
0100
0000
1000
,
0000
0001
0000
0010
,
0000
0001
0000
1000
,
0000
0100
0000
1000
,
0000
0001
0000
0100
,
0000
0020
0000
0000
,
0000
0130
0000
0010
,
0000
1000
0000
0100
,
0000
0020
0030
0100
,
0000
0010
0000
0001
,
0010
0001
0000
1000
,
0000
0100
0000
0001
,
0000
0010
0000
0100
,
0000
1000
0000
0100
,
0010
0110
0000
1000
,
0000
0001
0000
0100
,
0000
0001
0000
0010
,
0000
1000
0000
0100
,
0000
1000
0000
0100
,
0000
0001
0000
0100
,
0000
0001
0000
0010
,
0000
0100
0000
0010
,
0010
0110
0000
0010
,
0000
1000
0000
0100
,
0000
0010
0000
0001
,
0000
0010
0000
0100
,
0000
2000
3200
0320
,
0032
0023
0230
2300
,
3000
0000
0000
0000
;
