#TITLE:We Want Your Soul;
#SUBTITLE:;
#ARTIST:Dada Life;
#TITLETRANSLIT:;
#SUBTITLETRANSLIT:;
#ARTISTTRANSLIT:;
#GENRE:Electro House;
#CREDIT:;
#BANNER:WWYS-bn.png;
#BACKGROUND:WWYS-bg.png;
#LYRICSPATH:;
#CDTITLE:cdtitle.png;
#MUSIC:We Want Your Soul.ogg;
#OFFSET:-0.008000;
#SAMPLESTART:75.476997;
#SAMPLELENGTH:15.000000;
#SELECTABLE:YES;
#DISPLAYBPM:64.000000:128.000000;
#BPMS:0.000000=64.000000
,16.000000=128.000000
,48.000000=64.000000
,64.000000=128.000000
,92.000000=256.000000
,96.000000=64.000000
,104.000000=128.000000
,120.000000=256.000000
,124.000000=128.000000
,172.000000=64.000000
;
#STOPS:92.000000=0.234000,
93.000000=0.234000,
94.000000=0.234000,
95.000000=0.234000,
120.000000=0.234000,
121.000000=0.234000,
122.000000=0.234000,
123.000000=0.234000
;
#BGCHANGES:;
#KEYSOUNDS:;
#ATTACKS:;

//---------------dance-single - ----------------
#NOTES:
     dance-single:
     X-Scale 11:
     Hard:
     8:
     0.420671,0.671934,0.028045,0.392626,0.252402,315.000000,312.000000,3.000000,42.000000,0.000000,0.000000,0.420671,0.671934,0.028045,0.392626,0.252402,315.000000,312.000000,3.000000,42.000000,0.000000,0.000000:
// measure 0
0000
0000
0000
0000
,  // measure 1
0000
0000
0000
0000
,  // measure 2
1000
0000
0100
0000
0001
0000
0100
0000
1000
0000
0100
0000
0020
0000
0000
0000
0001
0000
0000
0000
0030
0000
0001
0000
0010
0001
0000
0010
0001
0000
0001
0000
,  // measure 3
1000
0000
0100
0000
0001
0000
0100
0000
2000
0000
0000
0000
3002
0000
0000
0000
1000
0000
1000
0000
0003
0000
1000
0000
0001
1000
0000
0001
1000
0000
0010
0000
,  // measure 4
1001
0000
0100
0001
0010
0001
2000
0000
,  // measure 5
0010
0000
0000
0000
3010
0000
1000
0000
0001
0010
0000
0010
1000
0000
0001
0000
,  // measure 6
1000
0100
0010
0100
2000
0000
3002
0000
,  // measure 7
1003
0000
0000
0000
0010
0000
0100
0000
0001
0100
0000
0100
1000
0000
0001
0000
,  // measure 8
2000
0000
3200
0000
0301
0100
2000
0000
,  // measure 9
0001
0000
3000
0000
1000
0000
0100
0000
1000
0100
0000
0100
0001
0000
0010
0000
,  // measure 10
0100
0010
0001
1000
0020
0000
2030
0000
,  // measure 11
0000
3000
0002
0000
0023
0000
0230
0000
,  // measure 12
2300
0000
0100
0000
0100
0000
3001
0000
0001
1000
0100
0010
0001
0000
0100
0000
,  // measure 13
0002
0000
0010
0000
0010
0000
1003
0001
0000
0010
0000
0001
0100
0000
0010
0000
,  // measure 14
2000
0000
0000
0000
0000
0000
3000
0000
0010
0100
1000
0100
0001
0000
1000
0000
,  // measure 15
0002
0000
0000
0020
0000
0003
0031
0010
0100
0000
1000
0000
0001
0000
1000
0000
,  // measure 16
1001
1000
0010
1000
,  // measure 17
0001
0010
1000
0010
0001
0000
0100
0000
,  // measure 18
0010
0000
1000
0000
0001
0000
1000
0200
,  // measure 19
0301
0200
1300
0100
0010
0000
0001
0000
,  // measure 20
1000
0010
0100
0001
,  // measure 21
1000
0100
0001
0100
0010
0100
1000
0000
,  // measure 22
2000
0000
0001
3002
1000
0000
1003
0001
,  // measure 23
1001
2000
3200
0320
,  // measure 24
0031
0010
0001
0010
0100
1000
0100
1000
0001
0100
0001
0100
0010
1000
0010
1000
,  // measure 25
0100
0010
0100
0010
0001
1000
0001
1000
0010
0100
0010
0100
0001
0010
0001
0010
,  // measure 26
0100
0100
1000
1000
0001
0001
1000
1000
,  // measure 27
0100
0100
0010
0010
0001
0001
1000
1000
,  // measure 28
0001
1000
0001
1000
0001
1000
0001
1000
0100
0010
0100
0010
0100
0010
0100
0010
,  // measure 29
0004
0010
1000
0100
,  // measure 30
1003
0002
0023
0230
,  // measure 31
2300
0000
3010
0100
1000
0100
0001
0001
,  // measure 32
2000
0000
3100
1000
0010
1000
0100
0010
,  // measure 33
0002
0000
0103
0001
1000
0001
0100
0100
,  // measure 34
0020
0000
1030
0010
0001
0010
1000
0010
,  // measure 35
2000
0000
3001
0010
1000
0010
0001
0001
,  // measure 36
0200
0000
0310
0100
1000
0100
0001
0100
,  // measure 37
0020
0000
1030
0010
0001
0010
0100
0100
,  // measure 38
0002
0000
1003
0001
0100
0001
1000
0001
,  // measure 39
2000
0000
3100
0010
0001
1000
0100
0100
,  // measure 40
0020
0000
1030
0010
0001
0010
0100
1000
,  // measure 41
0002
0000
0103
0001
1000
0001
0100
0100
,  // measure 42
0020
0000
1030
0010
0001
0010
1000
0010
,  // measure 43
0020
4000
0000
0000
0000
0000
0000
0000
0000
0000
0000
0000
0000
0000
0000
0000
0000
0000
3030
0000
0000
0000
0000
0000
0000
0000
0000
0000
0000
0000
0000
0000
;

//---------------dance-single - ----------------
#NOTES:
     dance-single:
     X-Scale 8:
     Medium:
     6:
     0.347220,0.488679,0.037393,0.458064,0.107505,260.000000,256.000000,4.000000,49.000000,0.000000,0.000000,0.347220,0.488679,0.037393,0.458064,0.107505,260.000000,256.000000,4.000000,49.000000,0.000000,0.000000:
// measure 0
0000
0000
0000
0000
,  // measure 1
0000
0000
0000
0000
,  // measure 2
1000
0010
0100
0010
1000
0100
0010
0000
0001
0000
0000
0001
1000
0000
0010
0100
,  // measure 3
0001
0100
0010
1000
0100
0000
1000
0000
0001
0000
0000
0010
0001
0000
1000
0010
,  // measure 4
1000
0000
0100
0010
0001
1000
0001
0000
,  // measure 5
0100
0001
0000
0000
1000
0000
0001
0000
0010
0100
0000
0100
0000
0000
0100
0000
,  // measure 6
1000
0010
1000
0100
0020
0000
0032
0000
,  // measure 7
1003
0000
0000
0000
0001
0000
0100
0000
0010
1000
0000
1000
0000
0000
0001
0000
,  // measure 8
0200
0000
0302
0000
1003
0100
2000
0000
,  // measure 9
3001
0000
0000
0000
1000
0000
0001
0000
0010
0100
0000
0100
0000
0000
1000
0000
,  // measure 10
0010
0100
0001
1000
0200
0000
2300
0000
,  // measure 11
3001
2000
3200
0320
,  // measure 12
0032
0000
0000
0000
1000
0000
0003
0000
1000
0000
0001
0010
0001
0000
0100
0000
,  // measure 13
0020
0000
0000
0000
0001
0000
0030
1000
0000
0100
0000
1000
0100
0000
0010
0000
,  // measure 14
0002
0000
0000
0000
1000
0000
0003
0000
1000
0000
0010
0100
0010
0000
1000
0000
,  // measure 15
0001
0000
0000
0010
0000
0000
0001
0010
0100
0000
1000
0000
0001
0000
1000
0000
,  // measure 16
0020
0100
0001
0130
,  // measure 17
0010
1000
0001
1000
0200
0000
0320
0000
,  // measure 18
0032
0000
1000
0000
0010
0000
1003
0002
,  // measure 19
0003
0020
0030
0200
0320
0030
0002
0003
,  // measure 20
0200
0001
1000
0301
,  // measure 21
0100
0010
1000
0001
0020
0000
0230
0000
,  // measure 22
2300
0000
0000
3020
0000
0000
0130
0010
,  // measure 23
0110
1000
0001
1000
,  // measure 24
1001
1000
0001
0010
0001
1000
0100
0010
,  // measure 25
0001
0100
0010
0100
0001
1000
0100
0010
,  // measure 26
0001
0000
0010
0001
0010
0000
0100
1000
,  // measure 27
0100
0000
1000
0001
1000
0000
0001
0100
,  // measure 28
0001
0100
0010
0100
0001
1000
0001
0100
,  // measure 29
0010
0001
1000
0001
0100
0010
1000
0001
,  // measure 30
1001
1000
0100
0010
,  // measure 31
0011
0000
0010
0002
0003
2000
3001
1000
,  // measure 32
0010
0000
0100
0001
0100
1000
0100
0001
,  // measure 33
0100
0000
0010
2000
3000
0002
1003
0001
,  // measure 34
0100
0002
2003
3002
,  // measure 35
1003
0000
0100
0020
0030
0002
1003
0001
,  // measure 36
0100
0000
0010
0100
1000
0100
0010
0100
,  // measure 37
0001
0000
1000
0200
0300
0020
0031
1000
,  // measure 38
0001
0200
0320
0230
,  // measure 39
0301
0000
1000
0020
0030
0200
0301
0100
,  // measure 40
0010
0000
1000
0100
0001
0100
1000
0100
,  // measure 41
0010
0000
0001
2000
3000
0002
0013
0001
,  // measure 42
0100
0020
2030
3020
,  // measure 43
0230
0000
0000
0000
0000
0000
0000
0000
0000
0300
0000
0000
0000
0000
0000
0000
;

//---------------dance-single - ----------------
#NOTES:
     dance-single:
     X-Scale 5:
     Easy:
     3:
     0.224358,0.346148,0.018696,0.271099,0.009348,168.000000,166.000000,2.000000,29.000000,0.000000,0.000000,0.224358,0.346148,0.018696,0.271099,0.009348,168.000000,166.000000,2.000000,29.000000,0.000000,0.000000:
// measure 0
0000
0000
0000
0000
,  // measure 1
0000
0000
0000
0000
,  // measure 2
1000
0100
0010
0002
0000
0003
0000
0000
,  // measure 3
1000
0010
0100
0002
0000
0003
0000
0000
,  // measure 4
1001
1000
0001
2000
,  // measure 5
0010
0000
3001
0000
1000
0000
0010
0100
,  // measure 6
0010
1000
0002
0023
,  // measure 7
0031
0000
0010
0100
1000
0000
0001
0000
,  // measure 8
2000
0000
3200
0000
1300
0010
0200
0000
,  // measure 9
0001
0000
0301
0000
0100
0000
0010
1000
,  // measure 10
0001
0100
0000
0010
,  // measure 11
0000
1000
0100
0010
,  // measure 12
0002
0100
1000
0103
0001
0100
0010
1000
,  // measure 13
0002
0010
1000
0013
0001
0100
0010
1000
,  // measure 14
0002
0100
1000
0103
0001
0100
0010
1000
,  // measure 15
0002
0000
0003
0020
0000
0030
0100
0010
0100
0000
1000
0000
0001
0000
1000
0000
,  // measure 16
0010
0100
0001
0100
,  // measure 17
0010
1000
0001
1000
,  // measure 18
0010
0100
0001
0100
,  // measure 19
0010
1000
0100
1000
,  // measure 20
0001
0010
0100
0010
,  // measure 21
0001
1000
0100
0010
,  // measure 22
0100
0000
1000
0000
0001
0000
0010
0001
,  // measure 23
0010
0000
0000
0000
,  // measure 24
0002
1000
0100
0010
,  // measure 25
0100
1000
0100
0010
,  // measure 26
0203
0001
1000
0001
,  // measure 27
0320
0001
0100
1000
,  // measure 28
2030
0001
0100
0001
,  // measure 29
3002
1000
0100
1000
,  // measure 30
0013
0000
0000
0000
,  // measure 31
2010
0000
3000
1000
0000
0001
0000
0000
,  // measure 32
0100
0001
1000
0001
,  // measure 33
0200
0000
0300
0010
0000
0100
0000
0000
,  // measure 34
0002
0003
1000
0000
,  // measure 35
0002
0000
0003
0010
0000
0001
0000
0000
,  // measure 36
1000
0100
0010
0100
,  // measure 37
2000
0000
3000
0001
0000
1000
0000
0000
,  // measure 38
0020
0030
0100
0000
,  // measure 39
0020
0000
0030
1000
0000
0001
0000
0000
,  // measure 40
2000
3001
0010
0001
,  // measure 41
2000
0000
3000
0010
0000
0100
0000
0000
,  // measure 42
0002
0003
0010
0000
,  // measure 43
0002
0000
0000
0000
0000
0000
0000
0000
0000
0003
0000
0000
0000
0000
0000
0000
;

//---------------dance-single - ----------------
#NOTES:
     dance-single:
     X-Scale 1:
     Beginner:
     1:
     0.105502,0.122170,0.009348,0.009348,0.000000,79.000000,78.000000,1.000000,1.000000,0.000000,0.000000,0.105502,0.122170,0.009348,0.009348,0.000000,79.000000,78.000000,1.000000,1.000000,0.000000,0.000000:
// measure 0
0000
0000
0000
0000
,  // measure 1
0000
0000
0000
0000
,  // measure 2
0001
0000
0100
0000
,  // measure 3
0001
0000
0100
0000
,  // measure 4
0001
0000
0010
0000
,  // measure 5
0100
0000
1000
0000
,  // measure 6
0001
0000
0010
0000
,  // measure 7
0100
0000
1000
0000
,  // measure 8
0001
0000
0100
0000
,  // measure 9
0010
0000
1000
0000
,  // measure 10
0000
0001
0000
0010
,  // measure 11
0000
0100
0000
1000
,  // measure 12
0100
0000
1000
0000
,  // measure 13
0001
0000
1000
0000
,  // measure 14
0100
0000
0010
0000
,  // measure 15
0001
0000
1000
0000
,  // measure 16
0001
0000
0010
0000
,  // measure 17
0100
0000
1000
0000
,  // measure 18
0001
0000
0100
0000
,  // measure 19
0010
0000
1000
0000
,  // measure 20
0001
0000
0010
0000
,  // measure 21
0100
0000
1000
0000
,  // measure 22
0001
0000
0100
0000
,  // measure 23
0001
0000
0000
0000
,  // measure 24
1000
0000
0100
0000
,  // measure 25
0010
0000
0001
0000
,  // measure 26
1000
0000
0001
0000
,  // measure 27
1000
0000
0001
0000
,  // measure 28
0010
0000
0100
0000
,  // measure 29
0010
0000
0100
0000
,  // measure 30
1000
0000
0000
0000
,  // measure 31
1001
0000
1000
0000
,  // measure 32
0001
0000
0100
0000
,  // measure 33
0001
0000
1000
0000
,  // measure 34
0010
0000
0000
0000
,  // measure 35
0010
0000
0100
0000
,  // measure 36
0001
0000
1000
0000
,  // measure 37
0100
0000
0010
0000
,  // measure 38
0001
0000
0000
0000
,  // measure 39
1000
0000
0010
0000
,  // measure 40
0100
0000
0001
0000
,  // measure 41
1000
0000
0001
0000
,  // measure 42
1000
0000
0000
0000
,  // measure 43
0002
0000
0000
0000
0000
0000
0000
0000
0000
0003
0000
0000
0000
0000
0000
0000
;
