#TITLE:We Don't Talk Anymore;
#SUBTITLE:;
#ARTIST:Charlie Puth feat. Selena Gomez;
#TITLETRANSLIT:;
#SUBTITLETRANSLIT:;
#ARTISTTRANSLIT:;
#GENRE:Tropical Pop;
#CREDIT:;
#BANNER:wdta-bn.png;
#BACKGROUND:wdta-bg.png;
#LYRICSPATH:;
#CDTITLE:cdtitle.png;
#MUSIC:we dont talk anymore.ogg;
#OFFSET:-0.001000;
#SAMPLESTART:38.681000;
#SAMPLELENGTH:30.000000;
#SELECTABLE:YES;
#BPMS:0.000000=100.000000
;
#STOPS:
;
#BGCHANGES:0.000=wdta.avi=1.000=1=0=0=StretchNoLoop==CrossFade==,
99999=-nosongbg-=1.000=0=0=0 // don't automatically add -songbackground-
;
#KEYSOUNDS:;
#ATTACKS:;

//---------------dance-single - ----------------
#NOTES:
     dance-single:
     X-Scale 8:
     Medium:
     6:
     0.414215,0.443893,0.029892,0.159423,0.383611,291.000000,288.000000,3.000000,16.000000,0.000000,0.000000,0.414215,0.443893,0.029892,0.159423,0.383611,291.000000,288.000000,3.000000,16.000000,0.000000,0.000000:
0000
0000
0000
0000
,
0000
0000
0000
0000
,
0000
0000
0000
0000
,
0000
0000
0000
0000
,
0000
0000
0000
0000
1000
0100
1000
0000
,
0001
0010
0001
0000
1000
0010
1000
0000
,
0001
0000
0100
0000
0001
0000
0000
0000
0010
0000
0100
0000
0000
0010
0000
0000
,
0002
0000
0000
0000
2003
0000
0000
0000
3002
0000
1000
0000
0003
1000
0000
0000
,
1000
0000
0100
0000
0010
0000
0001
0000
0011
0000
0001
0010
0000
0001
0010
0000
,
0001
0000
1000
0000
0001
0000
0010
0000
0001
0000
1000
0010
0000
0000
1000
0000
,
0200
0000
0000
0310
0100
0000
0100
0000
0010
0000
0001
0000
1000
0001
0000
0010
,
0000
0001
0000
0000
0100
0010
0200
0000
0010
0000
0000
0301
0100
0000
0001
0000
,
1000
0000
0001
0000
0010
0000
0100
0000
1000
0000
0100
0010
0000
0100
0010
0000
,
0100
0000
0001
0000
0100
0000
1000
0000
0100
0000
1000
0001
0000
1000
0000
0000
,
0020
0000
0000
1030
0010
0000
0010
0000
1000
0000
0100
0010
0000
1000
0000
0010
,
0000
0000
0000
0001
0000
0000
0000
0000
0000
0000
0000
0000
0010
0000
0000
0100
0000
0000
0020
0000
0000
0000
0000
0000
0001
0000
0000
0000
0000
0000
0000
0000
0000
0100
0000
0000
0100
0000
0000
0000
0030
0000
0000
0000
0000
0010
0000
0000
,
0010
0001
0100
0001
0101
0100
0010
0000
,
1000
0100
1000
0000
0100
0010
0100
0000
,
0010
0000
0001
0000
0010
0000
0000
0000
0001
0000
1000
0000
0001
0000
0000
1000
,
0000
0001
0000
0010
0000
0100
0000
1000
0100
0000
1000
0000
0100
0000
0001
0000
,
0100
0000
0010
0000
0001
0000
1000
0000
0001
0000
0010
0000
0001
0000
0000
1000
,
0000
0001
0000
1000
0000
0010
0100
0000
0020
0000
0001
0000
0130
0010
0100
0010
,
0000
1000
0010
1000
0000
0100
0010
0000
0200
0000
0010
0000
1300
0000
0000
0000
,
0001
0000
0100
0000
0010
0000
1000
0000
0002
0000
0100
0000
0100
0000
0003
0010
,
0001
0000
0000
0010
0100
0000
0010
0000
0110
0000
0001
0000
0010
0000
0001
0000
,
1000
0001
0000
0100
0000
0010
0100
0010
1000
0000
0010
0000
0100
0000
0001
0000
,
1000
0010
0000
1000
0000
0001
1000
0001
0100
0000
0010
0000
0000
0100
0000
0000
,
0001
0000
0100
0000
0001
0000
0010
0000
0100
0000
0010
0001
0000
0010
0001
0000
,
1000
0001
0000
1000
0000
0010
0100
0010
1000
0000
0100
0000
1000
0000
0001
0000
,
0100
0001
0000
0010
0000
0001
0100
0001
1000
0000
0010
0000
1000
0000
0100
0000
,
0010
0100
0000
0001
0000
0100
1000
0100
1000
0000
0001
0000
0000
1000
0000
0000
,
0100
0000
0001
0000
0100
0000
1000
0000
0100
0000
0010
0100
0000
0010
0100
0000
,
0001
0100
1000
0100
0020
0000
0031
0000
,
1000
0100
0010
0001
0200
0010
0310
0000
,
1000
0000
0100
0000
0001
0000
0100
0000
2000
0000
0001
0000
3001
0000
0010
0001
,
0000
0100
0000
0001
0000
1000
0000
0100
1000
0000
0100
0000
1000
0000
0000
0000
,
0001
0010
0001
1000
0002
0000
0103
0000
,
1000
0100
0001
0100
2000
0010
3010
0000
,
0010
0000
0100
0000
0001
0000
1000
0000
0020
0000
0001
0000
0031
0000
0010
1000
,
0000
0010
0000
1000
0000
0100
0000
0010
0100
0000
1000
0000
0100
0000
0000
0000
,
1000
0001
0000
0100
0001
0000
0001
0000
0001
0000
0000
0000
0000
0000
0000
0000
;

//---------------dance-single - ----------------
#NOTES:
     dance-single:
     X-Scale 4:
     Easy:
     3:
     0.239134,0.242124,0.019928,0.249098,0.000000,168.000000,166.000000,2.000000,25.000000,0.000000,0.000000,0.239134,0.242124,0.019928,0.249098,0.000000,168.000000,166.000000,2.000000,25.000000,0.000000,0.000000:
0000
0000
0000
0000
,
0000
0000
0000
0000
,
0000
0000
0000
0000
,
0000
0000
0000
0000
,
0000
0000
0000
0000
0000
1000
0001
0000
,
0000
0000
0010
0000
0000
0001
1000
0000
,
0000
0000
0010
0000
0000
1000
0001
0000
,
0200
0320
2030
3000
,
0100
0000
1000
0001
1001
0000
0001
0000
,
1000
0000
0100
0010
0100
0000
1000
0000
,
0002
0000
0103
0001
0100
0000
0010
0000
,
0001
0000
0010
0100
0010
0000
1000
0000
,
0001
0000
1000
0010
1000
0000
0100
0000
,
0010
0000
0001
0100
0001
0000
0010
0000
,
0002
0000
1003
0001
1000
0000
0010
0000
,
0100
0000
0001
0100
0001
0000
0010
0000
,
0100
0010
0001
0010
0200
0000
0310
0000
,
0001
0010
0200
0300
,
1000
0100
2000
3001
,
1000
0010
0100
0001
,
1000
0000
0010
1000
0020
0000
0030
0000
,
0000
1000
0200
0310
,
0000
0001
0020
0130
,
0000
0000
0010
0000
0002
0000
1000
0003
,
0001
0000
1000
0100
1100
0000
1000
0000
,
0100
0000
1000
0001
1000
0000
0010
0000
,
0100
0000
0010
1000
0010
0000
1000
0000
,
0002
0023
0230
1300
,
0001
0000
0010
0001
0010
0000
1000
0000
,
0010
0000
0001
0100
0001
0020
0100
0000
,
0031
0000
1000
0010
1000
0000
0100
0000
,
0020
0230
2300
3001
,
1000
0000
0100
0010
0100
0000
1000
0000
,
0001
0000
0100
0001
0100
0000
0010
0000
,
1000
0000
0001
0010
0002
0000
1003
0001
,
2000
0000
3010
1000
0020
0000
1030
0000
,
0010
0000
0100
0001
0100
0000
0010
0000
,
0001
0000
0010
0100
0001
0000
1000
0000
,
0100
0000
1000
0001
2000
0000
3100
0010
,
0200
0000
0310
0100
0020
0000
0031
0000
,
0010
0000
0100
0010
0100
0000
0000
0000
;

//---------------dance-single - ----------------
#NOTES:
     dance-single:
     X-Scale 1:
     Beginner:
     1:
     0.103910,0.121062,0.009964,0.169387,0.000000,73.000000,72.000000,1.000000,17.000000,0.000000,0.000000,0.103910,0.121062,0.009964,0.169387,0.000000,73.000000,72.000000,1.000000,17.000000,0.000000,0.000000:
0000
0000
0000
0000
,
0000
0000
0000
0000
,
0000
0000
0000
0000
,
0000
0000
0000
0000
,
0000
0000
0000
0010
,
0000
0001
0000
1000
,
0000
0001
0000
0100
,
0000
0010
0000
2000
,
0000
0000
3100
0000
,
1000
0000
0001
0000
,
0020
0030
0001
0000
,
1000
0000
0100
0000
,
1000
0010
1000
0000
,
0001
0000
0010
0000
,
0200
0300
1000
0000
,
0010
0000
0100
0000
,
0001
1000
0002
0003
,
0000
0000
2000
3000
,
0000
0000
0002
0003
,
0010
0000
0100
0000
,
1000
0010
2000
3000
,
0000
0000
0002
0003
,
0000
0000
2000
3000
,
0010
0000
1000
0000
0020
0000
0000
0030
,
0000
0000
0011
0000
,
1000
0000
0001
0000
,
0100
0000
0010
0000
,
1000
0100
1000
0000
,
0001
0000
0100
0000
,
0010
0000
1000
0000
,
0100
0000
1000
0000
,
0001
0100
0001
0000
,
0020
0000
0031
0000
,
0002
0000
1003
0000
,
2000
0000
3100
0000
,
1000
0000
0100
0000
,
2000
0000
3001
0000
,
0002
0000
0103
0000
,
0200
0000
0310
0000
,
0100
0000
0001
0000
,
2000
0000
3000
0000
;

//---------------dance-single - ----------------
#NOTES:
     dance-single:
     X-Scale 11:
     Hard:
     8:
     0.533782,0.524601,0.039856,0.209243,0.757259,375.000000,371.000000,4.000000,21.000000,0.000000,0.000000,0.533782,0.524601,0.039856,0.209243,0.757259,375.000000,371.000000,4.000000,21.000000,0.000000,0.000000:
// measure 0
0000
0000
0000
0000
,  // measure 1
0000
0000
0000
0000
,  // measure 2
0000
0000
0000
0000
,  // measure 3
0000
0000
0000
0000
,  // measure 4
1000
0001
0000
1000
0000
0001
0100
0001
0010
0000
0001
1000
0000
0001
1000
0000
,  // measure 5
0100
0010
0000
0100
0000
1000
0001
1000
0010
0000
0100
0001
0000
0100
0001
0000
,  // measure 6
0100
0010
0000
1000
0000
0100
0010
0100
0010
0000
0001
0010
0000
0010
0100
0000
,  // measure 7
0100
1000
0000
1000
0001
0000
0001
0100
0001
0000
0001
1000
0000
0001
1000
0000
,  // measure 8
0100
0000
0010
0000
0001
0000
1000
0000
1001
0000
0100
0010
0000
0100
0010
0000
,  // measure 9
1000
0000
0010
1000
0010
0000
0010
0000
1000
0000
0001
0010
0001
0000
0010
0000
,  // measure 10
0200
0000
0000
0010
0310
0000
0100
0010
0100
0000
0010
0000
0001
0010
0000
0001
,  // measure 11
1000
0000
0010
0000
1000
0010
2000
0000
0010
0000
0000
3001
1000
0000
0100
0010
,  // measure 12
0001
0000
0010
0000
1000
0000
0010
0000
0001
0000
0100
0010
0000
0100
0010
0000
,  // measure 13
1000
0000
0010
1000
0010
0000
0100
0000
0001
0000
1000
0001
0000
1000
0001
0000
,  // measure 14
2000
0000
0000
3100
1000
0000
0010
0000
0100
0000
0001
0100
0000
0001
0100
0000
,  // measure 15
0010
0100
0000
0010
0100
0010
0200
0000
0001
0000
1000
0000
0001
0300
0000
0100
,  // measure 16
0001
0000
0010
0000
0001
0000
0010
0000
0011
0000
0001
0000
1000
0100
1000
0100
,  // measure 17
0000
1000
0000
0001
0010
0000
0001
0000
0100
0000
0001
0000
0010
0100
1000
0100
,  // measure 18
0010
0001
0010
0100
0010
0001
0100
0000
0001
0000
1000
0000
0100
0000
1000
0100
,  // measure 19
0000
1000
0000
0100
0000
0010
0000
0001
0010
0000
0001
0000
1000
0000
0010
0000
,  // measure 20
0100
0000
0001
0000
0010
0000
0100
0000
1000
0000
0001
0000
1000
0010
1000
0010
,  // measure 21
0000
0100
0000
0001
0010
0001
0010
0000
0200
0000
0001
0000
1300
0100
1000
0100
,  // measure 22
0000
1000
0010
1000
0001
1000
0010
0000
0200
0000
1000
0000
0310
0000
0000
0010
,  // measure 23
0000
0100
0000
0001
0000
1000
0000
0000
0020
0000
1000
0000
0001
0000
1000
0000
,  // measure 24
1030
0010
0000
1000
0001
0000
1000
0000
1001
0000
1000
0010
0000
1000
0010
0000
,  // measure 25
1000
0001
0000
0100
0000
0010
0100
0010
0100
0000
0001
0100
0000
0001
0100
0000
,  // measure 26
0010
1000
0000
0001
1000
0001
0100
0001
1000
0000
0010
1000
0000
0001
0010
0000
,  // measure 27
0200
0000
0010
0000
0320
0000
0001
0000
0032
0000
2000
0000
3003
2000
3000
0000
,  // measure 28
0001
1000
0000
0001
0000
1000
0010
0100
0001
0000
1000
0100
0000
1000
0100
0000
,  // measure 29
1000
0001
0000
0010
0000
0001
0100
0001
1000
0000
0010
0100
0000
0010
0100
0000
,  // measure 30
0001
1000
0000
0010
0000
1000
0100
1000
0100
0000
0010
0100
0000
0010
0001
0000
,  // measure 31
0002
0000
1000
0000
2003
0000
0100
0000
3200
0000
0020
0030
0300
0020
0030
0000
,  // measure 32
0100
0000
1000
0001
1000
0000
1000
0000
1001
0000
0001
0000
0100
0001
0100
0001
,  // measure 33
0000
0010
0000
0100
0010
0100
0010
0000
0001
0000
1000
0000
0001
0100
0010
0100
,  // measure 34
0001
0010
0100
0010
0001
0010
0100
0000
1000
0000
0200
0300
0200
0000
1300
0100
,  // measure 35
0000
1000
0000
0001
0000
0010
0000
0100
0010
0000
0100
1000
0000
0100
1000
0000
,  // measure 36
0001
0000
0100
0001
0100
0000
0010
0000
1000
0000
0001
0000
1000
0001
1000
0001
,  // measure 37
0000
1000
0000
0100
0000
0010
0100
0000
1000
0000
2000
3000
2000
3001
1000
0001
,  // measure 38
0000
0010
0100
0010
0000
0001
0100
0001
0010
0000
0001
0100
0001
0000
1000
0010
,  // measure 39
0000
0100
0000
1000
0000
0100
0000
0010
0100
0000
0001
0100
0000
0001
0100
0000
,  // measure 40
0001
1000
0000
0100
0000
1000
0010
1000
0010
0000
0000
0000
0000
0000
0000
0000
;
