#TITLE:We Are Not the Same Person;
#SUBTITLE:;
#ARTIST:Danny Gonzalez & Drew Gooden;
#TITLETRANSLIT:;
#SUBTITLETRANSLIT:;
#ARTISTTRANSLIT:;
#GENRE:Pop;
#CREDIT:;
#BANNER:We Are Not the Same Person-bn.png;
#BACKGROUND:We Are Not the Same Person-bg.png;
#LYRICSPATH:;
#CDTITLE:cdtitle.png;
#MUSIC:We Are Not the Same Person.ogg;
#OFFSET:-0.005000;
#SAMPLESTART:12.833000;
#SAMPLELENGTH:13.017000;
#SELECTABLE:YES;
#BPMS:0.000000=145.000000
;
#STOPS:
;
#BGCHANGES:0.000=We Are Not the Same Person.avi=1.000=1=0=0=StretchNoLoop==CrossFade==,
254.000=We Are Not the Same Person-bg.png=1.000=1=0=1===CrossFade==,
99999=-nosongbg-=1.000=0=0=0 // don't automatically add -songbackground-
;
#KEYSOUNDS:;
#ATTACKS:;

//---------------dance-single - ----------------
#NOTES:
     dance-single:
     X-Scale 11:
     Hard:
     8:
     0.517033,0.571917,0.161488,0.465465,0.000000,381.000000,364.000000,17.000000,49.000000,4.000000,0.000000,0.517033,0.571917,0.161488,0.465465,0.000000,381.000000,364.000000,17.000000,49.000000,4.000000,0.000000:
// measure 0
0000
0000
0000
0000
,  // measure 1
0000
0000
0000
0000
,  // measure 2
0000
0000
0000
0000
,  // measure 3
0000
0000
0000
0000
,  // measure 4
0000
0000
0000
0000
,  // measure 5
0000
0000
0000
0000
,  // measure 6
0000
1000
0100
0010
,  // measure 7
0001
1000
0100
0010
,  // measure 8
1001
0000
1000
0001
1000
0000
0010
0100
,  // measure 9
0001
1000
0100
0000
1100
1000
0001
0100
,  // measure 10
0020
2030
3002
0023
,  // measure 11
0230
1000
0300
1000
0001
0100
1000
0100
,  // measure 12
0001
0010
0100
2000
0000
3001
1000
0010
,  // measure 13
0100
0001
0100
0020
0000
1030
0001
0010
,  // measure 14
0200
0000
0320
0000
0032
0000
1003
0002
,  // measure 15
0000
0103
0001
1000
0001
0010
0100
1000
,  // measure 16
0100
0001
0100
1000
0100
0010
0001
2000
,  // measure 17
0000
3010
1000
0001
0010
0000
0100
0010
,  // measure 18
0001
1000
0020
1000
2030
0000
3002
0000
,  // measure 19
0000
0100
0000
0103
0001
0010
0100
0010
,  // measure 20
0001
0000
1000
0010
1000
0100
0001
0100
,  // measure 21
1000
0010
0000
0100
0010
1000
0001
0010
,  // measure 22
0100
0000
1000
0100
1000
0010
0001
0010
,  // measure 23
1000
0001
0000
0100
0001
0010
0100
1000
,  // measure 24
1100
0000
0000
1000
1001
0001
0100
0010
,  // measure 25
0100
0001
1000
0000
1100
0100
0010
0001
,  // measure 26
1000
0001
0000
0100
0101
0001
0100
1000
,  // measure 27
0100
0010
1000
1000
1010
0010
0100
0001
,  // measure 28
0020
0000
1030
0010
0001
1000
0100
0010
,  // measure 29
0100
2000
0001
3000
1001
1000
0100
0001
,  // measure 30
1000
0010
0001
1000
1001
0001
0010
1000
,  // measure 31
0010
0100
1000
0001
1000
0100
0010
0000
,  // measure 32
0011
0010
0100
0010
0001
0010
1000
0010
,  // measure 33
0001
1000
0100
0010
0001
1000
0010
0100
,  // measure 34
0001
0010
0100
1000
0001
0001
0200
0000
,  // measure 35
1300
0100
0002
0000
1003
0100
0020
0000
,  // measure 36
1030
0010
0002
0000
1003
0010
0001
1000
,  // measure 37
0100
0001
2000
0000
3010
1000
0001
1000
,  // measure 38
0100
0010
0100
1000
0001
0100
0020
0000
,  // measure 39
1030
0100
0010
0001
1000
0010
0100
0001
,  // measure 40
1000
0100
0001
0100
2000
0000
3001
1000
,  // measure 41
0010
1000
0001
0100
0020
0000
0031
0010
,  // measure 42
2000
3002
2003
3000
,  // measure 43
0200
0320
0230
0300
,  // measure 44
1000
0100
0001
0100
2000
0000
3001
1000
,  // measure 45
0200
0000
1300
0001
0100
1000
0100
0010
,  // measure 46
0100
0001
0010
0100
1000
0100
0010
0000
,  // measure 47
0100
0000
0010
0000
0110
0000
1000
0001
,  // measure 48
1001
0000
1000
1000
1100
0000
1000
0001
,  // measure 49
0100
0020
1000
0030
1010
1000
0001
0010
,  // measure 50
0200
2300
3002
0203
,  // measure 51
0320
1000
0030
1000
0010
0001
0010
0100
,  // measure 52
0001
0010
0100
2000
0000
3001
1000
0010
,  // measure 53
0001
0010
1000
0200
0000
0310
0100
1000
,  // measure 54
0002
0000
0023
0000
0230
0000
1300
0002
,  // measure 55
0000
0103
0001
1000
0001
0010
1000
0010
,  // measure 56
0001
0100
0010
0100
0001
1000
0100
0020
,  // measure 57
0000
0031
0010
0001
1000
0000
0010
0100
,  // measure 58
0001
2000
0000
3100
1000
0000
0001
0000
,  // measure 59
0100
0010
1000
0001
0010
1000
0010
0001
,  // measure 60
2000
0000
3100
0010
0110
0000
0010
0001
,  // measure 61
1000
0002
0100
0003
0101
0100
0001
1000
,  // measure 62
1001
0001
0000
0000
0000
0000
0000
0000
,  // measure 63
0000
0000
0000
MMMM
0000
0000
0000
0000
;

//---------------dance-single - ----------------
#NOTES:
     dance-single:
     X-Scale 8:
     Medium:
     6:
     0.465465,0.531129,0.199485,0.370472,0.000000,343.000000,322.000000,21.000000,39.000000,0.000000,0.000000,0.465465,0.531129,0.199485,0.370472,0.000000,343.000000,322.000000,21.000000,39.000000,0.000000,0.000000:
// measure 0
0000
0000
0000
0000
,  // measure 1
0000
0000
0000
0000
,  // measure 2
0000
0000
0000
0000
,  // measure 3
0000
0000
0000
0000
,  // measure 4
0000
0000
0000
0000
,  // measure 5
0000
0000
0000
0000
,  // measure 6
0000
0000
0000
0000
,  // measure 7
0000
0000
0000
0000
0000
0000
1000
0100
,  // measure 8
2000
0000
3000
0001
0011
0000
0100
0010
,  // measure 9
1000
0001
0000
0000
0010
0100
1000
0001
,  // measure 10
2000
3200
0302
0203
,  // measure 11
2300
0010
3000
0010
1010
0000
1000
0001
,  // measure 12
1000
0010
0100
0002
0000
0003
1000
0001
,  // measure 13
1000
0010
0100
0002
0000
0003
0010
0001
,  // measure 14
2000
0000
3020
0000
0230
0000
0310
2000
,  // measure 15
0000
3100
0000
1000
1100
0000
1000
0100
,  // measure 16
0010
0000
0100
0010
0001
0000
1000
0002
,  // measure 17
0000
0103
0000
0001
1001
0000
1000
0010
,  // measure 18
0100
0020
0000
1030
1010
0000
1000
0000
,  // measure 19
0001
0010
0000
0100
0010
0001
1000
0001
,  // measure 20
0020
0000
0030
0100
0110
0000
0010
0001
,  // measure 21
1000
0002
0100
0003
0101
0000
0100
0010
,  // measure 22
0200
0000
0300
0010
0110
0000
0100
0001
,  // measure 23
1000
0002
0000
0003
0011
0010
0100
1000
,  // measure 24
0002
0000
0003
1000
0001
0000
1000
0010
,  // measure 25
1000
0100
0010
0000
0110
0000
0010
0001
,  // measure 26
1000
0001
0000
0100
0001
0000
0001
1000
,  // measure 27
0010
1000
0100
1000
0100
0000
1000
0010
,  // measure 28
2000
0000
3001
0010
1000
0010
0001
0010
,  // measure 29
0100
2000
0001
3000
1000
0000
0010
0000
,  // measure 30
1000
0010
1000
0001
0001
0000
0100
0000
,  // measure 31
0010
0100
1000
0100
0001
0100
0010
0000
,  // measure 32
0110
0100
0001
0100
0010
0100
0001
0100
,  // measure 33
0010
0001
0010
1000
0010
0001
0010
1000
,  // measure 34
0001
0010
0100
1000
0001
0001
1000
0000
,  // measure 35
0100
0010
0100
0000
1000
0001
1000
0000
,  // measure 36
0001
0100
0001
0000
1000
0100
0010
0001
,  // measure 37
0100
0010
1000
0000
0001
0010
1000
0010
,  // measure 38
0100
1000
0001
1000
0010
0100
0001
0000
,  // measure 39
1000
0100
0010
0001
1000
0010
0100
0001
,  // measure 40
0101
0000
0100
0010
0100
0000
0001
0100
,  // measure 41
0001
0000
1000
0100
1000
0000
0001
0010
,  // measure 42
0200
0320
0230
0300
,  // measure 43
0200
0320
0230
0300
,  // measure 44
1000
0000
0001
1000
0001
0000
0010
0100
,  // measure 45
0010
0000
0100
1000
0100
1000
0000
0000
,  // measure 46
0001
0010
1000
0010
0100
1000
0000
0000
,  // measure 47
0001
0000
1000
0000
1001
0000
1000
0100
,  // measure 48
0020
0000
0030
0001
0011
0000
0001
1000
,  // measure 49
0010
2000
0001
3000
1001
1000
0100
0010
,  // measure 50
0002
0203
2300
3200
,  // measure 51
0302
1000
0003
1000
1001
0001
0010
1000
,  // measure 52
0001
0100
1000
0001
0000
1000
0100
0001
,  // measure 53
1000
0010
0001
1000
0000
0001
0100
0010
,  // measure 54
0200
0000
0302
0000
2003
0000
3100
0020
,  // measure 55
0000
0031
0000
1000
1001
0001
1000
0001
,  // measure 56
0010
1000
0010
0001
0010
0100
1000
0001
,  // measure 57
0000
1000
0100
0000
1100
0000
1000
0100
,  // measure 58
0010
0001
0000
1000
1001
0000
0001
0000
,  // measure 59
0010
0000
0100
0000
1000
0001
1000
0100
,  // measure 60
0020
0000
0030
0001
0011
0000
0010
0100
,  // measure 61
1000
0001
1000
0000
1001
0000
0001
0100
,  // measure 62
0001
0100
0000
0000
0000
0000
0000
0000
;

//---------------dance-single - ----------------
#NOTES:
     dance-single:
     X-Scale 6:
     Easy:
     4:
     0.321619,0.412269,0.094993,0.075994,0.000000,237.000000,227.000000,10.000000,8.000000,0.000000,0.000000,0.321619,0.412269,0.094993,0.075994,0.000000,237.000000,227.000000,10.000000,8.000000,0.000000,0.000000:
// measure 0
0000
0000
0000
0000
,  // measure 1
0000
0000
0000
0000
,  // measure 2
0000
0000
0000
0000
,  // measure 3
0000
0000
0000
0000
,  // measure 4
0000
0000
0000
0000
,  // measure 5
0000
0000
0000
0000
,  // measure 6
0000
0000
0000
0000
,  // measure 7
0000
0000
0000
0000
,  // measure 8
0001
0000
0000
1000
1000
0000
0100
0000
,  // measure 9
0000
0010
0010
0000
0011
0000
0001
0000
,  // measure 10
1000
0000
0000
0010
0010
0000
0100
0000
,  // measure 11
0001
1000
0001
1000
0001
0000
0100
0000
,  // measure 12
0010
0000
0000
0100
0100
0000
0001
0000
,  // measure 13
0000
1000
1000
0000
1001
0000
1000
0000
,  // measure 14
0100
0000
0000
1000
1000
0000
0001
0000
,  // measure 15
0010
0100
0010
0100
0010
0000
0001
0000
,  // measure 16
1000
0000
0000
0010
0010
0000
0100
0000
,  // measure 17
0000
0001
0001
0000
0011
0000
0010
0000
,  // measure 18
0100
2000
3002
2003
,  // measure 19
0000
0010
0010
0000
3010
0000
1000
0000
,  // measure 20
1001
0000
0000
0001
0001
0000
1000
0000
,  // measure 21
0010
1000
0000
0000
1010
0000
1000
0000
,  // measure 22
0001
0000
0000
0010
0010
0000
0100
0000
,  // measure 23
1000
0001
0000
1000
0001
0000
0000
0000
,  // measure 24
0011
0000
0000
0001
0001
0000
0000
0000
,  // measure 25
1000
0010
1000
0000
,  // measure 26
0001
0000
0000
0100
0100
0000
0000
0000
,  // measure 27
0010
0000
0100
0001
0100
0000
0000
0000
,  // measure 28
0001
0000
0000
0010
0010
0000
0000
0000
,  // measure 29
0100
0010
0100
0000
,  // measure 30
1000
0000
0000
0001
0001
0000
0000
0000
,  // measure 31
1000
0000
0010
1000
0010
0000
0000
0000
,  // measure 32
1001
1000
0100
1000
,  // measure 33
0001
0010
0100
0010
,  // measure 34
0001
0000
1000
0000
0100
1000
0100
0000
,  // measure 35
0010
0001
0010
0000
0001
1000
0001
0000
,  // measure 36
0100
0010
0100
0000
0001
0100
0010
0100
,  // measure 37
0001
0100
0010
0000
1000
0000
0001
0000
,  // measure 38
1000
0100
0010
0100
,  // measure 39
1000
0001
0010
0100
,  // measure 40
1000
0000
0000
0000
,  // measure 41
0001
0000
0000
0000
,  // measure 42
0010
0010
0010
0000
,  // measure 43
0010
0010
0010
0000
,  // measure 44
0100
0000
0000
0000
,  // measure 45
1000
0000
0000
0000
,  // measure 46
0001
0100
0010
1000
,  // measure 47
0001
0000
0100
0000
0010
0000
1000
0001
,  // measure 48
1000
0000
0000
0010
0010
0000
0100
0010
,  // measure 49
0100
0001
1000
0000
1001
0000
1000
0000
,  // measure 50
0001
0000
0010
0100
0010
0000
0001
0000
,  // measure 51
1000
0010
0100
0010
1000
0000
0001
0000
,  // measure 52
0010
0000
0100
0010
0100
0000
1000
0000
,  // measure 53
0001
0010
0100
0010
0001
0000
1000
0000
,  // measure 54
0001
0000
0100
0001
0100
0000
0010
0000
,  // measure 55
0100
0001
1000
0001
0100
0000
0010
0000
,  // measure 56
1000
0000
0100
1000
0100
0000
0010
0000
,  // measure 57
0001
1000
0010
1000
0001
0000
0010
0000
,  // measure 58
0100
2000
3002
0023
,  // measure 59
0000
0100
0100
0000
0130
0010
0001
1000
,  // measure 60
0002
0000
0003
0010
0010
0000
0001
0100
,  // measure 61
0010
2000
0001
3000
1001
0000
1000
0000
,  // measure 62
1100
0000
0000
0000
;

//---------------dance-single - ----------------
#NOTES:
     dance-single:
     X-Scale 2:
     Beginner:
     1:
     0.122134,0.147239,0.000000,0.000000,0.000000,90.000000,90.000000,0.000000,0.000000,0.000000,0.000000,0.122134,0.147239,0.000000,0.000000,0.000000,90.000000,90.000000,0.000000,0.000000,0.000000,0.000000:
// measure 0
0000
0000
0000
0000
,  // measure 1
0000
0000
0000
0000
,  // measure 2
0000
0000
0000
0000
,  // measure 3
0000
0000
0000
0000
,  // measure 4
0000
0000
0000
0000
,  // measure 5
0000
0000
0000
0000
,  // measure 6
0000
0000
0000
0000
,  // measure 7
0000
0000
0000
0000
,  // measure 8
1000
0000
0100
0000
,  // measure 9
0000
0000
1000
0000
,  // measure 10
0001
0000
1000
0000
,  // measure 11
0000
0000
0001
0000
,  // measure 12
0010
0000
0001
0000
,  // measure 13
0000
0000
1000
0000
,  // measure 14
0010
0000
1000
0000
,  // measure 15
0000
0000
0010
0000
,  // measure 16
0100
0000
0010
0000
,  // measure 17
0000
0000
1000
0000
,  // measure 18
0100
0000
1000
0000
,  // measure 19
0000
0000
0001
0000
,  // measure 20
1000
0000
0001
0000
,  // measure 21
0000
0000
0100
0000
,  // measure 22
0010
0000
0100
0000
,  // measure 23
0000
0000
0001
0000
,  // measure 24
1000
0000
0001
0000
,  // measure 25
1000
0000
0010
0000
,  // measure 26
0100
0000
0010
0000
,  // measure 27
0000
0000
1000
0000
,  // measure 28
1000
0000
0100
0000
,  // measure 29
0010
0000
0100
0000
,  // measure 30
1000
0000
0001
0000
,  // measure 31
0000
0000
0010
0000
,  // measure 32
0010
0000
0001
0000
,  // measure 33
0010
0000
0001
0000
,  // measure 34
1000
0000
0001
0000
,  // measure 35
1000
0000
0010
0000
,  // measure 36
0100
0000
0010
0000
,  // measure 37
0100
0000
0001
0000
,  // measure 38
0100
0000
0001
0000
,  // measure 39
1000
0000
0001
0000
,  // measure 40
1000
0000
0000
0000
,  // measure 41
0100
0000
0000
0000
,  // measure 42
1000
0000
0000
0000
,  // measure 43
0000
0000
0000
0000
,  // measure 44
0001
0000
0000
0000
,  // measure 45
0100
0000
0000
0000
,  // measure 46
0001
0000
0000
0000
,  // measure 47
0000
0000
1000
0000
,  // measure 48
1000
0000
0100
0000
,  // measure 49
0010
0000
0001
0000
,  // measure 50
1000
0000
0001
0000
,  // measure 51
0100
0000
0010
0000
,  // measure 52
1000
0000
0001
0000
,  // measure 53
0100
0000
0001
0000
,  // measure 54
1000
0000
0100
0000
,  // measure 55
0010
0000
0100
0000
,  // measure 56
1000
0000
0001
0000
,  // measure 57
0010
0000
0001
0000
,  // measure 58
1000
0000
0100
0000
,  // measure 59
0010
0000
0100
0000
,  // measure 60
1000
0000
0001
0000
,  // measure 61
0100
0000
0001
0000
,  // measure 62
1000
0000
0000
0000
;
