#TITLE:Way Back Home;
#SUBTITLE:;
#ARTIST:SHAUN;
#TITLETRANSLIT:;
#SUBTITLETRANSLIT:;
#ARTISTTRANSLIT:;
#GENRE:Tropical K-Pop;
#CREDIT:;
#BANNER:Way Back Home-bn.png;
#BACKGROUND:Way Back Home-bg.png;
#LYRICSPATH:;
#CDTITLE:cdtitle.png;
#MUSIC:Way Back Home.ogg;
#OFFSET:-0.300000;
#SAMPLESTART:77.099998;
#SAMPLELENGTH:19.200001;
#SELECTABLE:YES;
#BPMS:0.000000=100.000000
;
#STOPS:
;
#BGCHANGES:
;
#KEYSOUNDS:;
#ATTACKS:;

//---------------dance-single - ----------------
#NOTES:
     dance-single:
     X-Scale 10:
     Hard:
     7:
     0.411591,0.447574,0.025497,0.220972,0.382451,339.000000,336.000000,3.000000,26.000000,0.000000,0.000000,0.411591,0.447574,0.025497,0.220972,0.382451,339.000000,336.000000,3.000000,26.000000,0.000000,0.000000:
0000
0000
0000
0000
,
0000
0000
0000
0000
,
0000
0000
0000
0000
,
0000
0000
0000
0000
0000
0000
1000
0100
,
0010
0000
0001
0010
0000
0000
0001
0000
2000
0000
0000
0000
3010
0000
1000
0000
,
0001
0000
1000
0100
0000
0000
1000
0000
0002
0000
0000
0000
0013
0000
0100
0000
,
1000
0000
0001
1000
0000
0000
0010
0000
0200
0000
0000
0000
0301
0000
0100
0000
,
0010
0000
1000
0200
0000
0000
1300
0000
0002
0000
0000
0000
0013
0000
0001
0000
,
0011
0000
0000
1000
0001
0000
1000
0000
0100
0000
0000
0000
0010
0000
0001
0000
,
1000
0000
0000
0010
1000
0000
0001
0000
0010
0000
0000
0000
0100
0000
1000
0000
,
0001
0000
0000
0010
0001
0000
1000
0000
0010
0000
0000
0000
0100
0000
0010
0000
,
1000
0000
0000
0001
1000
0000
0100
0000
0010
0000
0000
0000
0001
0000
1000
0000
,
0010
0000
0000
0100
0010
0000
1000
0000
0002
0000
0000
0000
0023
0000
0000
0000
,
0031
0000
0000
1000
0001
0000
0010
0000
0100
0000
0000
0000
1000
0000
0001
0000
,
0100
0000
0000
0010
0100
0000
0001
0000
1000
0000
0000
0000
0100
0000
0010
0000
,
0001
0000
0000
1000
0001
0000
0100
0000
0010
0000
0000
0000
1000
0000
0100
0000
,
0010
0000
0000
0001
0000
1000
0100
0010
0001
0000
0100
0010
0000
1000
0001
0000
,
0100
0000
0000
0010
0000
0000
1000
0100
1000
0000
0001
0100
0000
0010
1000
0000
,
0001
0000
0000
0010
0000
0001
0010
0100
1000
0000
0001
0010
0000
0100
1000
0000
,
0001
0000
0000
1000
0000
0000
0100
1000
0100
0000
0010
0001
0000
1000
0100
0000
,
0010
0000
0000
0001
0000
0000
0100
0010
1000
0000
0001
1000
0000
0010
0100
0000
,
0001
0000
0000
1000
0000
0000
0001
0000
0100
0000
0010
0100
0000
0000
0001
0000
,
0200
0000
0310
0100
0002
0000
1003
0010
,
2000
0000
0000
0000
3001
0000
0010
0000
0002
0000
0000
1000
1003
0000
0001
0000
,
1001
0000
1000
0100
0000
0000
1000
0000
0001
0000
0000
0010
0001
1000
0001
0000
,
0100
0000
0010
0100
0000
0000
0001
0000
1000
0000
0000
0010
0100
0001
1000
0100
,
1000
0000
0001
0010
0000
0000
0001
0000
1000
0000
0000
0100
1000
0001
0100
0010
,
1000
0001
0000
0100
0000
0010
1000
0000
0001
0000
0000
0010
0001
1000
0001
0000
,
0010
0000
0100
1000
0000
0001
1000
0000
0100
0000
0000
1000
0100
1000
0001
0000
,
0010
0001
0000
1000
0000
0001
0010
0000
0100
0000
0000
1000
0000
0001
1000
0000
,
0200
0000
0300
1000
0100
0000
1000
0000
0001
0000
0000
0010
0000
0001
0010
0000
,
0200
0000
0300
1000
0100
0000
1000
0000
0001
0000
0000
0010
0001
0000
1000
0000
,
1001
0000
0001
0010
0000
0000
0100
0000
2000
0000
0000
0001
3001
0000
0100
0000
,
0010
0000
1000
0010
0000
0000
0100
0000
0002
0000
0000
0000
0013
0000
0001
0000
,
1000
0000
0001
0010
0000
0000
0001
0000
2000
0000
0000
0100
3100
0000
1000
0000
,
0001
0000
0010
0001
0000
0000
1000
0000
0002
0000
0000
0000
0013
0000
0100
0000
,
1000
0000
0001
1000
0000
0000
0100
0000
1000
0000
0000
0001
0010
0000
0001
0000
,
1000
0000
0000
0010
0100
0000
0001
0000
1000
0000
0000
0100
1000
0000
0001
0000
,
0100
0000
0000
0010
0100
0000
0001
0000
0010
0000
0000
0000
1000
0000
0010
0000
,
0001
0000
1000
0001
0000
0000
1000
0000
0200
0000
0000
0000
0310
0000
0100
0000
,
1000
0000
0000
0010
0000
0000
1000
0000
0001
0000
0000
0000
0010
0000
0100
0000
,
1000
0000
0000
0001
0000
0000
1000
0000
0100
0000
0000
0000
0010
0000
0001
0000
,
1000
0000
0000
0010
0000
0000
0100
0000
0001
0000
0000
0000
0010
0000
0100
0000
,
1000
0000
0000
0001
0000
0000
1000
0000
0100
0000
0000
0000
0010
0000
0001
0000
,
1000
0000
0001
1000
0000
0000
0100
0000
0020
0000
0000
0000
0032
0000
0000
0000
,
1003
0000
0001
0010
0000
0000
0001
0000
0100
0000
0010
0100
0000
0000
0001
0000
,
1000
0000
0100
1000
0000
0000
0001
0000
0020
0000
0000
0000
0130
0000
1000
0000
,
0002
0000
0000
0000
0003
0000
2000
0000
3200
0000
0000
0000
0300
0000
2000
0000
0000
0000
3000
0002
0000
0000
0000
0000
0000
0000
0000
0000
0003
0000
0000
0000
;

//---------------dance-single - ----------------
#NOTES:
     dance-single:
     X-Scale 7:
     Medium:
     5:
     0.329030,0.325509,0.025497,0.331458,0.191226,271.000000,268.000000,3.000000,39.000000,0.000000,0.000000,0.329030,0.325509,0.025497,0.331458,0.191226,271.000000,268.000000,3.000000,39.000000,0.000000,0.000000:
// measure 0
0000
0000
0000
0000
,  // measure 1
0000
0000
0000
0000
,  // measure 2
0000
0000
0000
0000
,  // measure 3
0000
0000
0000
0000
,  // measure 4
0001
0000
0000
0010
0000
0000
0001
0000
2000
0000
0000
0000
3200
0000
0000
0000
,  // measure 5
1300
0000
0000
0001
0000
0000
0100
0000
0001
0000
0000
0000
0010
0000
0100
0000
,  // measure 6
1000
0000
0000
0001
0000
0000
1000
0000
0100
0000
0000
0000
0010
0000
0001
0000
,  // measure 7
2000
3000
0020
2030
0000
0000
3002
0003
0020
0000
0000
0000
0031
0000
0010
0000
,  // measure 8
0011
0000
0000
1000
0000
0000
0010
0000
2000
0000
0000
0001
3001
0000
1000
0000
,  // measure 9
0100
0000
0000
0010
0000
0000
0001
0000
2000
0000
0000
0000
3100
0000
1000
0000
,  // measure 10
0001
0000
0000
0010
0000
0000
0001
0000
0200
0000
0000
0010
0310
0000
0100
0000
,  // measure 11
0001
0000
0000
1000
0000
0000
0001
0000
0020
0000
0000
0000
1030
0000
0010
0000
,  // measure 12
0001
0000
0000
1000
0000
0000
0001
0000
0020
0000
0000
0000
0230
0000
0000
0000
,  // measure 13
1300
0000
0000
0001
0000
0000
1000
0000
0200
0000
0000
0000
0310
0000
0100
0000
,  // measure 14
1000
0000
0000
0001
0000
0000
0100
0000
0002
0000
0000
0010
0013
0000
0001
0000
,  // measure 15
1000
0000
0000
0001
0000
0000
0100
0000
0020
0000
0000
0000
0031
0000
0010
0000
,  // measure 16
0110
0000
0100
0001
1000
0000
0010
0100
,  // measure 17
0001
0000
1000
0100
0010
0000
0100
0010
,  // measure 18
0001
0000
1000
0001
0100
0000
0010
0100
,  // measure 19
0001
0000
1000
0001
0010
0000
0100
1000
,  // measure 20
0001
0000
1000
0100
0001
0000
0001
0100
,  // measure 21
1000
0000
0001
0010
0100
0000
0100
0010
,  // measure 22
0002
0000
2003
3200
2300
0000
3002
0000
,  // measure 23
0203
0000
0320
2030
3020
0000
0230
0000
,  // measure 24
0301
0000
0000
0100
0000
0000
0001
0000
0010
0000
0000
0100
0000
0000
1000
0000
,  // measure 25
0002
0000
0003
1000
0000
0000
0100
0000
1000
0000
0000
0001
0000
0000
0100
0000
,  // measure 26
0001
0000
0000
1000
0000
0000
0001
0000
0010
0000
0000
0001
0000
0000
1000
0000
,  // measure 27
0020
0000
0030
0100
0000
0000
0001
0000
1000
0000
0000
0100
0000
0000
1000
0000
,  // measure 28
0001
0000
0000
0100
0000
0000
0010
0000
1000
0000
0000
0000
0001
0000
0010
0000
,  // measure 29
0001
0000
0000
1000
0000
0000
0010
0000
1000
0000
0000
0000
0001
0000
0100
0000
,  // measure 30
0001
0000
0000
1000
0000
0000
0010
0000
0100
0000
0000
0000
0001
0000
0100
0000
,  // measure 31
0001
0000
0000
1000
0000
0000
0100
0000
0010
0000
0000
0000
0001
0000
1000
0000
,  // measure 32
1001
0000
0001
0010
0000
0000
0001
0000
1000
0000
0000
0000
0100
0000
1000
0000
,  // measure 33
0001
0000
0010
0001
0000
0000
1000
0000
0001
0000
0000
0000
0100
0000
0010
0000
,  // measure 34
0100
0000
0001
0100
0000
0000
0001
0000
1000
0000
0000
0000
0100
0000
1000
0000
,  // measure 35
0001
0000
0100
0001
0000
0000
1000
0000
0001
0000
0000
0000
0010
0000
0100
0000
,  // measure 36
1000
0000
0001
1000
0000
0000
0001
0000
0020
0000
0000
0000
0230
0000
0000
0000
,  // measure 37
1300
0000
0100
0010
0000
0000
0001
0000
0200
0000
0000
0000
0301
0000
0100
0000
,  // measure 38
0010
0000
1000
0010
0000
0000
1000
0000
0001
0000
0000
0000
0010
0000
0100
0000
,  // measure 39
1000
0000
0001
0100
0000
0000
0010
0000
0100
0000
0000
0000
0001
0000
0010
0000
,  // measure 40
0001
0000
0000
1000
0000
0000
0001
0000
0010
0000
0000
0000
0100
0000
1000
0000
,  // measure 41
0001
0000
0000
1000
0000
0000
0010
0000
0100
0000
0000
0000
0001
0000
0010
0000
,  // measure 42
0001
0000
0000
0100
0000
0000
0010
0000
1000
0000
0000
0000
0001
0000
0100
0000
,  // measure 43
0001
0000
0000
1000
0000
0000
0100
0000
0010
0000
0000
0000
0001
0000
0100
0000
,  // measure 44
0001
0000
0000
0100
0000
0000
0010
0000
0200
0000
0000
0000
0302
0000
0000
0000
,  // measure 45
1003
0000
0000
0001
0000
0000
1000
0000
0200
0000
0000
0000
0300
0000
0010
0000
,  // measure 46
0100
0000
0000
1000
0000
0000
0001
0000
0010
0000
0000
0000
0100
0000
1000
0000
,  // measure 47
0002
0000
0000
0000
0003
0000
2000
0000
3200
0000
0000
0000
0300
0000
2000
0000
0000
0000
3000
0002
0000
0000
0000
0000
0000
0000
0000
0000
0003
0000
0000
0000
;

//---------------dance-single - ----------------
#NOTES:
     dance-single:
     X-Scale 3:
     Easy:
     3:
     0.218544,0.239670,0.033996,0.084989,0.000000,180.000000,176.000000,4.000000,10.000000,0.000000,0.000000,0.218544,0.239670,0.033996,0.084989,0.000000,180.000000,176.000000,4.000000,10.000000,0.000000,0.000000:
// measure 0
0000
0000
0000
0000
,  // measure 1
0000
0000
0000
0000
,  // measure 2
0000
0000
0000
0000
,  // measure 3
0000
0000
0000
0000
,  // measure 4
1000
0000
0010
1000
,  // measure 5
0010
0000
0100
0001
,  // measure 6
0100
0000
0001
1000
,  // measure 7
0001
0000
0000
0000
,  // measure 8
1100
0000
1000
0000
0100
0000
0010
0001
,  // measure 9
0010
0000
0001
0000
0100
0000
0010
1000
,  // measure 10
0010
0000
0100
0000
0001
0000
1000
0001
,  // measure 11
1000
0000
0100
0000
0010
0000
0001
0010
,  // measure 12
0001
0100
0010
1000
,  // measure 13
0001
0000
0010
0000
0100
0000
1000
0010
,  // measure 14
1000
0000
0100
0000
0010
0000
0001
0010
,  // measure 15
0001
0100
0010
1000
,  // measure 16
1001
1000
0001
0100
,  // measure 17
0010
1000
0100
0010
,  // measure 18
0100
1000
0001
0100
,  // measure 19
0001
1000
0100
0010
,  // measure 20
0100
1000
0001
0100
,  // measure 21
0001
1000
0100
0010
,  // measure 22
0002
0023
0230
2300
,  // measure 23
3002
0023
0230
2300
,  // measure 24
3001
0000
1000
0000
0100
0000
1000
0100
,  // measure 25
0010
0000
0100
0000
1000
0000
0001
0100
,  // measure 26
0010
0000
0100
0000
0001
0000
0010
0100
,  // measure 27
1000
0000
0001
0000
1000
0000
0100
0010
,  // measure 28
0001
0000
1000
0000
0010
0000
0100
0010
,  // measure 29
1000
0000
0001
0000
0100
0000
0010
0100
,  // measure 30
0001
0000
1000
0000
0010
0000
0100
0010
,  // measure 31
1000
0001
1000
0100
,  // measure 32
1100
0000
0100
0000
0010
0000
0001
1000
,  // measure 33
0001
0000
0100
0000
0010
0000
1000
0010
,  // measure 34
1000
0000
0001
0000
0010
0000
0100
0010
,  // measure 35
0100
0000
0010
0000
0001
0000
1000
0001
,  // measure 36
1000
0100
0020
0032
,  // measure 37
1003
0000
0001
0000
0100
0000
0001
0100
,  // measure 38
0001
0000
0010
0000
0100
0000
1000
0100
,  // measure 39
1000
0010
0100
0001
,  // measure 40
1001
0000
0100
0010
,  // measure 41
0001
0000
1000
0010
,  // measure 42
0100
0000
0001
0010
,  // measure 43
0100
0000
1000
0001
,  // measure 44
1000
0000
0100
0000
,  // measure 45
0010
0000
0001
0000
,  // measure 46
1000
0000
0001
0000
,  // measure 47
1000
0000
0000
0000
;

//---------------dance-single - ----------------
#NOTES:
     dance-single:
     X-Scale 1:
     Beginner:
     1:
     0.084989,0.119835,0.016998,0.000000,0.000000,70.000000,68.000000,2.000000,0.000000,0.000000,0.000000,0.084989,0.119835,0.016998,0.000000,0.000000,70.000000,68.000000,2.000000,0.000000,0.000000,0.000000:
// measure 0
0000
0000
0000
0000
,  // measure 1
0000
0000
0000
0000
,  // measure 2
0000
0000
0000
0000
,  // measure 3
0000
0000
0000
0000
,  // measure 4
1000
0000
0000
0000
,  // measure 5
0100
0000
0000
0000
,  // measure 6
0010
0000
0000
0000
,  // measure 7
0001
0000
0000
0000
,  // measure 8
1001
0000
0010
0000
,  // measure 9
0001
0000
1000
0000
,  // measure 10
0001
0000
0010
0000
,  // measure 11
0100
0000
0010
0000
,  // measure 12
0001
0000
1000
0000
,  // measure 13
0010
0000
1000
0000
,  // measure 14
0001
0000
0010
0000
,  // measure 15
0001
0000
1000
0000
,  // measure 16
0100
0000
0000
0000
,  // measure 17
1000
0000
0000
0000
,  // measure 18
0001
0000
0000
0000
,  // measure 19
1000
0000
0000
0000
,  // measure 20
0100
0000
0000
0000
,  // measure 21
0010
0000
0000
0000
,  // measure 22
0001
0000
0100
0000
,  // measure 23
0001
0000
0100
0000
,  // measure 24
0001
0000
0000
0000
,  // measure 25
0010
0000
0000
0000
,  // measure 26
0100
0000
0000
0000
,  // measure 27
1000
0000
0000
0000
,  // measure 28
0001
0000
0000
0000
,  // measure 29
1000
0000
0000
0000
,  // measure 30
0100
0000
1000
0000
,  // measure 31
0100
0000
1000
0000
,  // measure 32
0101
0000
0100
0000
,  // measure 33
0001
0000
1000
0000
,  // measure 34
0001
0000
0010
0000
,  // measure 35
0100
0000
0010
0000
,  // measure 36
0001
0000
1000
0000
,  // measure 37
0100
0000
0010
0000
,  // measure 38
0001
0000
0100
0000
,  // measure 39
0010
0000
1000
0000
,  // measure 40
0001
0000
0100
0000
,  // measure 41
0001
0000
1000
0000
,  // measure 42
0100
0000
1000
0000
,  // measure 43
0001
0000
0010
0000
,  // measure 44
0100
0000
0000
0000
,  // measure 45
1000
0000
0000
0000
,  // measure 46
0001
0000
0000
0000
,  // measure 47
1000
0000
0000
0000
;
