#TITLE:WTF;
#SUBTITLE:;
#ARTIST:HYPER CRUSH;
#TITLETRANSLIT:;
#SUBTITLETRANSLIT:;
#ARTISTTRANSLIT:;
#GENRE:Electro House;
#CREDIT:;
#BANNER:WTF-bn.png;
#BACKGROUND:WTF-bg.png;
#LYRICSPATH:;
#CDTITLE:cdtitle.png;
#MUSIC:WTF.ogg;
#OFFSET:-0.002000;
#SAMPLESTART:6.690000;
#SAMPLELENGTH:29.500000;
#SELECTABLE:YES;
#DISPLAYBPM:65.000000:130.000000;
#BPMS:0.000000=130.000000
,48.000000=260.000000
,49.000000=130.000000
,64.000000=260.000000
,65.000000=130.000000
,80.000000=65.000000
,84.000000=130.000000
,164.000000=260.000000
,165.000000=130.000000
,180.000000=260.000000
,181.000000=130.000000
,192.000000=65.000000
,194.000000=130.000000
;
#STOPS:48.000000=0.231000,
64.000000=0.231000,
164.000000=0.231000,
180.000000=0.231000
;
#BGCHANGES:
;
#KEYSOUNDS:;
#ATTACKS:;

//---------------dance-single - ----------------
#NOTES:
     dance-single:
     X-Scale 12:
     Hard:
     8:
     0.562790,0.710433,0.153254,0.225373,0.148746,437.000000,420.000000,17.000000,25.000000,0.000000,0.000000,0.562790,0.710433,0.153254,0.225373,0.148746,437.000000,420.000000,17.000000,25.000000,0.000000,0.000000:
// measure 0
0000
0000
0000
0000
,  // measure 1
0000
0000
0000
0000
,  // measure 2
0000
0000
0000
0000
,  // measure 3
0000
0000
0000
0000
0000
0001
0010
0100
,  // measure 4
1002
0000
1003
2000
0010
3010
1000
0002
,  // measure 5
0000
0000
1003
0001
0100
0001
0010
0010
,  // measure 6
0012
0000
0000
0203
0000
0001
0301
0100
,  // measure 7
0100
0001
1000
0100
0010
0100
1000
0001
,  // measure 8
0100
0000
0001
0000
0010
0100
0010
0000
0001
0000
0100
0000
0010
1000
0010
0000
,  // measure 9
0100
0010
0001
0010
1000
0001
0100
0100
,  // measure 10
0110
0000
0010
0000
1000
0001
1000
0000
0010
0000
0100
0000
0001
0000
0010
0000
,  // measure 11
0001
0010
0100
1000
0001
0010
0100
1000
0001
0010
0100
1000
0001
0010
0100
1000
,  // measure 12
0001
0000
0110
0010
0001
0000
1000
0001
,  // measure 13
0100
0000
0001
0001
0010
0001
0001
1000
,  // measure 14
0100
0000
0000
0000
1000
0000
0010
0000
1000
0100
0010
0000
0100
0000
0010
0000
,  // measure 15
0001
0000
0010
0000
0100
0000
1000
0000
0001
0000
0000
0000
0001
0100
0001
0000
,  // measure 16
0100
0000
0110
0010
1000
0000
0001
0100
,  // measure 17
0010
0000
0100
0100
0010
0100
0100
0010
,  // measure 18
0001
0000
0010
0000
1000
0000
0100
0000
0100
0010
0001
0000
1000
0000
0010
0000
,  // measure 19
0001
1000
0100
0001
0010
0000
0010
0001
,  // measure 20
0011
0000
0000
0100
0001
0000
0000
1000
0100
0001
0100
1000
0010
0100
0001
1000
,  // measure 21
1001
1000
0000
0001
0010
1000
0000
0001
,  // measure 22
0100
0000
1000
0000
0100
0000
1000
0000
0001
0000
0010
0000
0100
0000
1000
0100
,  // measure 23
1000
0010
0000
1000
0010
0001
0000
1000
,  // measure 24
0100
0001
0001
0010
0100
0010
0001
0100
,  // measure 25
0101
0001
0000
1000
0100
0001
0000
1000
,  // measure 26
0010
0001
0100
0001
0010
0100
1000
0001
,  // measure 27
1000
0100
0010
0100
0100
0010
0001
0200
,  // measure 28
0010
0300
0100
0001
1000
0020
0031
0020
,  // measure 29
1030
0100
0000
1000
0010
0001
0000
1000
,  // measure 30
0100
0001
0100
1000
0100
0010
1000
0001
,  // measure 31
0100
0001
0000
0001
0010
1000
0000
0001
,  // measure 32
0100
1000
0001
1000
0001
1000
0020
0000
,  // measure 33
0130
0000
0010
0100
0010
0000
1000
0000
0100
0000
0010
0000
0001
0000
0100
0000
,  // measure 34
0010
0000
0100
0010
0100
0000
0010
0000
1000
0000
0001
0000
1000
0000
0100
0000
,  // measure 35
1000
0000
0010
0100
0010
0000
1000
0000
0001
0000
0010
0000
0100
0000
0001
0000
,  // measure 36
1100
1100
0101
0101
1100
0010
0100
0010
,  // measure 37
2000
0000
3010
2000
0000
0100
3100
0020
,  // measure 38
0000
0000
0000
0000
0031
0000
0010
0000
1000
0000
0010
0000
0001
0100
0001
0000
,  // measure 39
0020
0000
0130
0020
0000
0031
0010
0100
,  // measure 40
1000
0010
0100
0001
1000
0010
1000
0100
,  // measure 41
1100
0000
1001
0001
0100
0000
0001
0010
,  // measure 42
0100
0000
0000
0010
0100
0000
0010
0000
0001
0000
1000
0000
0010
0000
0010
0000
,  // measure 43
0100
0000
0000
0001
1000
0000
0100
0000
0010
0000
0100
0000
1000
0000
0001
0000
,  // measure 44
0010
0000
1000
0000
0001
0000
0100
0000
1000
0000
0000
0000
0010
0100
0010
0000
,  // measure 45
0110
0000
1001
0100
0010
0000
0001
0100
,  // measure 46
0010
0000
0000
1000
0010
0000
1000
0000
0100
0000
0010
0000
0100
0000
0100
0000
,  // measure 47
1000
0000
0000
1000
0001
0000
0100
0000
0001
0000
0010
0000
0100
0000
1000
0000
,  // measure 48
0001
0000
0100
0000
0010
0000
1000
0000
0002
0000
0000
0003
1000
0000
0010
0000
2000
0000
0000
0000
0000
0000
0000
0000
3100
0000
0000
0000
1000
0000
0000
0000
,  // measure 49
0200
0000
0301
0100
1000
0010
0100
0001
,  // measure 50
1000
0100
0010
0001
0200
0000
1300
0200
,  // measure 51
0001
0301
0002
0000
0013
0001
1000
0010
,  // measure 52
1000
0100
0010
0001
2000
0000
3100
0010
,  // measure 53
0002
0000
0103
0001
1000
0010
1000
0100
,  // measure 54
0010
0001
0100
0010
0200
0000
1300
0200
,  // measure 55
0001
0301
0002
0000
1003
0100
0010
0001
,  // measure 56
1000
0010
0100
0001
1000
0100
0010
0001
,  // measure 57
1000
0010
0100
0001
1000
0100
0010
0001
,  // measure 58
1000
0010
0100
0001
0000
0000
0000
0000
;

//---------------dance-single - ----------------
#NOTES:
     dance-single:
     X-Scale 10:
     Medium:
     7:
     0.448171,0.473622,0.090149,0.432717,0.027045,348.000000,338.000000,10.000000,48.000000,0.000000,0.000000,0.448171,0.473622,0.090149,0.432717,0.027045,348.000000,338.000000,10.000000,48.000000,0.000000,0.000000:
0000
0000
0000
0000
,
0000
0000
0000
0000
,
0000
0000
0000
0000
,
0000
0000
0000
0000
,
1100
0000
1000
0100
0000
1000
0010
0001
,
0000
0000
0001
0010
1000
0100
0010
0010
,
0002
0000
0000
2003
0000
0001
3001
0001
,
0100
1000
0100
0001
0010
0001
0100
0010
,
1000
0000
0100
1000
0000
0001
0010
1000
,
0000
0000
1000
0010
0001
0100
0001
0001
,
1000
0000
0010
0100
0000
0001
0010
1000
,
0010
0001
0100
0010
0100
0000
0100
0010
,
0100
0000
0100
0010
0100
0000
0100
0010
,
0100
0000
0100
0100
0000
0100
0001
1000
,
0002
0000
0000
0000
1003
0000
0100
0000
0100
0010
0100
0000
1000
0000
0010
0000
,
0001
0010
1000
0001
1000
0000
1000
0001
,
1000
0000
1000
0001
1000
0000
1000
0001
,
1000
0000
1000
1000
0000
1000
0010
0100
,
0002
0000
0000
0000
0013
0000
0100
0000
0100
0010
0100
0000
1000
0000
0010
0000
,
0100
0010
1000
0001
0100
0000
0200
0000
,
0310
0000
0010
0000
0100
0010
0100
0010
,
0110
0100
0000
0001
0010
0100
0000
0100
,
0010
0001
0000
1000
0100
0001
0000
1000
,
0010
0001
0100
0001
0010
0100
0000
0010
,
0100
1000
0000
0001
1000
0002
1003
0002
,
1003
0100
0010
0100
1000
1000
0000
0001
,
0100
1000
0000
1000
0100
0001
0100
0001
,
0100
0000
0010
0100
0100
0001
0010
1000
,
0000
0001
0100
1000
0010
2000
3100
2000
,
3001
1000
0000
0001
0010
0100
0000
0100
,
0010
0001
0000
1000
0100
0001
0000
1000
,
0010
0001
0000
1000
0100
2000
3010
2000
,
3100
0101
1100
0101
,
1001
1000
0000
0001
0010
1000
0001
0100
,
1000
0010
1000
0100
0010
0100
1000
0001
,
1000
0010
0000
0100
0010
0001
0010
0100
,
0001
0001
0001
0001
0001
1000
0010
1000
,
0100
0000
0010
0001
0000
1000
0100
0001
,
0000
0000
1000
0010
0001
0100
0001
0001
,
0020
0000
0000
0230
0000
1000
1300
1000
,
0010
0001
0010
1000
0100
0010
0001
0100
,
0101
0000
1100
0100
0000
1000
0100
0001
,
0100
1000
0010
0100
0001
0010
0100
0100
,
2000
0000
0000
3020
0000
0100
0130
0100
,
0001
0000
0100
0000
1000
0000
0100
0000
0001
0000
0010
0000
0100
1000
0100
0000
,
1100
0000
0101
0001
0000
1000
0100
0001
,
0100
1000
0010
0100
0010
1000
0001
0001
,
0200
0000
0000
0302
0000
0010
0013
0010
,
0100
1000
0001
0100
0010
0000
1000
0010
0200
0000
0000
0000
0301
0000
0000
0000
,
0002
0000
0003
1000
0020
0030
0020
0030
,
0200
0000
0301
0100
0002
0000
0003
1000
,
0020
0000
2030
0000
3200
0300
0020
0030
,
0020
0030
0010
0001
2000
0000
3010
0000
,
0020
0000
0030
1000
0200
0300
0200
0300
,
0020
0000
0130
0010
0002
0000
0003
1000
,
0200
0000
0320
0000
0032
0003
0200
0300
,
0200
0300
0200
0300
0020
0030
0020
0030
,
0020
0030
0020
0030
2000
3000
2000
3000
,
2000
3000
2000
3000
0000
0000
0000
0000
;

//---------------dance-single - ----------------
#NOTES:
     dance-single:
     X-Scale 7:
     Easy:
     5:
     0.328401,0.393840,0.072120,0.270448,0.000000,255.000000,247.000000,8.000000,30.000000,0.000000,0.000000,0.328401,0.393840,0.072120,0.270448,0.000000,255.000000,247.000000,8.000000,30.000000,0.000000,0.000000:
0000
0000
0000
0000
,
0000
0000
0000
0000
,
0000
0000
0000
0000
,
0000
0000
0000
0000
,
0002
0000
0000
0203
0000
0000
0302
0000
,
0000
1000
0000
0013
,
0020
0000
0000
0230
0000
0000
1300
0000
,
0001
2000
0000
0000
,
3002
0000
0000
0023
0000
0000
0032
0000
,
0000
1000
0000
0103
,
0200
0000
0000
0320
0000
0000
1030
0000
,
0001
1000
0020
0000
,
0030
1010
0001
1000
,
0100
0000
1000
1000
0000
1000
1000
0000
,
0002
0000
0000
0203
0000
0000
0301
0000
,
1000
0000
0010
0000
2000
0000
3100
1000
,
0010
1010
0001
1000
,
0100
0000
1000
1000
0000
1000
1000
0000
,
0002
0000
0000
0203
0000
0000
0310
0000
,
1000
0001
0001
0001
,
1001
0010
1000
0001
,
1001
1000
0000
0001
0010
0001
0000
1000
,
0010
1000
0000
0100
0010
0100
0000
1000
,
0010
1000
0000
0001
0010
0001
0000
0100
,
0010
0100
0000
0001
1000
0010
1000
0001
,
1000
0010
0000
1000
0100
1000
0000
0001
,
0100
0001
0000
0010
0100
0010
0000
0001
,
1000
0001
0000
1000
1000
0100
0010
0001
,
0000
0100
0000
0001
1000
0200
0310
0200
,
1300
0010
0000
1000
0100
1000
0000
0001
,
0100
0001
0000
0010
0100
0010
0001
1000
,
0001
0010
0000
0100
1000
0100
0000
1000
,
0010
0100
0010
0100
,
0010
0100
0000
0001
0010
0100
0000
0010
,
0100
1000
0000
0001
0100
0010
0000
1000
,
0010
0100
0000
0001
0010
0100
0000
0010
,
0001
1000
0001
1000
,
2001
0000
0000
3200
0000
0000
0320
0000
,
0000
0000
1000
0000
0000
0000
0031
0010
,
0002
0000
0000
0203
0000
0000
0310
0000
,
1000
0002
0000
0000
,
0103
0000
0101
0100
0000
0001
0010
0100
,
0000
1000
0010
0001
0010
1000
0100
0010
,
0200
0000
0000
2300
0000
0000
3100
0000
,
0010
0000
0100
0000
0010
0000
0100
0010
,
0001
0000
0101
0001
0000
1000
0100
0010
,
0000
0001
0100
1000
0100
0001
0010
0100
,
2000
0000
0000
3020
0000
0000
2030
0000
,
3100
1000
0001
0100
0101
0000
1000
0000
,
0001
1000
0100
0010
,
0100
0000
1000
0010
0100
0000
0010
0000
,
1000
0100
0001
0100
,
1000
0000
0100
1000
0001
0000
0100
0000
,
0010
1000
0100
0010
,
0100
0000
1000
0001
0100
0000
0010
0000
,
0001
0010
0100
0001
,
1000
0001
0100
0010
,
0100
0010
1000
0001
,
1000
0001
0000
0000
;

//---------------dance-single - ----------------
#NOTES:
     dance-single:
     X-Scale 2:
     Beginner:
     2:
     0.141663,0.156860,0.018030,0.000000,0.000000,110.000000,108.000000,2.000000,0.000000,0.000000,0.000000,0.141663,0.156860,0.018030,0.000000,0.000000,110.000000,108.000000,2.000000,0.000000,0.000000,0.000000:
0000
0000
0000
0000
,
0000
0000
0000
0000
,
0000
0000
0000
0000
,
0000
0000
0000
0000
,
0001
0000
0000
1000
,
0000
0100
0000
1000
,
1000
0000
0010
0000
,
0100
0000
0001
0000
,
1000
0000
0000
0100
,
0000
0010
0000
0001
,
0001
0000
1000
0000
,
0010
0000
0100
0000
,
0010
0000
1000
0000
,
0001
0000
0100
0000
,
0001
0000
0010
0000
,
0100
0000
1000
0000
,
0010
0000
0100
0000
,
0001
0000
0010
0000
,
0001
0000
1000
0000
,
0010
0000
1000
0000
,
0100
0000
0000
0000
,
1100
0000
0010
0000
,
1000
0000
0100
0000
,
1000
0000
0001
0000
,
0100
0000
0001
0000
,
0010
0000
0100
0000
,
1000
0000
0010
0000
,
1000
0000
0100
0000
,
1000
0000
0010
0000
,
0100
0000
0001
0000
,
0010
0000
0100
0000
,
0010
0000
0001
0000
,
1000
0000
0010
0000
,
1000
0000
0100
0000
,
0010
0000
0100
0000
,
1000
0000
0001
0000
,
0010
0000
0001
0000
,
1000
0000
0000
0010
,
0000
1000
0000
0100
,
0100
0000
0000
0010
,
0000
0001
0000
0100
,
0100
0000
0010
0000
,
1000
0000
0001
0000
,
0010
0000
0100
0000
,
0010
0000
0001
0000
,
1000
0000
0010
0000
,
1000
0000
0100
0000
,
0010
0000
0100
0000
,
1000
0000
1001
0000
,
0001
0000
0100
0000
,
0001
0000
0010
0000
,
0100
0000
0010
0000
,
0001
0000
1000
0000
,
0010
0000
1000
0000
,
0100
0000
0010
0000
,
0100
0000
1000
0000
,
0001
0000
1000
0000
,
1000
0000
1000
0000
,
1000
0000
0000
0000
;
