#TITLE:WHERE'S MY JUUL??;
#SUBTITLE:;
#ARTIST:Full Tac feat. Lil Mariko;
#TITLETRANSLIT:;
#SUBTITLETRANSLIT:;
#ARTISTTRANSLIT:;
#GENRE:Screamo Trap;
#CREDIT:;
#BANNER:Where's My Juul-bn.png;
#BACKGROUND:Where's My Juul-bg.png;
#LYRICSPATH:;
#CDTITLE:cdtitle.png;
#MUSIC:Where's My Juul.ogg;
#OFFSET:0.000000;
#SAMPLESTART:22.500000;
#SAMPLELENGTH:15.000000;
#SELECTABLE:YES;
#BPMS:0.000000=128.000000
;
#STOPS:80.000000=3.281000
;
#BGCHANGES:0.000=Where's My Juul.avi=1.000=1=0=0=StretchNoLoop==CrossFade==,
99999=-nosongbg-=1.000=0=0=0 // don't automatically add -songbackground-
;
#KEYSOUNDS:;
#ATTACKS:;

//---------------dance-single - goddamnit where did i put that juul??----------------
#NOTES:
     dance-single:
     X-Scale 11:
     Hard:
     8:
     0.421336,0.458606,0.234821,0.403892,0.065750,314.000000,289.000000,25.000000,43.000000,0.000000,0.000000,0.421336,0.458606,0.234821,0.403892,0.065750,314.000000,289.000000,25.000000,43.000000,0.000000,0.000000:
// measure 0
0000
0000
0000
0000
,  // measure 1
0000
0000
0000
0000
,  // measure 2
0000
0000
0000
0000
,  // measure 3
0000
0000
0000
0000
,  // measure 4
0001
0000
1000
0100
0010
0000
0100
0000
,  // measure 5
1000
0000
0001
0100
0010
0000
1000
0001
,  // measure 6
0100
0000
0010
0100
0001
0000
0010
0000
,  // measure 7
0100
0000
1000
0100
0010
0000
0000
0001
,  // measure 8
0102
0000
0000
0000
2003
0010
0000
0000
,  // measure 9
3020
0000
0000
0000
0230
0001
0000
0000
,  // measure 10
0302
0000
0000
0000
0023
0100
0000
0000
,  // measure 11
0230
0000
0000
0000
0000
0000
0000
0000
2300
0000
0100
0000
0000
0000
3100
1000
,  // measure 12
0100
0100
0010
0001
2000
0000
3010
0000
,  // measure 13
0101
0000
0100
0001
2000
0000
3010
0000
,  // measure 14
0101
0000
0001
1000
0020
0000
0130
0000
,  // measure 15
1001
0000
1000
0100
0020
0000
0030
0000
,  // measure 16
1001
1000
0010
0100
0002
0000
1003
0000
,  // measure 17
0100
0000
1001
0001
0200
0000
0320
0000
,  // measure 18
0031
0010
1000
0100
0020
0000
0032
0000
,  // measure 19
1003
0000
0000
0000
1010
0000
1000
0000
0002
0000
0010
0000
0013
0200
0000
0000
,  // measure 20
0300
0000
0011
0001
0010
1000
0010
0100
,  // measure 21
1000
0000
1010
0000
1000
0001
0100
0001
,  // measure 22
1000
0000
1010
0010
0100
0001
0010
0100
,  // measure 23
1000
0000
1100
0000
1000
0001
0100
0001
,  // measure 24
1000
0001
0000
0000
0010
0000
0000
0000
0101
0000
0100
0000
0001
0000
0000
0000
,  // measure 25
1000
0001
0010
0000
0011
0001
0010
1000
,  // measure 26
0010
0100
0000
0000
1000
0000
0000
0000
1010
0000
1000
0000
0001
0000
0000
0000
,  // measure 27
1000
0100
1000
0000
1001
1000
0001
0100
,  // measure 28
0001
1000
0000
0000
0100
0000
0100
0000
0110
0000
0000
0000
0010
0000
0001
0000
,  // measure 29
0101
0000
1000
0000
1010
0000
0001
1000
,  // measure 30
1001
0000
1000
1000
1100
0000
0100
0010
,  // measure 31
0101
0000
0001
0000
1001
0000
1000
0010
,  // measure 32
1000
0010
0000
0000
2010
0000
0000
0000
0100
0000
0000
0000
3002
0000
0000
0000
,  // measure 33
0010
0203
1000
0320
,  // measure 34
0100
1000
0230
0000
1000
0000
0302
0000
,  // measure 35
0010
0203
0000
0000
,  // measure 36
0000
0300
0110
0010
0100
0001
0010
0100
,  // measure 37
2000
0000
3002
0000
0103
0001
1000
0100
,  // measure 38
0020
0000
0031
0001
0010
1000
0010
0100
,  // measure 39
0020
0000
0032
0000
1003
0010
1000
0001
,  // measure 40
0200
0000
0301
0001
0010
1000
0010
0001
,  // measure 41
0100
0000
0000
0000
0010
0100
0010
0000
1000
0000
0100
0000
0010
0000
0100
0000
,  // measure 42
1000
0000
0001
0001
0100
0010
1000
0001
,  // measure 43
1000
0000
0000
0000
0001
0100
0001
0000
1000
0000
0001
0000
0200
0000
0000
0000
,  // measure 44
0300
0000
1001
0001
1000
0100
1000
0001
,  // measure 45
1000
0000
0000
0000
0100
0010
0100
0000
0010
0000
0001
0000
1000
0000
0010
0000
,  // measure 46
1000
0000
0001
0001
0100
1000
0100
0010
,  // measure 47
0100
0000
0000
0000
0001
0100
0001
0000
0010
0000
0100
0000
2000
0000
0100
0000
,  // measure 48
3100
2000
0000
0000
3001
0000
1000
0000
0010
0000
0100
0000
0001
0000
0010
0000
,  // measure 49
0100
0000
0000
0000
1000
0010
1000
0000
0001
0000
1000
0000
0010
0000
0100
0000
,  // measure 50
0002
0000
0103
0100
0001
0010
1000
0010
,  // measure 51
0002
0000
0000
0000
0103
0001
0100
0000
0010
0000
0001
0000
0020
0000
1000
0000
,  // measure 52
1030
0020
0000
0000
2030
0000
0000
0000
0000
0000
0000
0000
3002
0000
0000
0000
,  // measure 53
0000
2003
0000
3002
,  // measure 54
0000
0003
0000
0000
;

//---------------dance-single - what do you mean the juul is not by the dance pad?----------------
#NOTES:
     dance-single:
     X-Scale 8:
     Medium:
     6:
     0.344852,0.378649,0.169071,0.159678,0.028179,257.000000,239.000000,18.000000,17.000000,0.000000,0.000000,0.344852,0.378649,0.169071,0.159678,0.028179,257.000000,239.000000,18.000000,17.000000,0.000000,0.000000:
// measure 0
0000
0000
0000
0000
,  // measure 1
0000
0000
0000
0000
,  // measure 2
0000
0000
0000
0000
,  // measure 3
0000
0000
0000
0000
,  // measure 4
1000
0000
0000
0001
0100
0000
0000
0010
,  // measure 5
1000
0000
0000
0100
0010
0000
0000
0100
,  // measure 6
1000
0000
0000
0001
0100
0000
0000
0010
,  // measure 7
1000
0000
0000
0001
0001
0000
0000
1000
,  // measure 8
1100
0000
0000
0000
0000
0110
0000
0000
,  // measure 9
1001
0000
0000
0000
0000
0101
0000
0000
,  // measure 10
0110
0000
0000
0000
0000
1100
0000
0000
,  // measure 11
1001
0000
0000
0000
0000
0000
0000
0000
0000
0000
0101
0000
0000
0000
0001
0100
,  // measure 12
0001
0000
1000
0001
0200
0000
0310
0000
,  // measure 13
1000
0000
0100
0010
0002
0000
1003
0000
,  // measure 14
0010
0000
0100
0010
2000
0000
3001
0000
,  // measure 15
0010
0000
0100
0010
0002
0000
0003
0000
,  // measure 16
1000
0001
0100
0000
0001
0010
0100
0000
,  // measure 17
1000
0000
0010
0000
1000
0100
0010
0000
,  // measure 18
0001
0010
0001
0000
1000
0010
0100
0000
,  // measure 19
0001
0000
0010
0000
0100
0010
0001
0000
,  // measure 20
0000
0000
2010
0000
3001
0010
0100
0010
,  // measure 21
0001
0000
1000
0000
0010
1000
0001
1000
,  // measure 22
0010
0000
0100
0000
0001
0010
1000
0010
,  // measure 23
0001
0000
0100
0000
0001
1000
0100
1000
,  // measure 24
0001
1001
1000
0010
,  // measure 25
1000
0001
0100
0000
0001
0000
0010
0100
,  // measure 26
1000
0100
0000
0000
1000
0000
0000
0000
0010
0000
0000
0000
0001
0000
0000
0000
,  // measure 27
0100
1000
0100
0000
0010
0000
0001
1000
,  // measure 28
0001
1000
0000
0000
0200
0000
0000
0000
1000
0000
0000
0000
0310
0000
0001
0000
,  // measure 29
0101
0000
0002
0000
1000
0000
0013
0100
,  // measure 30
1100
0000
1020
0000
0001
0000
0130
0010
,  // measure 31
1010
0000
2000
0000
0001
0000
3010
1000
,  // measure 32
0001
1000
0000
0000
1001
0000
0000
0000
0001
0000
0000
0000
0100
0000
0000
0000
,  // measure 33
0010
1000
0100
0010
,  // measure 34
0001
0010
0001
0000
1000
0000
0002
0000
,  // measure 35
0010
0200
0000
0300
,  // measure 36
0000
0003
1001
0000
1000
0010
1000
0100
,  // measure 37
0010
0000
0001
0000
0100
0001
1000
0010
,  // measure 38
0100
0000
0001
0000
0010
0100
1000
0001
,  // measure 39
1000
0000
0100
0000
0010
0001
1000
0010
,  // measure 40
1000
0000
0100
0000
0010
0000
0001
1000
,  // measure 41
0001
0000
0100
0000
0010
0000
1000
0100
,  // measure 42
1000
0000
0001
0000
0010
0000
0100
0010
,  // measure 43
0100
0000
1000
0000
0001
1000
0002
0000
,  // measure 44
0003
0000
1001
0000
1000
0100
0020
0000
,  // measure 45
0031
0000
1000
0000
0001
0100
0020
0000
,  // measure 46
1030
0000
0010
0000
0001
0010
2000
0000
,  // measure 47
3001
0000
1000
0000
0001
1000
0020
0100
,  // measure 48
0030
0100
0000
0000
0110
0000
0010
0000
0100
0000
0000
0000
0001
0000
0010
0000
,  // measure 49
0100
0000
1000
0000
0001
0000
0100
0001
,  // measure 50
1000
0000
0010
1000
0001
0000
0100
0001
,  // measure 51
1000
0000
0001
0000
1000
0100
0020
0001
,  // measure 52
0030
0001
0000
0000
1000
0000
0000
0000
0000
0000
0000
0000
0001
0000
0000
0000
,  // measure 53
0000
1000
0000
0001
;

//---------------dance-single - i'm sure the juul is easy to find----------------
#NOTES:
     dance-single:
     X-Scale 5:
     Easy:
     3:
     0.244214,0.293057,0.046964,0.281785,0.000000,182.000000,177.000000,5.000000,30.000000,0.000000,0.000000,0.244214,0.293057,0.046964,0.281785,0.000000,182.000000,177.000000,5.000000,30.000000,0.000000,0.000000:
0000
0000
0000
0000
,
0000
0000
0000
0000
,
0000
0000
0000
0000
,
0000
0000
0000
0000
,
2000
0000
0000
0000
3000
0002
0000
0000
,
0023
0000
0000
0000
0030
0200
0000
0000
,
2300
0000
0000
0000
3000
0002
0000
0000
,
0203
0000
0301
0000
,
0101
0000
0100
0000
,
0001
0000
0010
0000
,
0100
0000
1000
0000
,
0001
0000
1000
0000
,
0100
1000
0100
0010
,
0100
1000
0001
0010
,
0001
1000
0100
0010
,
0100
1000
0100
0000
,
1001
0001
0100
0010
,
0100
0001
1000
0100
,
0010
0100
1000
0001
,
0100
0010
0100
0001
,
0000
0000
1010
0000
1000
0000
0001
1000
,
0001
0000
0010
0000
0100
0000
1000
0100
,
1000
0000
0001
0000
0010
0000
0100
0010
,
0100
0000
1000
0000
0001
0000
0100
0001
,
0100
0000
0002
0000
0000
0000
1003
2000
,
0000
0000
3200
0000
0000
0000
0310
0020
,
0000
0000
0032
0000
0000
0000
0103
0200
,
0000
0000
0320
0000
0000
0000
1030
2000
,
0000
3001
1000
0100
,
1000
0001
0100
0010
,
0100
0001
0010
0100
,
0010
0001
1000
0100
,
1000
0002
0000
0023
,
0000
0230
0000
2300
,
0000
3200
0000
0320
,
0000
0032
0000
0003
,
0000
0000
1001
0000
1000
0001
2000
0000
,
3000
0000
0100
0000
1000
0001
2000
0000
,
3000
0000
0100
0000
0010
0001
0020
0000
,
0030
0000
0100
0000
1000
0001
2000
0000
,
3000
0000
0100
0000
0010
0100
0020
0000
,
0031
0000
1000
0000
0010
0100
0020
0000
,
1030
0000
0001
0000
1000
0010
2000
0000
,
3001
0000
1000
0000
0010
0100
0020
0000
,
0030
0000
1001
0000
1000
0000
0010
1000
,
0001
0000
0010
0000
0100
0000
1000
0100
,
0010
0000
0001
0000
1000
0000
0010
1000
,
0001
0000
0100
0000
0010
0000
1000
0100
,
0010
0000
0001
0000
0100
0000
0001
0010
,
0100
0000
1000
0000
0001
0000
0100
0001
,
1000
0000
0010
0000
0100
0000
0001
0010
,
0100
0000
0010
0000
0001
0000
1000
0001
,
1000
0000
0000
0000
;

//---------------dance-single - hey have you seen my juul?----------------
#NOTES:
     dance-single:
     X-Scale 1:
     Beginner:
     1:
     0.111372,0.146528,0.018786,0.000000,0.000000,83.000000,81.000000,2.000000,0.000000,0.000000,0.000000,0.111372,0.146528,0.018786,0.000000,0.000000,83.000000,81.000000,2.000000,0.000000,0.000000,0.000000:
0000
0000
0000
0000
,
0000
0000
0000
0000
,
0000
0000
0000
0000
,
0000
0000
0000
0000
,
0001
0000
0000
0000
,
0010
0000
0000
0000
,
0100
0000
0000
0000
,
1000
0000
0000
0000
,
0010
0000
0000
0000
,
0100
0000
0000
0000
,
0001
0000
0000
0000
,
1000
0000
0000
0000
,
0000
0100
0000
1000
,
0000
0001
0000
0100
,
0000
0010
0000
1000
,
0000
0001
0000
0000
,
0000
1000
0000
0100
,
0000
0010
0000
0001
,
0000
0010
0000
0100
,
0000
1000
0000
0001
,
0000
1001
0000
1000
,
0000
0001
0000
0100
,
0000
0010
0000
1000
,
0000
0100
0000
0010
,
0000
0000
0001
0000
,
1000
0000
0001
0000
,
0100
0000
0001
0000
,
1000
0000
0100
0000
,
0010
0000
0001
0000
,
1000
0000
0010
0000
,
1000
0000
0001
0000
,
0010
0000
0100
0000
,
1000
0000
0000
0000
,
0100
0000
0000
0000
,
0010
0000
0000
0000
,
0001
0000
0000
0000
,
0000
0110
0000
0100
,
0000
0001
0000
1000
,
0000
0001
0000
0010
,
0000
0100
0000
1000
,
0000
0010
0000
1000
,
0000
0001
0000
1000
,
0000
0100
0000
0010
,
0000
0001
0000
0000
,
0000
0000
1000
0000
,
0010
0000
1000
0000
,
0001
0000
0010
0000
,
0100
0000
1000
0000
,
0001
0000
1000
0000
,
0010
0000
0100
0000
,
0010
0000
1000
0000
,
0001
0000
0010
0000
,
0001
0000
0000
0000
;

//---------------dance-single - now starring Lil Mariko's vocals!----------------
#NOTES:
     dance-single:
     OnlyVocals:
     Edit:
     9:
     0.454882,0.510736,0.281785,0.695071,0.507214,339.000000,309.000000,30.000000,74.000000,0.000000,0.000000,0.454882,0.510736,0.281785,0.695071,0.507214,339.000000,309.000000,30.000000,74.000000,0.000000,0.000000:
// measure 0
0000
0000
0000
0000
0000
0000
0000
0000
1000
0000
0000
0001
0100
0001
0000
0010
,  // measure 1
0000
0100
0000
2000
0000
0000
0000
3000
0000
0000
0100
1000
0000
0000
0001
0100
,  // measure 2
0001
0010
0000
0000
0000
0100
0000
0000
0000
1000
0010
1000
0001
0200
0000
0000
,  // measure 3
0000
0000
0300
0000
0000
0000
0000
0000
0001
0000
0000
0100
0001
1000
0010
0000
,  // measure 4
0100
0010
0200
0000
0000
0000
0300
0001
0100
0001
1000
0000
0100
0000
2000
0000
,  // measure 5
0000
0000
3100
1000
0001
0100
0000
0001
0000
0010
0002
0000
0000
0000
0003
0000
,  // measure 6
0000
0000
0000
0000
0010
0001
1000
0000
0010
0000
1000
0000
0001
0020
0000
0000
,  // measure 7
0130
0000
0000
0000
0010
0000
0001
0000
0000
0000
0000
0000
1000
0000
0000
0000
0000
0000
0010
0000
0000
0000
0000
0000
0100
0000
0000
0020
0000
0000
0000
0000
0000
0000
0000
0000
0030
0000
0000
0000
0000
0000
1000
0000
0000
0002
0000
0000
,  // measure 8
0000
0000
0000
0000
0000
0000
0003
0000
0000
0000
0000
0000
0000
0000
0000
0000
0000
0000
0000
0000
0000
0000
0000
0000
0000
0000
0000
0000
0000
0000
0001
0000
0000
0000
0100
0000
0000
0000
0000
0000
0001
0000
0000
0000
0000
2000
0000
0000
,  // measure 9
0000
0000
3000
0000
0100
0000
0010
0000
0002
0000
0000
1000
0003
2000
0000
0000
,  // measure 10
3010
1000
0001
0100
0001
0000
0000
0000
0020
0000
0000
0000
0030
0000
0100
2000
,  // measure 11
0000
0000
0000
3001
2000
0000
0000
0000
3000
0000
0100
0000
0010
0002
0000
0000
,  // measure 12
0003
0000
0011
0010
0200
0000
2300
0000
,  // measure 13
3001
0000
0000
0000
1010
0000
1000
0000
0001
0000
0000
0001
0010
0001
0020
0000
,  // measure 14
0030
0000
0000
0000
0000
0000
0110
0000
0000
0100
0000
0000
2000
0000
0000
0000
0000
0010
3000
1000
0000
0002
0000
0000
,  // measure 15
0000
0000
0000
0003
0000
0000
0000
0000
0000
0000
0000
0000
0101
0000
0000
0000
0000
0000
0100
0000
0000
0000
0000
0000
0020
0000
0000
0000
0000
0000
0000
0000
0000
0030
1000
0000
0000
0000
0010
0000
0000
0000
2000
0000
0000
0000
0000
0000
,  // measure 16
0000
0000
0000
3000
0000
0000
1100
0000
0000
0100
0000
0000
0020
0000
0000
0000
0000
0000
0030
0000
0000
0001
0000
0010
,  // measure 17
0000
0001
0000
0000
0000
0000
0101
0000
0000
0100
0000
0000
0020
0000
0000
0000
0000
0000
2030
0000
0000
0000
0000
0000
,  // measure 18
3000
0000
1001
0001
0200
0000
0320
0000
,  // measure 19
0000
0000
0030
0000
0101
0000
0001
0000
2000
0000
0000
0000
3100
0100
0000
0000
,  // measure 20
0000
0000
2001
0000
3010
1000
0200
0000
,  // measure 21
0320
0000
0030
0000
0011
0001
0200
0000
,  // measure 22
0302
0000
0003
0000
0011
0010
0200
0000
,  // measure 23
2300
0000
3000
0000
1010
0010
0200
0000
,  // measure 24
0302
0000
0000
0000
0003
0000
0000
0000
1000
0000
0000
0010
0000
1000
0000
0010
,  // measure 25
0000
0100
0000
0000
0001
0200
0000
0000
0300
0000
0002
0000
0000
0000
0013
0000
,  // measure 26
0000
0001
1000
0000
1001
0000
0000
0000
1000
0100
0000
0000
1010
0000
0000
0000
,  // measure 27
0000
0010
0000
1000
0000
0001
0100
0001
0010
0100
0000
0000
0000
1000
0000
0010
,  // measure 28
0000
0000
1000
0001
0000
0010
0100
0000
0000
0000
0000
1000
0100
1000
0000
0000
,  // measure 29
1100
0000
0100
0000
0020
0000
0000
0000
0030
0000
0001
0010
0000
0010
0100
0000
,  // measure 30
1000
0000
0000
1000
0100
0000
0000
0000
1000
0000
0000
0001
0000
0010
0000
0000
,  // measure 31
0001
0000
0000
0000
0000
0000
0010
0000
0000
0000
0000
0000
0100
0000
0000
0000
1000
0000
0000
0000
0001
0000
0000
0000
0000
0000
0000
0000
0000
0000
0000
0000
0000
0000
0000
0000
0000
0000
0000
0100
0000
0000
0000
0000
0000
0010
0000
0000
,  // measure 32
0100
0010
1000
0100
0000
0000
1000
0000
0010
0100
0000
0002
0000
0000
0000
0013
,  // measure 33
0001
0010
0000
0000
0100
0000
1000
0000
0000
0001
0000
0100
0000
0000
0010
0000
,  // measure 34
0100
0000
0000
0000
0001
0000
0100
0000
0000
0000
0000
0000
0000
0000
0000
0001
0000
0000
0000
0000
0000
0000
0000
0000
0000
0000
0000
2000
0000
0000
0000
0000
0000
3000
0000
0000
0100
0000
0000
1000
0000
0000
0000
0000
0000
0010
0000
0000
,  // measure 35
0000
0001
0000
0010
0000
1000
0000
0000
0010
1000
0000
0002
0000
0000
0000
0000
,  // measure 36
0003
0000
0000
0000
0011
0010
0200
0000
,  // measure 37
2300
0000
3000
0000
1010
1000
0002
0000
,  // measure 38
0023
0000
0030
0000
0101
0100
0020
0000
,  // measure 39
2030
0000
3000
0000
1100
0100
0020
0000
,  // measure 40
0032
0000
0003
0000
0101
0001
0020
0000
,  // measure 41
0230
0000
0300
0000
1100
1000
0002
0000
,  // measure 42
0203
0000
0300
0000
0101
0001
2000
0000
,  // measure 43
3200
0000
0300
0000
0010
0001
2000
0000
,  // measure 44
3002
0000
0003
0000
1001
1000
0200
0000
,  // measure 45
2300
0000
0000
0000
3000
0000
0000
0000
1100
0000
1000
0000
0100
0000
0000
0010
,  // measure 46
0001
0000
0000
1000
0000
0000
0002
0000
0000
0000
0000
0000
0003
0000
0000
0000
0000
0000
0000
0000
0000
0000
0000
0000
1001
0000
0000
0000
0000
0000
0100
0000
0000
0000
0000
0000
0002
0000
0000
0000
0000
0000
0000
0000
0000
0003
0010
0000
,  // measure 47
0000
0000
0100
0000
0000
0000
2000
0000
0000
0000
0000
0000
0000
0000
0000
3000
0000
0000
0000
0000
0000
0000
0000
0000
1001
0000
0000
0000
0000
0000
1000
0000
0000
0000
0000
0000
0020
0000
0000
0000
0000
0000
0000
0000
0000
0030
0100
0000
,  // measure 48
0000
0001
0000
0020
0000
0000
0000
0000
0000
0030
0000
0000
0101
0000
0000
0100
0000
0000
0002
0000
0000
0000
0000
0000
,  // measure 49
0003
0000
0000
0010
0000
0001
0000
1000
0000
0000
0000
0000
1100
0000
0000
0100
0000
0000
2000
0000
0000
0000
0000
0000
,  // measure 50
3002
0000
0003
0000
0011
0001
0200
0000
,  // measure 51
0320
0000
0000
0030
1010
1000
0002
0000
,  // measure 52
0013
0010
0000
0000
0001
0000
0000
1000
0000
0100
0000
1000
0000
0001
0100
0001
,  // measure 53
0010
0000
0000
0000
0000
0000
0001
0000
0000
0000
1000
0000
0000
0000
0000
0100
0000
0000
1000
0000
0000
0000
0000
0000
0002
0000
0000
0000
0000
0000
0000
0000
0000
0000
0000
0000
0003
0000
0000
0000
0000
0000
0000
0000
0000
0010
0000
0000
,  // measure 54
0100
2000
0000
0000
0000
0000
3000
0000
0000
0000
0000
0000
0000
0000
0000
0000
;

//---------------dance-single - juuled DANCERUSH special----------------
#NOTES:
     dance-single:
     X-Scale 14:
     Challenge:
     9:
     0.437438,0.458606,0.497821,0.535392,0.032875,326.000000,273.000000,53.000000,57.000000,66.000000,0.000000,0.437438,0.458606,0.497821,0.535392,0.032875,326.000000,273.000000,53.000000,57.000000,66.000000,0.000000:
// measure 0
0000
0000
0000
0000
,  // measure 1
0000
0000
0000
0000
,  // measure 2
0000
0000
0000
0000
,  // measure 3
0000
0000
0000
0000
,  // measure 4
1000
0010
1000
0010
0001
0010
0001
0010
,  // measure 5
0100
0010
0100
0001
0010
0001
0010
1000
,  // measure 6
0010
1000
0010
0001
0010
0001
0100
0010
,  // measure 7
1000
0001
0010
0100
1000
0000
0000
0000
,  // measure 8
1100
0000
0000
0000
1000
0100
0010
0000
,  // measure 9
0101
0000
0000
0000
0001
1000
0100
0000
,  // measure 10
0110
0000
0000
0000
0010
0001
0100
0000
,  // measure 11
1010
0000
0000
0000
0000
0000
0000
0000
1000
0000
0001
0000
0010
0000
0100
0010
,  // measure 12
0100
0100
1100
2000
0020
3030
L0L0
0000
,  // measure 13
0011
0000
0001
0020
0200
0330
0LL0
0000
,  // measure 14
1010
1000
0001
0020
0002
0033
00LL
0000
,  // measure 15
0101
0000
0001
0020
0200
0330
0LL0
0000
,  // measure 16
1010
1000
0001
0200
0020
0330
0LL0
0000
,  // measure 17
1100
0000
1000
0002
0020
0033
00LL
0000
,  // measure 18
0101
0001
0010
0200
2000
3300
LL00
0000
,  // measure 19
1010
0000
0010
2000
0002
3003
L00L
0000
,  // measure 20
0000
0000
0001
MMMM
0001
MMMM
0001
0010
,  // measure 21
0100
0000
1000
MMMM
1000
MMMM
1000
0010
,  // measure 22
0100
0000
0001
MMMM
0001
MMMM
0001
0010
,  // measure 23
0100
0000
1000
MMMM
1000
MMMM
1000
0010
,  // measure 24
0100
0010
0000
0000
0110
0000
0000
0000
0100
0000
0001
0000
1000
0000
0100
0000
,  // measure 25
00M0
0100
0001
0000
1001
0100
0001
1000
,  // measure 26
0100
1000
0000
0000
1100
0000
0000
0000
1000
0000
0001
0000
0100
0000
0010
0000
,  // measure 27
0M00
0010
0001
0000
0101
0001
0010
0100
,  // measure 28
1000
0100
0000
0000
1000
0000
0010
0000
1000
0000
MMMM
0000
1000
0000
MMMM
0000
,  // measure 29
1000
0000
0001
0010
0001
MMMM
0001
MMMM
,  // measure 30
0001
0000
0010
0100
1000
MMMM
1000
MMMM
,  // measure 31
1000
0000
0010
1000
0001
MMMM
0001
MMMM
,  // measure 32
0001
0010
0000
0000
0012
0000
0000
0000
0100
0000
0000
0000
2003
0000
0000
0000
,  // measure 33
0100
3002
0100
0023
,  // measure 34
1000
0100
0032
0000
0010
0000
0203
0000
,  // measure 35
1000
0000
0020
0000
0000
0000
0000
0330
,  // measure 36
0LL0
0000
1001
0000
1000
0010
1000
0000
,  // measure 37
2020
3030
0202
0303
0001
0010
0100
0000
,  // measure 38
0220
0330
2002
3003
1000
0001
0010
0000
,  // measure 39
0022
0033
2200
3300
1000
0010
0100
0000
,  // measure 40
0220
0330
0010
1000
0001
0010
0100
0010
,  // measure 41
0001
0000
0000
0000
1000
0001
1000
0000
0010
0000
0100
0000
0001
0000
0010
0000
,  // measure 42
0100
0000
1000
0010
0001
0010
1000
0001
,  // measure 43
0010
0000
0000
0000
0100
0010
0100
0000
1000
0000
0001
0000
0100
0000
0001
0000
,  // measure 44
1000
0000
1001
1000
0001
0020
0200
0330
,  // measure 45
0LL0
0000
1010
0000
1000
0002
0020
0033
,  // measure 46
00LL
0000
0101
0100
0001
2000
0200
3300
,  // measure 47
LL00
0000
1010
0000
0010
0200
0002
0303
,  // measure 48
0L0L
0000
0011
0001
0010
0002
2000
3003
,  // measure 49
L00L
0000
0110
0000
0100
2000
0020
3030
,  // measure 50
L0L0
0000
1001
0001
0100
0020
2000
3030
,  // measure 51
L0L0
0000
1100
0000
0100
0020
0002
0033
,  // measure 52
00LL
0000
2000
0000
0000
3000
L002
0000
,  // measure 53
0000
0003
200L
0000
0000
3000
L002
0000
,  // measure 54
0000
0003
000L
0000
0000
0000
0000
0000
;
