#TITLE:Vulnerable;
#SUBTITLE:;
#ARTIST:Tinashe;
#TITLETRANSLIT:;
#SUBTITLETRANSLIT:;
#ARTISTTRANSLIT:;
#GENRE:R&B;
#CREDIT:;
#BANNER:vulnerable-bn.png;
#BACKGROUND:vulnerable-bg.png;
#LYRICSPATH:;
#CDTITLE:cdtitle.png;
#MUSIC:vulnerable.ogg;
#OFFSET:-0.003000;
#SAMPLESTART:84.213997;
#SAMPLELENGTH:16.799999;
#SELECTABLE:YES;
#BPMS:0.000000=114.000000
;
#STOPS:
;
#BGCHANGES:;
#KEYSOUNDS:;
#ATTACKS:;

//---------------dance-single - ----------------
#NOTES:
     dance-single:
     X-Scale 9:
     Hard:
     7:
     0.382213,0.416326,0.058344,0.266716,0.070846,321.000000,314.000000,7.000000,32.000000,0.000000,0.000000,0.382213,0.416326,0.058344,0.266716,0.070846,321.000000,314.000000,7.000000,32.000000,0.000000,0.000000:
// measure 0
0000
0000
0000
0000
,  // measure 1
0000
0000
0000
0000
,  // measure 2
0000
0000
0000
0000
,  // measure 3
0000
0000
0000
0000
,  // measure 4
0000
0000
0000
0000
,  // measure 5
0000
0000
0000
0000
,  // measure 6
0000
0000
0000
0000
,  // measure 7
0000
0000
0000
0000
,  // measure 8
1002
0000
0000
0000
0013
0001
0010
0100
,  // measure 9
1000
0000
0001
0100
0010
1000
0100
0100
,  // measure 10
1000
0000
0001
0010
1000
0000
0001
0100
,  // measure 11
1000
0000
0010
0100
0001
0000
1000
0100
,  // measure 12
0200
0000
0000
0000
0301
0100
1000
0100
,  // measure 13
0010
0000
0001
0100
0010
1000
0001
0001
,  // measure 14
1000
0000
0001
0010
1000
0000
0001
0100
,  // measure 15
1000
0000
0001
0100
0010
0000
1000
0010
,  // measure 16
0020
0000
0000
0000
0230
0000
0310
0100
,  // measure 17
0001
0000
1000
0010
0100
0001
0100
0100
,  // measure 18
0010
0000
1000
0010
0001
0000
1000
0100
,  // measure 19
0001
0000
1000
0100
2000
0000
0000
0001
,  // measure 20
3002
0000
0000
0000
0013
0001
0100
0001
,  // measure 21
0010
0000
0100
1000
0100
0010
0000
0010
,  // measure 22
0002
0000
0003
2000
0010
3000
0020
0000
,  // measure 23
0130
0000
0001
0010
0100
1000
0010
1000
,  // measure 24
1010
0000
0001
0001
0001
1000
0100
1000
,  // measure 25
0010
0000
1000
0001
0010
0001
1000
0000
,  // measure 26
0100
0000
2000
0000
0010
0000
3020
2030
,  // measure 27
3200
0320
0032
0000
0103
0001
0010
0001
,  // measure 28
0100
0000
0010
0000
1000
0100
0001
0100
,  // measure 29
1000
0000
0001
0010
0100
0010
0001
0000
,  // measure 30
1000
1000
1000
0100
0020
0030
0200
0300
,  // measure 31
1000
0000
0001
0000
0000
0001
0000
0000
0010
0000
0100
0000
1000
0010
1000
0000
,  // measure 32
1010
0000
0001
0001
0001
0100
0010
1000
,  // measure 33
0100
0000
1000
0010
0100
0001
0020
0000
,  // measure 34
0031
0010
1000
0000
1000
0010
0001
0000
,  // measure 35
1000
0001
0100
0000
0001
0010
1000
0010
,  // measure 36
0001
0000
0010
0000
0001
0100
1000
0100
,  // measure 37
0010
0000
1000
0010
0100
0001
0000
0000
,  // measure 38
0010
0010
0010
0001
1000
0001
0010
0100
,  // measure 39
1000
0000
0010
0000
0000
0010
0000
0000
1000
0000
0001
0000
0100
0000
0100
0000
,  // measure 40
0101
0000
0000
0000
0100
0000
0000
0000
0001
0100
0001
0000
0010
0000
0100
0000
,  // measure 41
1000
0000
0001
0000
1000
0010
1000
0000
0001
0000
0002
0000
1000
0000
2003
0000
,  // measure 42
0001
0000
3000
0000
1000
0000
0000
0000
0010
1000
0010
0000
1000
0000
0100
0000
,  // measure 43
1000
0000
0001
0000
0100
0001
0100
0000
0001
0000
1000
0000
0001
0000
1000
0000
,  // measure 44
0001
0000
0000
0000
0100
0000
0000
0000
0010
0100
0010
0000
1000
0000
0001
0000
,  // measure 45
1000
0000
0100
0000
0010
0100
0010
0000
0001
0000
0010
0000
0100
0000
0010
0000
,  // measure 46
0001
0000
0001
0000
0001
0000
0000
0000
1000
0010
1000
0000
0100
0000
1000
0000
,  // measure 47
0010
0000
0100
0000
0000
0100
0000
0000
0001
0000
0010
0000
0001
0000
0010
0000
,  // measure 48
0011
0000
0000
0000
0001
0000
0000
0000
0001
0100
0001
0000
0100
0000
0010
0000
,  // measure 49
1000
0000
0001
0000
0010
0100
0010
0000
0002
0000
2003
0000
3002
0000
0003
0000
,  // measure 50
1001
0000
1000
0000
0200
0320
0230
0300
,  // measure 51
1000
0000
0001
0000
0100
0001
0100
0000
0010
0000
1000
0000
0001
0000
1000
0000
,  // measure 52
0100
0000
0010
0000
0002
0023
0230
0300
,  // measure 53
0010
0000
0001
0000
1000
0001
1000
0000
0020
0000
2030
0000
3200
0000
0300
0000
,  // measure 54
1100
0000
1000
0000
1000
0000
0000
0000
0001
0010
0001
0000
0010
0000
0100
0000
,  // measure 55
1000
0000
0010
0000
0100
0001
0100
0000
0010
0000
0000
0000
0000
0000
0000
0000
;

//---------------dance-single - ----------------
#NOTES:
     dance-single:
     X-Scale 7:
     Medium:
     5:
     0.291720,0.323809,0.025005,0.166697,0.004167,245.000000,242.000000,3.000000,20.000000,0.000000,0.000000,0.291720,0.323809,0.025005,0.166697,0.004167,245.000000,242.000000,3.000000,20.000000,0.000000,0.000000:
// measure 0
0000
0000
0000
0000
,  // measure 1
0000
0000
0000
0000
,  // measure 2
0000
0000
0000
0000
,  // measure 3
0000
0000
0000
0000
,  // measure 4
0000
0000
0000
0000
,  // measure 5
0000
0000
0000
0000
,  // measure 6
0000
0000
0000
0000
,  // measure 7
0000
0000
0000
0000
,  // measure 8
2010
0000
0000
0000
3010
0000
1000
0100
,  // measure 9
1000
0000
0001
0000
0010
0100
0010
0000
,  // measure 10
0001
1000
0001
0010
,  // measure 11
1000
0000
0010
0000
0001
0000
0100
0010
,  // measure 12
0200
0000
0000
0000
0301
0000
1000
0001
,  // measure 13
1000
0000
0100
0000
0010
0001
0010
0000
,  // measure 14
0001
0100
0010
1000
,  // measure 15
0100
0000
1000
0000
0100
0000
0010
0001
,  // measure 16
0020
0000
0000
0000
0130
0000
0010
0001
,  // measure 17
0010
0000
0001
0000
1000
0010
1000
0000
,  // measure 18
0001
0010
0001
1000
,  // measure 19
0100
0000
0010
0000
0100
0000
1000
0001
,  // measure 20
2000
0000
0000
0000
3010
0000
1000
0100
,  // measure 21
0010
0000
0100
0000
1000
0001
0000
0001
,  // measure 22
0020
0000
0030
0002
0000
0003
0020
0000
,  // measure 23
0230
0000
0000
0000
2300
0000
0000
0010
,  // measure 24
3010
0000
1000
0001
1000
0000
0100
0010
,  // measure 25
0100
0000
0001
0000
0100
1000
0100
0000
,  // measure 26
1000
0002
0010
0203
,  // measure 27
0302
0023
0032
0000
1003
0010
1000
0010
,  // measure 28
1000
0000
0001
0010
0001
0000
0010
0100
,  // measure 29
0010
0000
0001
0100
1000
0100
0001
0000
,  // measure 30
1000
0000
0010
0100
0002
0003
0002
0003
,  // measure 31
1000
0000
0001
1000
0200
0300
0200
0300
,  // measure 32
1100
0000
1000
0010
1000
0000
0001
0010
,  // measure 33
0001
0000
1000
0010
0001
0010
0100
0000
,  // measure 34
0001
0000
1000
0000
0010
1000
0010
0001
,  // measure 35
0010
0000
0100
0000
0001
0010
0100
0010
,  // measure 36
0100
0000
1000
0001
1000
0000
0010
0100
,  // measure 37
0010
0000
1000
0100
1000
0010
0000
0000
,  // measure 38
0100
0000
0010
0001
0010
0000
0100
0000
,  // measure 39
0001
0000
0010
0000
0000
0010
0000
0000
0001
0000
1000
0000
0000
0000
1000
0000
,  // measure 40
1001
0000
0100
0000
0001
1000
0001
0000
,  // measure 41
1000
0000
1000
0100
1000
0020
0000
0230
,  // measure 42
0010
0000
1300
0000
0100
0001
1000
0000
,  // measure 43
0010
0000
0001
0100
1000
0000
0010
0000
,  // measure 44
0100
0000
0001
0000
0100
1000
0100
0000
,  // measure 45
0010
0000
0100
0010
0100
0000
0001
0000
,  // measure 46
1000
0010
1000
0000
0100
0010
0001
0000
,  // measure 47
0100
0010
1000
0000
0010
0100
0000
0100
,  // measure 48
0010
0000
0001
0000
0100
1000
0100
0000
,  // measure 49
0010
0001
0010
0000
0001
0001
0001
0000
,  // measure 50
1000
0000
0010
0000
1000
1000
1000
0000
,  // measure 51
0001
0000
0100
0010
1000
0000
1000
0000
,  // measure 52
0001
0000
0010
0000
0001
0001
0001
0000
,  // measure 53
1000
0000
0100
0000
1000
1000
1000
0000
,  // measure 54
0001
0000
0010
0000
0001
0100
0001
0000
,  // measure 55
1000
0000
0001
0100
0001
0000
0000
0000
;

//---------------dance-single - ----------------
#NOTES:
     dance-single:
     X-Scale 4:
     Easy:
     3:
     0.216706,0.275050,0.008335,0.108353,0.000000,182.000000,181.000000,1.000000,13.000000,0.000000,0.000000,0.216706,0.275050,0.008335,0.108353,0.000000,182.000000,181.000000,1.000000,13.000000,0.000000,0.000000:
// measure 0
0000
0000
0000
0000
,  // measure 1
0000
0000
0000
0000
,  // measure 2
0000
0000
0000
0000
,  // measure 3
0000
0000
0000
0000
,  // measure 4
0000
0000
0000
0000
,  // measure 5
0000
0000
0000
0000
,  // measure 6
0000
0000
0000
0000
,  // measure 7
0000
0000
0000
0000
,  // measure 8
0020
0000
0031
0000
,  // measure 9
0010
0000
0000
0000
0100
0000
0000
1000
,  // measure 10
0100
0000
1000
0000
,  // measure 11
0001
0000
0000
0000
0100
0000
0000
0010
,  // measure 12
0020
0000
1030
0000
,  // measure 13
0010
0000
0000
0000
0100
0000
0000
0001
,  // measure 14
0010
0000
0001
0000
,  // measure 15
1000
0000
0000
0000
0100
0000
0000
1000
,  // measure 16
2000
0000
3100
0000
,  // measure 17
1000
0000
0000
0000
0100
0000
0000
0100
,  // measure 18
0010
0000
0001
0000
,  // measure 19
2000
0000
0000
0000
0001
0000
0000
0010
,  // measure 20
3010
0000
0100
0000
,  // measure 21
0001
0000
0000
0000
1000
0000
0000
1000
,  // measure 22
0200
0000
0300
2000
0000
3000
0200
0000
,  // measure 23
0320
0000
0000
0000
0001
0000
0000
0100
,  // measure 24
0130
0000
0010
0000
1000
0000
0001
0010
,  // measure 25
0100
0000
0001
0000
0100
1000
0100
0000
,  // measure 26
1000
0001
0010
0001
,  // measure 27
1000
0000
0100
0000
1000
0000
0001
0010
,  // measure 28
0001
0000
1000
0000
0100
0000
0010
0100
,  // measure 29
0010
0000
0001
0000
1000
0100
1000
0000
,  // measure 30
0001
0100
0001
0000
1000
0000
0010
0000
,  // measure 31
1000
0001
0010
0100
,  // measure 32
0010
0000
0001
0000
1000
0000
0100
1000
,  // measure 33
0100
0000
0010
0000
0001
0010
0001
0000
,  // measure 34
1000
0000
0100
0000
1000
0010
0000
0010
,  // measure 35
0100
0001
1000
0100
,  // measure 36
1000
0000
0001
0000
1000
0000
0010
0100
,  // measure 37
0010
0000
1000
0000
0001
0010
0001
0000
,  // measure 38
2000
0000
3000
0020
1000
0030
2000
0000
,  // measure 39
3001
0000
0000
0000
1000
0001
0000
0001
,  // measure 40
1001
1000
0001
0010
,  // measure 41
0100
0000
1000
0000
0001
0020
0000
0032
,  // measure 42
0000
0013
0001
1000
,  // measure 43
0010
0100
1000
0100
,  // measure 44
0010
1000
0100
1000
,  // measure 45
0001
0010
0100
1000
,  // measure 46
0001
0010
0001
0000
1000
0000
0001
0000
,  // measure 47
0010
0000
0001
0000
1000
0100
0000
0100
,  // measure 48
1000
0001
1000
0001
,  // measure 49
0100
0000
0010
0000
1000
0100
0010
0000
,  // measure 50
1000
0010
0001
0100
,  // measure 51
0001
0010
0100
1000
,  // measure 52
0001
1000
0001
0100
,  // measure 53
0001
0000
0010
0000
0001
0010
0100
0000
,  // measure 54
0001
0100
1000
0010
,  // measure 55
0100
0000
0000
0000
;

//---------------dance-single - ----------------
#NOTES:
     dance-single:
     X-Scale 1:
     Beginner:
     1:
     0.116688,0.137525,0.008335,0.016670,0.000000,98.000000,97.000000,1.000000,2.000000,0.000000,0.000000,0.116688,0.137525,0.008335,0.016670,0.000000,98.000000,97.000000,1.000000,2.000000,0.000000,0.000000:
// measure 0
0000
0000
0000
0000
,  // measure 1
0000
0000
0000
0000
,  // measure 2
0000
0000
0000
0000
,  // measure 3
0000
0000
0000
0000
,  // measure 4
0000
0000
0000
0000
,  // measure 5
0000
0000
0000
0000
,  // measure 6
0000
0000
0000
0000
,  // measure 7
0000
0000
0000
0000
,  // measure 8
1000
0000
0001
0000
,  // measure 9
1000
0000
0100
0000
,  // measure 10
1000
0000
0001
0000
,  // measure 11
0010
0000
0100
0000
,  // measure 12
1000
0000
1000
0000
,  // measure 13
0010
0000
0100
0000
,  // measure 14
0010
0000
0001
0000
,  // measure 15
1000
0000
0100
0000
,  // measure 16
0010
0000
0100
0000
,  // measure 17
1000
0000
0100
0000
,  // measure 18
0010
0000
0001
0000
,  // measure 19
1000
0000
0001
0000
,  // measure 20
0010
0000
0100
0000
,  // measure 21
0001
0000
1000
0000
,  // measure 22
0100
0000
1000
0000
,  // measure 23
0001
0000
1000
0000
,  // measure 24
0100
0000
0010
0000
,  // measure 25
0001
0000
0100
0000
,  // measure 26
0010
0000
1000
0000
,  // measure 27
0100
0000
1000
0000
,  // measure 28
0001
0000
0010
0000
,  // measure 29
0100
0000
1000
0000
,  // measure 30
0001
0000
0100
0000
,  // measure 31
0010
0000
1000
0000
,  // measure 32
0010
0000
1000
0000
,  // measure 33
0100
0000
1000
0000
,  // measure 34
0001
0000
0100
0000
,  // measure 35
0001
0000
0010
0000
,  // measure 36
0001
0000
1000
0000
,  // measure 37
0010
0000
0100
0000
,  // measure 38
0001
0000
1000
0000
,  // measure 39
0000
0001
0000
0000
0000
0100
0000
0000
,  // measure 40
0101
0000
0001
0000
,  // measure 41
0100
0000
0000
0000
0000
0200
0000
0320
,  // measure 42
0000
0030
0010
0000
,  // measure 43
1000
0000
0100
0000
,  // measure 44
1000
0000
0001
0000
,  // measure 45
0010
0000
0001
0000
,  // measure 46
0100
0000
0010
0000
,  // measure 47
1000
0000
0010
0000
,  // measure 48
1000
0000
0100
0000
,  // measure 49
0010
0000
0001
0010
,  // measure 50
0001
0000
1000
0000
,  // measure 51
0100
0000
0010
0000
,  // measure 52
0001
0000
1000
0000
,  // measure 53
0010
0000
0100
0001
,  // measure 54
0100
0000
0001
0000
,  // measure 55
1000
0000
0000
0000
;
