#TITLE:Vroom Vroom;
#SUBTITLE:;
#ARTIST:Charli XCX;
#TITLETRANSLIT:;
#SUBTITLETRANSLIT:;
#ARTISTTRANSLIT:;
#GENRE:Experimental Pop;
#CREDIT:;
#BANNER:Vroom Vroom-bn.png;
#BACKGROUND:Vroom Vroom-bg.png;
#LYRICSPATH:;
#CDTITLE:cdtitle.png;
#MUSIC:Vroom Vroom.ogg;
#OFFSET:-0.104000;
#SAMPLESTART:38.648998;
#SAMPLELENGTH:19.073000;
#SELECTABLE:YES;
#DISPLAYBPM:151.000000;
#BPMS:0.000000=151.000000
,29.000000=302.000000
,29.500000=151.000000
,29.750000=75.500000
,30.000000=302.000000
,30.500000=151.000000
,30.750000=75.500000
,31.000000=302.000000
,31.500000=151.000000
,31.750000=75.500000
,32.000000=151.000000
,64.000000=302.000000
,64.500000=151.000000
,64.750000=75.500000
,65.000000=151.000000
,80.000000=302.000000
,80.500000=151.000000
,80.750000=75.500000
,81.000000=151.000000
,88.000000=302.000000
,88.500000=151.000000
,88.750000=75.500000
,89.000000=151.000000
,160.000000=302.000000
,160.500000=151.000000
,160.750000=75.500000
,161.000000=302.000000
,162.000000=151.000000
,162.500000=75.500000
,163.000000=151.000000
,168.000000=302.000000
,168.500000=151.000000
,168.750000=75.500000
,169.000000=302.000000
,170.000000=151.000000
,170.500000=75.500000
,171.000000=151.000000
,176.000000=302.000000
,176.500000=151.000000
,176.750000=75.500000
,177.000000=302.000000
,178.000000=151.000000
,178.500000=75.500000
,179.000000=151.000000
,184.000000=302.000000
,184.500000=151.000000
,184.750000=75.500000
,185.000000=302.000000
,186.000000=151.000000
,186.500000=75.500000
,187.000000=151.000000
,192.000000=302.000000
,192.500000=151.000000
,192.750000=75.500000
,193.000000=302.000000
,194.000000=151.000000
,194.500000=75.500000
,195.000000=151.000000
,200.000000=302.000000
,200.500000=151.000000
,200.750000=75.500000
,201.000000=302.000000
,202.000000=151.000000
,202.500000=75.500000
,203.000000=151.000000
,208.000000=302.000000
,208.500000=151.000000
,208.750000=75.500000
,209.000000=302.000000
,210.000000=151.000000
,210.500000=75.500000
,211.000000=151.000000
,216.000000=302.000000
,216.500000=151.000000
,216.750000=75.500000
,217.000000=302.000000
,218.000000=151.000000
,218.500000=75.500000
,219.000000=151.000000
,253.000000=302.000000
,253.500000=151.000000
,253.750000=75.500000
,254.000000=302.000000
,254.500000=151.000000
,254.750000=75.500000
,255.000000=302.000000
,255.500000=151.000000
,255.750000=75.500000
,256.000000=302.000000
,256.500000=151.000000
,256.750000=75.500000
,257.000000=151.000000
;
#STOPS:
;
#BGCHANGES:1.000=Vroom Vroom.avi=1.000=1=0=0=StretchNoLoop==CrossFade==,
99999=-nosongbg-=1.000=0=0=0 // don't automatically add -songbackground-
;
#KEYSOUNDS:;
#ATTACKS:;

//---------------dance-single - ----------------
#NOTES:
     dance-single:
     X-Scale 11:
     Hard:
     8:
     0.517828,0.564255,0.452013,0.791022,0.047809,417.000000,365.000000,52.000000,91.000000,0.000000,0.000000,0.517828,0.564255,0.452013,0.791022,0.047809,417.000000,365.000000,52.000000,91.000000,0.000000,0.000000:
0000
0000
0000
0000
,
0000
0000
0000
0000
,
0000
0000
0000
0000
,
0000
0000
0000
0000
,
0000
0000
0000
0000
1000
0000
0000
0010
0000
0000
0001
0000
0000
0010
0000
0000
,
1000
0000
0001
0000
0100
0000
0000
0010
0000
0000
1000
0000
0000
0010
0000
0000
,
0100
0000
0000
0100
0001
0000
0000
0010
0000
0000
1000
0000
0000
0010
0000
0000
,
0001
0000
0000
0001
0011
0000
0000
0000
1010
0000
0000
0000
0011
0000
0000
0000
,
0000
0000
0000
0000
1000
0001
1000
0000
0001
0000
0010
0000
1000
0000
0010
0000
,
0100
1000
0010
0100
1000
0100
0001
0010
,
0200
0300
1100
1000
0100
0010
0100
1000
,
0001
0100
0010
0100
0001
0010
1000
0010
,
0002
0000
0003
0000
1000
0001
1000
0000
0010
0000
1000
0000
0001
0000
0100
0000
,
0010
0001
0010
1000
0100
1000
0001
0100
,
0020
0030
0110
0100
0001
1000
0010
0001
,
1000
0100
0001
0010
0100
1000
0001
0010
,
0011
0000
0000
0000
0010
0001
0010
0000
0100
0000
0010
0000
0001
0000
1000
0000
,
0001
0100
0010
0100
0001
0000
2002
0000
,
3003
0000
0110
0100
0010
1000
0001
0010
,
1000
0001
0100
1000
0001
0010
0200
0000
,
1300
0000
1100
1000
0100
0001
0100
0010
,
0001
0100
0010
0100
0001
1000
0020
0000
,
1030
0000
1001
0001
1000
0010
0100
0001
,
0010
1000
0010
0100
0010
0001
1000
0000
,
0100
0000
2100
0000
3000
0002
0000
0003
,
0201
0000
0300
0000
0001
1000
0010
0100
,
0001
1000
0200
0000
0320
0100
0130
0010
,
0200
0000
0320
0100
0130
0010
0010
0000
,
0110
0000
2001
0000
3000
0002
0000
0003
,
0201
0000
0300
0000
0001
0010
1000
0010
,
0001
1000
0020
0000
2030
0001
3001
0100
,
0020
0000
2030
0010
3010
1000
1000
0001
,
0002
0023
2030
3200
,
0302
0000
0000
0003
0000
1000
0010
1000
,
0002
0203
2300
3020
,
0032
0000
0000
0003
1000
0001
1000
0000
,
1000
0001
1001
0000
0000
0100
1000
0000
,
0001
0100
0010
0100
0001
0000
0101
0001
,
0100
0010
2000
0000
3002
0000
0103
0000
,
0101
0000
0000
0001
1000
0000
1000
0000
,
2020
3030
2020
0000
0000
3030
1010
1000
,
0001
0100
0010
0000
1000
0010
1000
0000
,
2002
3003
2002
0000
0000
3003
1001
0001
,
0010
0100
1000
0000
0100
0010
0100
0000
,
2002
3003
2002
0000
0000
3003
1001
0000
,
0001
1000
0100
0000
0100
0010
0100
0000
,
2020
3030
2020
0000
0000
3030
1010
0000
,
0001
0001
0000
1000
0010
0000
1000
0000
,
2020
3030
2002
0000
0000
3003
1001
0001
,
0011
0010
0100
0000
1001
1000
0001
0000
,
2002
3003
0220
0000
0000
0330
0110
0010
,
1010
1000
0001
0000
0101
0100
0001
0000
,
0202
0303
0220
0000
0000
0330
0110
0000
,
1100
1000
0001
0000
1001
1000
0001
0000
,
0022
0033
2002
0000
0000
3003
1001
0000
,
1000
1000
0000
0100
0020
0000
0032
0000
,
0003
0000
2000
0000
3000
0020
0001
0030
,
2000
0000
3100
0000
0000
1000
0001
0000
,
1000
0010
0100
0010
2000
0000
3001
0000
,
0100
0010
2000
0000
3000
0001
0010
0001
,
1000
0000
0200
0000
0300
2000
0010
3000
,
0002
0000
0013
0000
0000
0100
1000
0000
,
0001
1000
0020
0000
2030
0010
3010
0000
,
1000
1010
0110
0011
,
1001
0000
0002
0000
0003
0200
0010
0300
,
0002
0000
1003
0000
0000
0010
0100
0000
,
0001
0010
1000
0010
0200
0000
1300
0000
,
1000
0100
0002
0000
0203
0000
2300
0000
,
3001
0000
0200
0000
0300
0002
1000
0003
,
0001
0010
2000
0000
3020
0000
0032
0000
,
1003
0010
0200
0000
0001
0000
0000
0000
,
1000
0001
1000
0001
,
0320
0030
0000
0000
0000
0000
0000
0000
;

//---------------dance-single - ----------------
#NOTES:
     dance-single:
     X-Scale 7:
     Medium:
     5:
     0.429660,0.501560,0.391165,0.504168,0.000000,346.000000,301.000000,45.000000,58.000000,0.000000,0.000000,0.429660,0.501560,0.391165,0.504168,0.000000,346.000000,301.000000,45.000000,58.000000,0.000000,0.000000:
0000
0000
0000
0000
,
0000
0000
0000
0000
,
0000
0000
0000
0000
,
0000
0000
0000
0000
,
0000
0000
1000
0100
1000
0000
0001
0100
,
0001
0000
0100
0010
0100
0000
0001
0010
,
0002
0000
2003
0000
3010
1000
0001
0000
,
0100
0001
1001
0000
0110
0000
1001
0000
,
0000
0000
1001
0000
1000
0100
1000
0000
,
1100
0000
0100
0000
0010
0100
1000
0001
,
0100
0000
0101
0000
0001
1000
0001
0000
,
1001
0000
1000
0000
0010
1000
0001
0100
,
0010
0000
0101
0000
0001
1000
0001
0000
,
1100
0000
0100
0000
0010
0100
1000
0001
,
0100
0000
0101
0000
0001
0010
0001
1000
,
0100
0001
0100
0010
0001
1000
0010
1000
,
0001
0000
0001
0000
0100
0010
0100
0000
,
0110
0000
0010
1000
0002
0000
0023
0000
,
0030
0000
0110
0000
0100
1000
0100
0000
,
1010
0000
1000
0010
1000
0000
0002
0000
,
0103
0000
0100
0000
0001
0010
0001
0000
,
0011
0000
0010
0100
1000
0000
0020
0000
,
1030
0000
1000
0000
0100
0010
0001
0010
,
1000
0010
0100
1000
0001
0010
0001
0000
,
1000
0000
1002
0000
0003
2000
0000
3000
,
0020
0030
1000
0010
,
1000
0001
0200
0000
0302
0000
0003
0000
,
0200
0000
0302
0000
0013
0100
1000
0000
,
0100
0010
0002
0000
0003
0200
0000
0300
,
0020
0030
1000
0010
,
1000
0100
0020
0000
0032
0000
0003
0000
,
0020
0000
0032
0000
0003
0000
1000
0010
,
0200
0320
0032
0023
,
0230
0000
0000
0300
0000
0000
0001
0010
,
0200
0320
2030
3020
,
0032
0000
0000
0003
0010
0100
1000
0000
,
0100
0010
0002
0000
0003
2000
0000
3000
,
0200
0000
0300
0000
0010
0100
1000
0001
,
0100
0010
2000
0000
3002
0000
0003
0000
,
1000
0000
0000
0010
1000
0000
0001
0000
,
0100
0201
0000
0310
,
0100
0001
1000
0000
0100
0000
0010
0000
,
0001
0102
0000
1003
,
0001
0100
0001
0000
0010
0000
0100
0000
,
1000
1200
0000
0310
,
0100
0010
0001
0000
1000
0000
0001
0000
,
0010
0020
0000
0130
,
0010
0010
0000
0001
1000
0000
0010
0000
,
1000
1002
0000
0103
,
0001
0010
0100
0000
1100
0000
1000
0000
,
0001
1002
0000
0103
,
0101
0001
1001
1000
,
1100
0210
0000
1300
,
1100
0100
1001
0001
,
0101
0201
0000
0310
,
0100
0100
0000
0001
0010
0000
0001
0000
,
0000
0000
0011
0000
0000
0011
0000
0000
,
0011
0000
0000
0000
0001
0010
1000
0010
,
0100
1000
0100
0010
0200
0000
0300
0000
,
0100
0010
0200
0000
0300
1000
0100
1000
,
0001
0000
0101
0000
0000
0101
0000
0000
,
0101
0000
0000
0000
0100
0010
1000
0001
,
0010
0100
2000
0000
3002
0000
0003
0000
,
0010
0110
1001
0110
,
1001
0000
1100
0000
0000
1100
0000
0000
,
1100
0000
0000
0000
0100
1000
0001
0010
,
1000
0010
0001
0100
0002
0000
0003
0000
,
1000
0100
0002
0000
0203
0000
2300
0000
,
3000
0000
1001
0000
0000
1001
0000
0000
,
1001
0000
0000
0000
1000
0010
1000
0001
,
0100
0010
0200
0000
0302
0000
0003
0000
,
0200
0302
0203
0302
,
2003
3000
0000
0000
0000
0000
0000
0000
;

//---------------dance-single - ----------------
#NOTES:
     dance-single:
     X-Scale 4:
     Easy:
     2:
     0.276920,0.344225,0.365087,0.208621,0.000000,223.000000,181.000000,42.000000,24.000000,0.000000,0.000000,0.276920,0.344225,0.365087,0.208621,0.000000,223.000000,181.000000,42.000000,24.000000,0.000000,0.000000:
0000
0000
0000
0000
,
0000
0000
0000
0000
,
0000
0000
0000
0000
,
0000
0000
0000
0000
,
0000
0001
0010
1000
,
0100
0001
0010
1000
,
0100
0001
0010
1000
,
0100
0001
0001
0001
,
0000
1001
0000
1000
,
1010
0000
0110
0010
,
0000
0101
0000
0001
,
1001
0000
1100
0100
,
0000
1010
0000
0001
,
1001
0000
0110
0010
,
0000
0101
0000
1001
,
0000
1000
0010
1000
,
0000
1010
0000
0010
,
0110
0000
0101
0001
,
0000
1001
0000
1100
,
0100
0000
0110
0010
,
0000
0011
0000
0001
,
1001
0000
1100
1000
,
0000
1001
0000
0001
,
0000
0010
0100
1000
,
0000
1100
0000
0000
,
1001
0000
1000
0001
,
0100
0000
0001
0000
0000
0100
0001
0000
,
0010
0000
0000
0100
1000
0100
1000
0000
,
0001
1001
0000
0000
,
0110
0000
0010
1000
,
0001
0000
0100
0000
0000
0001
1000
0001
,
1000
0000
0000
0001
1000
0000
0010
0000
,
1000
0100
0001
0010
,
1000
0000
0000
0000
0000
0001
0100
0000
,
0001
0010
1000
0100
,
0001
0000
1000
1001
,
0001
0101
0000
0010
,
0110
0000
0100
0001
,
1000
1100
0000
0100
,
0110
0000
0010
0010
,
0001
0002
0000
0003
,
1001
0000
0110
0000
,
1000
2000
0000
3000
,
1010
0000
0101
0000
,
0001
0002
0000
0003
,
0011
0000
1100
0000
,
1000
2000
0000
3000
,
0000
0000
0000
0100
0010
0000
0001
0000
,
0001
0002
0000
0103
,
0101
0000
1010
0010
,
1000
2000
0000
3100
,
1100
0000
0011
0010
,
0001
0002
0000
1003
,
1001
0000
0110
0010
,
1000
2000
0000
3100
,
0000
0000
0000
1000
0001
0000
0010
0000
,
0000
0200
0000
1000
,
2300
0000
0000
0001
,
0000
3002
0000
0100
,
0203
0000
0000
0010
,
0000
0320
0000
0100
,
0230
0000
0000
0001
,
0000
0302
0000
0010
,
0023
0100
0001
0230
,
1000
2300
0000
0001
,
3002
0000
0000
0100
,
0000
2003
0000
0010
,
3020
0000
0000
0100
,
0000
2030
0000
0100
,
3200
0000
0000
1000
,
0000
0320
0000
0000
,
0000
0000
0000
0000
,
0030
0000
0000
0000
;

//---------------dance-single - ----------------
#NOTES:
     dance-single:
     X-Scale 2:
     Beginner:
     1:
     0.111761,0.156466,0.000000,0.000000,0.000000,90.000000,90.000000,0.000000,0.000000,0.000000,0.000000,0.111761,0.156466,0.000000,0.000000,0.000000,90.000000,90.000000,0.000000,0.000000,0.000000,0.000000:
0000
0000
0000
0000
,
0000
0000
0000
0000
,
0000
0000
0000
0000
,
0000
0000
0000
0000
,
0000
1000
0000
0100
,
0000
0010
0000
0001
,
0000
0100
0000
0010
,
0000
1000
0000
0000
,
0000
0001
0000
0000
,
1000
0000
1000
0000
,
0000
0001
0000
0000
,
0010
0000
0010
0000
,
0000
0100
0000
0000
,
1000
0000
1000
0000
,
0000
0001
0000
0001
,
0000
0000
0000
0000
,
0000
1000
0000
0000
,
0100
0000
0100
0000
,
0000
0010
0000
0000
,
0001
0000
0001
0000
,
0000
1000
0000
0000
,
0010
0000
0010
0000
,
0000
1000
0000
0100
,
0000
0000
0000
0000
,
0000
0001
0000
0000
,
1000
0000
0000
0000
,
0000
0010
0000
0000
,
1000
0000
0000
0001
,
0000
1000
0000
0000
,
0100
0000
0000
0000
,
0000
0010
0000
0000
,
0001
0000
0000
1000
,
0000
0001
0000
0100
,
0000
0000
0000
0010
,
0000
1000
0000
0001
,
0000
0000
0000
0010
,
0000
0100
0000
1000
,
0000
0000
0000
0010
,
0000
1000
0000
0001
,
0000
0000
1000
1000
,
0000
0000
0000
0000
,
0001
0000
0001
1000
,
0000
0000
0000
0000
,
0010
0000
0010
1000
,
0000
0000
0000
0000
,
0100
0000
0100
0010
,
0000
0000
0000
0001
,
0000
0000
0000
0000
,
0000
0000
0000
0000
,
1000
0000
1000
0001
,
0000
0000
0000
0000
,
0010
0000
0010
0100
,
0000
0000
0000
0000
,
1000
0000
1000
0001
,
0000
0000
0000
0010
,
0000
0000
0000
0000
,
0000
0000
0000
1000
,
0000
0000
0000
0001
,
0000
0000
0000
0100
,
0000
0000
0000
0001
,
0000
0000
0000
1000
,
0000
0000
0000
0100
,
0000
0000
0000
0010
,
0000
0000
0000
0100
,
0000
0000
0000
1000
,
0000
0000
0000
0001
,
0000
0000
0000
0100
,
0000
0000
0000
0001
,
0000
0000
0000
1000
,
0000
0000
0000
0010
,
0000
1000
0000
0000
,
0001
0000
1000
0000
,
0001
0000
0000
0000
;

//---------------dance-single - ----------------
#NOTES:
     dance-single:
     X-Scale 14:
     Challenge:
     9:
     0.499201,0.625864,0.460705,0.469398,0.017385,402.000000,349.000000,53.000000,54.000000,96.000000,0.000000,0.499201,0.625864,0.460705,0.469398,0.017385,402.000000,349.000000,53.000000,54.000000,96.000000,0.000000:
// measure 0
0000
0000
0000
0000
,  // measure 1
0000
0000
0000
0000
,  // measure 2
0000
0000
0000
0000
,  // measure 3
0000
0000
0000
0000
,  // measure 4
0000
0000
1000
MMMM
1000
MMMM
1000
MMMM
,  // measure 5
0010
1000
0001
MMMM
0001
MMMM
0001
MMMM
,  // measure 6
0100
0000
00M0
0100
1000
0000
MMMM
0000
1000
0000
MMMM
0000
1000
0000
MMMM
0000
,  // measure 7
0010
0000
0M00
0010
0001
0000
MMMM
0000
1000
0000
MMMM
0000
0001
0000
MMMM
0000
,  // measure 8
MMMM
0000
0000
0000
0100
0010
0100
0000
0001
0000
0010
0000
1000
0000
0010
0000
,  // measure 9
0100
0010
0001
1000
0010
1000
0001
0010
,  // measure 10
0M00
0000
1010
1000
0001
0010
0001
1000
,  // measure 11
0100
0001
1000
0010
0001
0100
0001
0010
,  // measure 12
0M00
0000
0000
0000
1000
0100
1000
0000
0010
0000
0100
0000
1000
0000
0100
0000
,  // measure 13
0001
0010
1000
0010
0001
1000
0001
0010
,  // measure 14
0M00
0000
1010
1000
0100
0001
0100
1000
,  // measure 15
0010
0100
0001
0010
1000
0010
0100
1000
,  // measure 16
1100
0000
1001
1000
0100
0001
0100
0010
,  // measure 17
0110
0100
1000
0001
0200
0000
0002
0303
,  // measure 18
0L0L
0000
1001
1000
0010
0100
0001
1000
,  // measure 19
1010
1000
0010
0001
0010
0020
2000
3030
,  // measure 20
L0L0
0000
1001
1000
0001
0010
1000
0010
,  // measure 21
0011
0010
0100
1000
1010
2000
0002
3003
,  // measure 22
L00L
0000
0110
0100
0010
1000
0001
0010
,  // measure 23
0100
1000
0010
0100
0010
2000
0002
3003
,  // measure 24
L00L
0000
0110
0000
0000
0001
0000
0000
,  // measure 25
1001
0000
0000
0000
1000
0010
0001
0010
,  // measure 26
0100
0010
1000
0000
0000
0001
0001
0000
,  // measure 27
0101
0000
0000
0000
0001
0010
M100
0000
,  // measure 28
0001
0010
M100
0000
0000
0001
0000
0000
,  // measure 29
1001
0000
0000
0000
1000
0010
0001
0010
,  // measure 30
0100
0010
1000
0000
0000
0010
1000
0001
,  // measure 31
0M10
0000
0000
0010
1000
0001
0010
0001
,  // measure 32
0200
0320
0032
0023
,  // measure 33
2030
0000
0000
3000
0000
0001
0010
0001
,  // measure 34
1000
0000
1001
0000
0000
1000
0010
0100
,  // measure 35
0001
0000
0000
0000
1000
0100
001M
0000
,  // measure 36
1000
0100
001M
0000
0000
1000
0001
0000
,  // measure 37
1000
0100
1000
0001
0100
0010
0001
0010
,  // measure 38
1000
0100
0010
0000
0001
0000
0101
0000
,  // measure 39
1000
0000
0000
0001
0100
00M0
0100
0000
,  // measure 40
1100
0000
0000
0000
2200
0000
0000
0000
0000
0000
0000
3300
LL00
0000
0000
0000
,  // measure 41
1001
0000
0001
0000
0100
0010
0100
0000
,  // measure 42
0110
0000
0000
0000
0220
0000
0000
0000
0000
0000
M00M
0330
0LL0
0000
0000
0000
,  // measure 43
0101
0000
0001
0000
1000
0010
1000
0000
,  // measure 44
1010
0000
0000
0000
2020
0000
0000
0000
0000
0000
0M0M
3030
L0L0
0000
0000
0000
,  // measure 45
0011
0000
0001
0000
1000
0001
1000
0000
,  // measure 46
1001
0000
0000
0000
2002
0000
0000
0000
0000
0000
0000
3003
L00L
0000
0000
0000
,  // measure 47
00M0
00M0
0000
1000
0200
0000
2300
0000
,  // measure 48
3010
0000
0000
0000
0022
0000
0000
0000
0000
0000
0000
0033
00LL
0000
0000
0000
,  // measure 49
1010
0000
1000
0000
1001
1000
0001
0000
,  // measure 50
1010
0000
0000
0000
2020
0000
0000
0000
0000
0000
0M0M
3030
L0L0
0000
0000
0000
,  // measure 51
0110
0000
0001
0000
1001
1000
0001
0000
,  // measure 52
0101
0000
0000
0000
0202
0000
0000
0000
0000
0000
M0M0
0303
0L0L
0000
0000
0000
,  // measure 53
1010
0000
0010
0000
0110
0100
0001
0000
,  // measure 54
0011
0000
0000
0000
0022
0000
0000
0000
0000
0000
0000
0033
00LL
0000
0000
0000
,  // measure 55
0M00
0M00
0000
1000
0020
0000
2030
0000
,  // measure 56
3000
0000
0002
0000
0003
0002
1000
0003
,  // measure 57
0002
0000
0013
0000
0100
0010
0001
1000
,  // measure 58
0010
0100
0001
0010
0100
0000
MMMM
0000
,  // measure 59
0001
0010
0100
0000
0000
1000
0010
0100
,  // measure 60
0001
0000
2000
0000
3000
2000
0010
3000
,  // measure 61
2000
0000
3001
0000
1000
0010
0001
0010
,  // measure 62
0100
0010
2000
0000
3002
0100
0103
0000
,  // measure 63
0001
0000
1000
MMMM
1000
MMMM
1000
MMMM
,  // measure 64
1000
MMMM
2000
0000
3000
2000
0010
3000
,  // measure 65
2000
0000
3001
0000
1000
0010
0001
0010
,  // measure 66
1000
0100
0001
0100
2000
0010
3010
0000
,  // measure 67
1000
0010
0001
0000
0010
0000
1000
0010
,  // measure 68
1000
0000
0002
0000
0003
0002
0100
0003
,  // measure 69
0002
0000
1003
0000
0010
1000
0001
0010
,  // measure 70
1000
0010
0002
0000
2003
0000
3000
0000
,  // measure 71
0002
2003
3002
2003
,  // measure 72
30M0
0000
0000
0000
;
