#TITLE:Viszlát nyár;
#SUBTITLE:;
#ARTIST:AWS;
#TITLETRANSLIT:;
#SUBTITLETRANSLIT:;
#ARTISTTRANSLIT:;
#GENRE:Metalcore;
#CREDIT:;
#BANNER:viszlat nyar-bn.png;
#BACKGROUND:viszlat nyar-bg.png;
#LYRICSPATH:;
#CDTITLE:cdtitle.png;
#MUSIC:viszlat nyar.ogg;
#OFFSET:-0.006000;
#SAMPLESTART:34.380001;
#SAMPLELENGTH:23.500000;
#SELECTABLE:YES;
#BPMS:0.000000=164.000000
,32.000000=82.000000
,64.000000=164.000000
,128.000000=82.000000
,160.000000=164.000000
,224.000000=82.000000
,240.000000=164.000000
,304.000000=82.000000
;
#STOPS:
;
#BGCHANGES:0.000=viszlat nyar.avi=1.000=1=0=0=StretchNoLoop==CrossFade==,
99999=-nosongbg-=1.000=0=0=0 // don't automatically add -songbackground-
;
#KEYSOUNDS:;
#ATTACKS:;

//---------------dance-single - now this is some stamina shit here----------------
#NOTES:
     dance-single:
     X-Scale 17:
     Challenge:
     11:
     0.749560,0.874772,0.273633,0.417291,0.629357,767.000000,727.000000,40.000000,61.000000,16.000000,0.000000,0.749560,0.874772,0.273633,0.417291,0.629357,767.000000,727.000000,40.000000,61.000000,16.000000,0.000000:
// measure 0
0000
0000
0000
0000
,  // measure 1
0000
0000
0000
0000
,  // measure 2
0000
0000
0000
0000
,  // measure 3
0000
0000
0000
0000
,  // measure 4
1000
0000
0010
0000
1000
0000
0001
0010
0001
0000
0010
0000
1000
0000
0001
0000
,  // measure 5
0100
0000
1000
0000
0001
0000
0100
0010
0100
0000
0001
0000
1000
0000
0010
0000
,  // measure 6
0001
0000
0010
0000
1000
0000
0100
1000
0100
0000
0010
0000
0001
0000
0010
0000
,  // measure 7
0011
0000
0011
0000
1010
0000
1010
0000
1000
0010
1000
0010
1000
0010
1000
0010
,  // measure 8
1000
0000
0000
0001
1000
0000
0100
0000
1000
0000
0010
1000
0001
0000
0010
0001
,  // measure 9
2000
0000
0000
0100
0100
3000
0020
0100
0130
0000
0110
0000
1001
0000
1000
0001
,  // measure 10
1000
0000
0001
0010
1000
0000
0001
0100
1000
0000
0001
0010
0100
0000
1000
0000
,  // measure 11
0200
0000
0300
2000
0010
3000
0001
0100
0001
0100
0000
0001
1000
0000
0001
1000
,  // measure 12
1001
0000
0001
0100
0001
0000
1000
0100
1000
0000
0010
0200
0001
0300
0100
0001
,  // measure 13
0100
0000
0001
0010
0100
0000
0010
0100
1000
0000
0001
0100
0010
1000
0000
0001
,  // measure 14
1000
0010
0001
0010
0100
0000
0001
0010
0001
1000
0100
1000
0010
0000
0100
0010
,  // measure 15
0100
0000
0000
0000
0001
0000
0010
0000
0001
0000
0000
0000
1000
0000
0100
0000
1000
0000
0001
0000
1000
0000
0001
0000
0100
0010
0100
0010
0100
0010
0100
0010
,  // measure 16
0100
0000
0010
0000
1000
0000
0001
0010
0001
0000
1000
0000
0100
0000
0010
0000
,  // measure 17
0001
0000
0010
0000
0100
0000
1000
0100
0010
0000
0001
0000
0100
0000
0001
0000
,  // measure 18
0002
1000
1000
2003
0100
0100
3200
0010
,  // measure 19
0010
0000
1000
0000
1300
0000
0100
0010
0100
0000
1000
0000
0001
1000
0001
1000
,  // measure 20
0001
0000
0010
0000
0100
0000
0010
0100
0010
0000
0001
0000
1000
0000
0001
0000
,  // measure 21
0010
0000
0001
0000
1000
0000
0100
1000
0100
0000
1000
0000
0010
0000
0001
0000
,  // measure 22
0010
0000
0100
0000
0001
0000
0010
0100
0010
0000
0001
0000
1000
0000
0100
0000
,  // measure 23
1000
0100
1000
0100
0010
0100
0010
0100
1000
0001
1000
0001
0010
0001
0010
0001
,  // measure 24
0100
0000
0001
0000
1000
0000
0001
0010
0001
0000
0100
0000
0010
0000
1000
0000
,  // measure 25
0001
0000
0010
0000
0100
0000
0010
0001
0010
0000
1000
0000
0010
0000
0001
0000
,  // measure 26
0200
0001
0001
0302
1000
1000
2003
0001
,  // measure 27
0010
0000
0001
0000
3010
0000
1000
0010
1000
0000
0100
0000
0010
0100
0010
0100
,  // measure 28
0010
0000
0001
0000
1000
0000
0001
0010
0100
0000
0010
0000
0001
0000
1000
0000
,  // measure 29
0001
0000
0100
0000
0010
0000
1000
0100
0010
0000
0100
0000
0001
0000
0100
0000
,  // measure 30
2000
0000
0001
0000
0001
0000
3000
1000
0002
0000
0100
0000
0100
0000
1003
0000
,  // measure 31
1001
1001
1100
1100
0011
0011
0110
0110
,  // measure 32
0201
0010
1000
0001
0010
1000
0001
0010
,  // measure 33
0301
0100
0010
1000
0100
0010
0001
1000
,  // measure 34
0010
0001
1000
0100
0001
0010
0001
1000
,  // measure 35
0100
0000
0000
0000
0010
0000
0000
0000
0100
0000
0000
0000
1000
0000
0000
0000
0100
0000
0010
0000
0001
0000
0010
0000
0100
0000
0010
0000
0001
0010
0100
1000
,  // measure 36
0001
0000
0100
0001
0200
0000
0310
0100
0020
0000
1030
0010
2000
0000
3200
0000
,  // measure 37
2300
0000
3010
1000
0020
0000
0130
0010
0200
0000
0301
0100
0002
0000
0023
0000
,  // measure 38
0032
0000
1003
0001
2000
0000
3010
1000
0020
0000
0130
0010
0200
0000
0302
0000
,  // measure 39
0203
0000
0000
0000
0310
0000
0100
0000
0020
0000
0000
0000
1030
0000
0010
0000
2000
0000
0000
0000
3200
0000
0000
0000
1300
0100
0010
0000
0001
0010
0001
0010
,  // measure 40
0012
0000
0000
0000
1003
0000
1000
0000
0001
0010
0100
0000
1000
0000
1000
0000
,  // measure 41
1000
0010
0100
0010
1000
0000
0001
0000
0010
0100
0010
0000
0001
0010
0001
0000
,  // measure 42
0012
0000
0000
0000
0103
0000
0100
0000
0001
1000
0001
0000
1000
0000
0010
0000
,  // measure 43
0100
0001
0010
0001
0100
0000
0010
0000
1000
0100
1000
0000
0010
0100
0010
0000
,  // measure 44
1010
0000
0000
0000
1000
0000
1000
0000
1000
0001
1000
0000
0001
0000
0001
0000
,  // measure 45
0001
0100
0010
1000
0100
0000
0100
0000
1000
0100
1000
0000
1000
0100
1000
0000
,  // measure 46
1001
0000
0000
0000
0010
0000
0010
0000
0001
1000
0010
0000
0100
0000
0100
0000
,  // measure 47
0001
1000
0010
0100
0010
0000
0100
0000
0001
1000
0001
0000
0001
1000
0001
0000
,  // measure 48
0120
0000
0000
0000
1030
0000
1000
0000
0001
0010
0100
0000
0010
0000
0010
0000
,  // measure 49
0100
0010
0001
0010
0100
0000
1000
0000
0010
0100
0010
0000
0010
0100
0010
0000
,  // measure 50
2010
0000
0000
0000
3100
0000
0100
0000
1000
0100
0010
0000
0001
0000
0001
0000
,  // measure 51
1000
0001
0010
0001
1000
0000
0100
0000
0010
0001
0010
0000
0010
0001
0010
0000
,  // measure 52
1002
0000
0000
0000
1003
0000
1000
0000
0001
0010
0001
0000
0100
0000
0100
0000
,  // measure 53
0010
0100
0001
0100
0010
0000
0010
0000
1000
0010
1000
0000
0001
0010
0001
0000
,  // measure 54
2100
0000
0000
0000
3100
0000
0100
0000
1000
0010
1000
0000
0010
0000
0010
0000
,  // measure 55
1000
0001
0100
0001
1000
0000
1000
0000
0001
0100
0001
0000
0001
0100
0001
0000
,  // measure 56
0201
0000
0000
0000
0000
0000
0000
0000
0000
0000
0000
0000
0000
0000
0000
0000
0000
0000
0000
0000
0300
0000
0000
0000
0002
0000
0000
0003
2000
0000
0000
3000
,  // measure 57
1020
0000
0000
0000
0030
0000
2000
0000
0000
0000
3000
0000
0100
0000
0010
0000
0110
0000
0000
0000
0000
0000
0100
0000
1000
0000
0100
0000
1000
0100
0010
0001
,  // measure 58
1000
0000
0010
0000
1000
0100
0001
1000
0010
0001
1000
0010
0100
1000
0100
0010
,  // measure 59
0200
0000
000M
M000
030M
M000
002M
M000
000M
M000
003M
M000
010M
M000
020M
M000
1000
0000
0010
0000
1300
0000
0010
0000
0100
0010
0001
1000
0100
0010
0001
1000
,  // measure 60
0001
0000
0001
0000
1000
0001
1000
0001
2000
0000
0100
0000
3200
0000
0010
0000
,  // measure 61
0320
0001
0100
0001
0130
0010
0001
1000
,  // measure 62
0002
1000
1000
2003
0010
0010
3020
0001
,  // measure 63
0100
0000
0001
0000
0130
0000
0010
0100
0010
0000
1000
0000
0001
1000
0001
1000
,  // measure 64
0001
0000
0100
0000
0001
0000
0100
0010
0100
0000
0001
0000
0010
0000
1000
0000
,  // measure 65
0010
0000
0100
0000
0010
0000
0001
0010
0100
0000
1000
0000
0001
0000
1000
0000
,  // measure 66
0100
0000
0010
0000
0001
0000
0100
0001
0100
0000
0010
0000
1000
0000
0100
0000
,  // measure 67
0110
0000
0110
0000
1100
0000
1100
0000
1000
0001
1000
0001
1000
0001
1000
0001
,  // measure 68
1000
0000
0010
0000
0100
0000
0010
0100
0020
0000
1000
0000
2030
0000
0001
0000
,  // measure 69
3002
1000
0010
1000
0023
0100
0130
0010
,  // measure 70
0002
0010
0010
0023
0100
0100
0230
1000
,  // measure 71
0010
0000
1000
0000
0310
0000
0100
0010
0100
0000
0100
0000
1000
0010
0100
0010
,  // measure 72
1000
0000
0100
0000
0010
0000
0001
0010
0001
0000
0100
0000
0001
0000
1000
0000
,  // measure 73
0010
0000
0001
0000
0100
0000
1000
0100
1000
0000
1000
0000
0001
0000
0010
0000
,  // measure 74
0100
0000
0010
0000
0001
0000
0100
0001
0010
0000
0001
0000
1000
0000
0010
0000
,  // measure 75
1010
1010
0011
0011
0110
0110
1001
1001
,  // measure 76
0202
0000
0000
0000
0000
0000
0000
0000
0000
0000
0300
0M00
0000
0000
0000
0000
,  // measure 77
0000
0000
0000
0000
0000
0000
0000
0000
0000
0000
0000
0000
0000
0000
0000
0003
000M
0000
0000
0000
0000
0000
0000
0000
0000
0000
0000
0000
0000
0000
0000
0000
;

//---------------dance-single - *screams in Hungarian*----------------
#NOTES:
     dance-single:
     X-Scale 15:
     Hard:
     10:
     0.646947,0.795247,0.068408,0.232588,0.430973,662.000000,652.000000,10.000000,34.000000,0.000000,0.000000,0.646947,0.795247,0.068408,0.232588,0.430973,662.000000,652.000000,10.000000,34.000000,0.000000,0.000000:
0000
0000
0000
0000
,
0000
0000
0000
0000
,
0000
0000
0000
0000
,
0000
0000
0000
0000
,
1000
0100
0001
1000
0010
0001
1000
0100
,
0001
1000
0010
0001
1000
0100
0010
0010
,
0001
0100
1000
0001
0010
1000
0001
0100
,
0101
0100
0110
0010
4010
0000
0001
0000
,
3100
0000
0000
1000
0100
0000
1000
0000
0001
0000
0010
0001
0000
0000
1000
0000
,
0010
0000
0000
0100
0010
0000
1000
0100
0010
0000
0001
0100
0001
0000
0001
0000
,
1000
0000
0100
0010
0001
0000
1000
0000
0001
0000
0100
0010
1000
0000
0001
0010
,
0001
0000
0000
0100
0010
0000
1000
0010
1000
0001
0000
0100
0010
0000
0100
0010
,
0110
0000
1000
0000
0001
0000
1000
0000
0100
0000
0010
0001
1000
0000
0010
0100
,
0001
0000
0010
0001
1000
0000
0010
0100
0001
0000
1000
0100
0010
0000
0001
1000
,
0100
0010
0001
0000
0200
0000
1300
0100
0001
0100
0010
1000
0002
0000
0103
0001
,
2000
0000
3010
1000
0002
0000
0013
0001
2000
0000
3000
0000
0020
0000
0230
0000
,
0302
0100
1000
0010
,
1003
0001
0010
0001
2000
0000
3200
0010
,
0310
0000
0000
0000
0001
0000
1000
0001
1000
0000
0010
0000
0100
0000
0100
0000
,
0001
0000
0010
0000
0001
0000
1000
0100
1000
0000
0001
0000
0100
0010
0100
0010
,
0200
0000
0301
0100
1000
0100
0010
0100
,
0001
0010
0001
1000
0200
0000
0301
0100
,
1000
0000
0000
0000
0010
0000
0000
0100
0010
0000
1000
0000
0001
0000
0000
0000
,
0040
0000
0032
2003
,
3200
0001
1000
0001
,
2300
0000
3001
1000
0100
1000
0001
0010
,
0100
0000
0000
0000
1000
0000
0001
1000
0001
0000
0100
0000
0010
0000
0100
0000
,
0001
0000
1000
0000
0100
0000
1000
0001
1000
0000
0010
0000
0100
0010
0100
0010
,
0100
0001
1000
0001
0010
1000
0001
0100
,
1000
0001
1000
0010
0100
0001
1000
0100
,
2000
0001
3002
1000
,
2003
0001
0010
0010
0001
0001
0100
0100
,
3200
0001
0010
1000
0001
0010
1000
0001
,
1300
0100
0001
0100
0010
0001
1000
0010
,
1000
0001
0010
0100
0010
0001
1000
0100
,
1000
0000
0001
0000
0010
0000
0100
0000
0010
0001
0000
0010
0001
0000
2000
0000
,
3010
0000
1000
0010
1000
0000
0010
1000
0010
0000
1000
0010
1000
0000
0001
0000
,
0010
0000
0100
0010
0100
0000
0010
0100
0010
0000
0100
0010
0100
0000
1000
0000
,
0001
0000
1000
0100
1000
0000
0100
1000
0100
0000
1000
0100
1000
0000
0010
0000
,
0100
0000
0001
1000
0001
0000
1000
0001
1000
0000
0001
1000
0001
0000
0010
0000
,
0011
0000
0000
0000
0001
0000
0001
0000
0001
0010
0001
0000
1000
0000
1000
0000
,
1000
0100
1000
0100
1000
0000
0001
0000
0100
0001
0100
0000
0001
0100
0001
0000
,
1000
0000
0000
0000
0010
0000
0010
0000
0010
0100
0010
0000
1000
0000
1000
0000
,
1000
0001
1000
0001
1000
0000
0100
0000
0010
0001
0010
0000
0010
0001
0010
0000
,
0001
0000
0000
0000
1000
0000
0010
0000
1000
0010
1000
0000
0001
0000
0001
0000
,
1000
0001
1000
0001
1000
0000
1000
0000
0001
0100
0001
0000
0001
0100
0001
0000
,
1000
0000
0000
0000
0100
0000
1000
0000
0100
1000
0100
0000
0010
0000
0010
0000
,
0001
0010
0001
0010
0001
0000
0100
0000
0010
0100
0010
0000
0010
0100
0010
0000
,
0110
0000
0000
0000
0100
0000
0001
0000
1000
0001
1000
0000
0010
0000
0100
0000
,
0001
0100
0010
0100
0001
0000
1000
0000
0100
0010
0001
0000
1000
0100
0010
0000
,
0001
0000
0000
0000
1000
0000
0010
0000
0100
0010
0100
0000
0001
0000
0010
0000
,
0100
1000
0001
1000
0100
0000
0010
0000
0001
0100
0010
0000
0100
0010
1000
0000
,
0001
0000
0000
0000
1000
0000
0010
0000
0100
0010
0100
0000
0001
0000
0100
0000
,
0010
0100
0001
0100
0010
0000
1000
0000
0100
0010
0001
0000
1000
0100
0010
0000
,
0001
0000
0000
0000
1000
0000
0010
0000
0100
0010
1000
0000
0001
0000
0001
0000
,
1000
0001
1000
0001
1000
0000
0010
0000
0100
0010
0100
0000
0010
0100
0010
0000
,
0210
0000
0000
0000
0000
0000
0000
0000
0000
0000
0000
0000
0000
0000
0000
0000
0000
0000
0000
0000
0300
0000
0000
0000
0002
0000
0000
0003
0020
0000
0000
0030
,
0200
0000
0000
0000
0300
0000
2000
0000
0000
0000
3000
0000
0002
0003
2000
3000
1001
0000
0000
0000
0000
0000
1000
0000
0100
0000
1000
0000
0002
0000
0003
0000
,
0101
0100
0010
0100
0010
1000
0001
1000
,
0001
0000
0010
0000
0100
0000
1000
0000
0001
0000
0010
0000
0100
0000
1000
0000
0001
0000
0001
0000
0001
0000
0001
0000
1000
0100
1000
0100
1000
0100
1000
0100
,
1000
0000
0100
0000
0010
0000
0001
1000
0001
0000
0100
0000
0010
0000
1000
0000
,
0001
0000
0100
0000
0010
0000
1000
0100
1000
0000
0100
0000
0001
0000
0100
0000
,
1000
0000
0010
0000
0100
0000
0001
1000
0001
0000
0010
0000
0100
0000
1000
0000
,
0001
0000
0010
0000
0100
0000
1000
0010
1000
0000
0010
0000
0100
0001
1000
0001
,
0100
0000
0010
0000
1000
0000
0001
0010
0001
0000
0100
0000
0010
0000
1000
0000
,
0100
0000
0010
0000
0001
0000
1000
0010
1000
0000
0010
0000
0001
0000
0010
0000
,
0100
0000
0010
0000
1000
0000
0001
1000
0001
0000
0100
0000
0010
0000
0100
0000
,
0001
0000
0001
0000
0001
0000
0001
0000
0001
1000
0010
0100
0001
1000
0010
0100
,
0001
0000
0100
0000
0010
0000
0100
0010
1000
0000
0100
0000
0001
0000
0100
0000
,
1000
0000
0001
0000
0100
0000
0001
0100
0010
0000
0100
0000
1000
0000
0100
0000
,
0001
0000
0010
0000
0100
0000
1000
0100
1000
0000
0001
0000
0100
0000
0010
0000
,
0100
0000
0001
0000
0010
0000
0100
1000
0100
0000
1000
0000
0001
0100
0001
0100
,
0001
0000
0100
0000
1000
0000
0100
0010
0100
0000
0010
0000
1000
0000
0001
0000
,
0010
0000
0100
0000
1000
0000
0001
1000
0001
0000
0100
0000
0010
0000
0100
0000
,
0001
0010
0200
1000
2300
0001
3002
0100
,
0013
0100
0010
0100
0001
1000
0001
1000
,
2002
0000
0000
0000
0000
0003
0000
0000
,
0000
0000
3000
0000
;

//---------------dance-single - Goodbye summer...----------------
#NOTES:
     dance-single:
     X-Scale 12:
     Medium:
     8:
     0.425109,0.602806,0.123135,0.287315,0.034204,435.000000,417.000000,18.000000,42.000000,0.000000,4.000000,0.425109,0.602806,0.123135,0.287315,0.034204,435.000000,417.000000,18.000000,42.000000,0.000000,4.000000:
0000
0000
0000
0000
,
0000
0000
0000
0000
,
0000
0000
0000
0000
,
0000
0000
0000
0000
,
0001
0100
0010
0100
0001
0100
0010
0100
,
0001
1000
0100
1000
0001
1000
0100
1000
,
0001
0010
0100
0010
0001
0010
0100
0010
,
0001
1000
0001
1000
0100
0010
0100
0010
,
0001
0000
0000
0000
0010
0000
0100
0000
0010
0000
0000
0001
0000
0000
1000
0000
,
0002
0000
0000
0000
0100
0003
0001
0000
1000
0000
0100
0000
0100
0000
0000
0000
,
1000
0000
0001
0000
0010
0000
0001
0000
1000
0000
0100
1000
0100
0000
0010
0000
,
0001
0000
0000
0100
0000
0000
0001
0000
0000
1000
0000
0000
0100
0000
0100
0000
,
1100
1000
0100
0010
0001
1000
0100
0010
,
0001
1000
0100
0010
0001
1000
0100
0010
,
0001
0010
0001
0000
2000
0000
0000
3010
0010
0000
0100
0010
1000
0000
0001
0010
,
0100
0000
0010
0100
1000
0000
0001
0100
0010
0000
1000
0000
0100
0000
0010
0000
,
0021
0100
0001
0100
,
0031
0010
0100
0000
0010
0000
0100
0000
,
2000
0000
3000
0002
0000
0003
2000
0000
,
0010
0000
3010
0000
1000
0100
0010
0100
,
1000
0000
0001
0000
1000
0010
1000
0000
,
0100
0000
0010
0000
0100
0010
0100
0000
,
1000
0000
0001
0000
0100
0001
0100
0000
,
0001
0010
0001
0010
0100
1000
0100
1000
,
2001
0010
0100
0010
,
3002
1003
0001
0000
0010
0100
1000
0001
,
1000
0000
0100
0010
0100
0000
1000
0000
,
0001
0000
0100
0000
0010
0100
0010
0000
,
1000
0010
0100
0010
1000
0000
0001
0020
,
0030
0002
0003
0000
1000
0100
0010
0000
,
0002
1000
2003
0010
,
3020
0100
0130
0010
,
0210
0001
0010
0001
,
0310
0000
0100
0010
0100
0000
0001
0100
,
0001
0000
1000
0001
1000
0000
0100
1000
,
0100
0000
0010
0100
0010
0000
0001
0010
,
0001
1000
0001
1000
0100
0010
0100
0010
,
0001
0100
0001
0100
0010
1000
0010
1000
,
0100
0010
0100
0010
0001
0100
0001
0100
,
0010
0000
1000
0000
0010
0000
1000
0000
0100
0000
0010
0000
0002
0000
0000
0003
,
0011
0000
0001
0010
0001
0000
0010
0001
,
0010
0000
0001
0010
0001
0000
0001
0000
,
1001
0000
1000
0010
1000
0000
0010
1000
,
0010
0000
1000
0010
1000
0000
1000
0000
,
1001
0000
0001
0100
0001
0000
0100
0001
,
0100
0010
0100
0001
0100
0000
0100
0000
,
0110
0000
0010
1000
0010
0000
1000
0010
,
0100
0010
1000
0010
0100
0000
0100
0000
,
1010
0000
1000
0100
0010
0000
0100
0010
,
0001
0000
1000
0100
0010
0000
0100
0010
,
0001
0000
1000
0010
0100
0000
0010
0100
,
0001
0000
1000
0010
0100
0000
0100
0000
,
0110
0000
0001
0010
0100
0000
0010
0100
,
1000
0000
0001
1000
0010
0000
0010
0000
,
1010
0000
1000
0001
0100
0000
0010
0100
,
0001
0000
1000
0100
0010
0000
0010
0000
,
0012
0000
0000
0000
0003
0000
1000
0100
,
1010
0000
0000
0000
0110
0000
0100
0001
,
0101
0100
0010
0100
0010
1000
0001
1000
,
0001
0010
0100
0010
0100
0100
1000
1000
,
2100
0000
0002
0023
,
3032
0000
0023
0230
,
2300
0000
0000
3002
0020
0003
0230
0000
,
0320
0000
0030
0002
0000
0003
2000
0000
,
0010
3000
1000
0010
0100
0000
0010
0100
,
0001
0000
0010
0100
1000
0000
0001
0010
,
0100
0000
1000
0001
0100
0000
0010
0100
,
0001
1000
0001
1000
0100
0010
0100
0010
,
0102
0000
2000
3200
,
2303
0000
0000
0000
3010
1000
0001
1000
,
0200
0000
0300
0020
0000
0030
0002
0000
,
2003
0000
3000
0020
0000
0030
2000
0000
,
3001
1000
0100
1000
0001
0000
0010
0200
,
0300
2000
3000
0000
0001
0010
0100
0010
,
0001
1000
0100
0010
,
0100
1000
0000
0001
,
1002
0000
0000
0000
0000
0003
0000
0000
;

//---------------dance-single - there goes your innocence T_T----------------
#NOTES:
     dance-single:
     X-Scale 7:
     Easy:
     5:
     0.330315,0.497970,0.068408,0.232588,0.017102,338.000000,328.000000,10.000000,34.000000,0.000000,0.000000,0.330315,0.497970,0.068408,0.232588,0.017102,338.000000,328.000000,10.000000,34.000000,0.000000,0.000000:
0000
0000
0000
0000
,
0000
0000
0000
0000
,
0000
0000
0000
0000
,
0000
0000
0000
0000
,
1000
0000
0100
0000
0010
0001
0000
1000
,
0001
0000
0010
0001
1000
0001
0010
0010
,
0010
0000
0100
0000
0001
1000
0000
0100
,
1000
0001
1000
0001
0020
0000
0000
0000
,
0130
0000
0010
0001
1000
0000
0010
1000
,
0002
0000
0013
0100
1000
0000
0001
1000
,
0010
0000
0100
0010
1000
0000
0100
0010
,
0001
0000
1000
0001
0100
0000
0010
0010
,
0110
0000
0100
0010
1000
0000
0001
0100
,
0010
0000
1000
0100
0010
0000
0100
0010
,
0001
0000
1000
0001
0100
0000
0010
0100
,
0001
0000
1000
0000
0100
0000
0010
0000
0001
1000
0001
1000
0001
0000
0100
0000
,
0020
0001
0000
1000
,
0000
0030
0010
0000
0100
0000
0001
0000
,
1000
0000
0000
0100
0000
0000
0010
0100
,
1000
0001
1000
0010
,
0100
0000
0010
1000
0000
0001
0000
0010
,
0100
0000
0000
1000
0001
0000
1000
0000
,
0010
0000
0000
0100
0000
0000
0002
0000
,
2003
0000
3100
0010
,
0002
1000
0000
0010
,
0023
0030
0001
0000
0010
0000
0100
0010
,
0100
0000
0000
1000
0000
0000
0002
0000
,
0103
0001
1000
0100
,
0010
0001
1000
0001
0010
0000
0100
1000
,
0000
0001
0000
0000
0100
0010
0100
0000
,
0002
0000
0203
0000
,
0320
0000
1030
0001
,
2001
0000
0000
0000
,
3010
1000
0010
1000
,
0100
0010
0100
0010
,
0001
1000
0001
1000
,
0010
0100
0010
0100
,
0001
1000
0001
1000
,
0100
0010
0100
0010
,
0001
1000
0001
1000
,
2001
0000
0010
0000
,
0001
0000
0100
0100
,
0100
0000
0001
0000
,
3100
0000
2000
3001
,
1001
0000
0001
0010
0001
0000
0001
0000
,
1000
0010
1000
0010
1000
0000
1000
0000
,
1010
0000
0001
1000
0001
0000
0100
0000
,
0010
0100
0010
0100
0010
0000
0010
0000
,
0101
0000
0001
0010
0001
0000
0010
0001
,
0010
0000
0001
1000
0100
0000
0100
0000
,
0100
0000
0010
0100
0010
0000
0100
0010
,
0100
0000
1000
0001
0100
0000
0100
0000
,
0100
0000
0001
0100
0001
0000
0100
0001
,
0100
0000
0010
1000
0001
0000
0001
0000
,
0001
0000
0010
0100
0010
0000
0100
0010
,
0100
0000
1000
0001
0200
0000
0320
0000
,
2030
0000
3000
0000
,
1001
0000
0000
0000
0110
0000
1000
0100
,
1100
1000
0100
1000
0100
0010
0001
0010
,
0001
0000
0000
1000
0000
0000
0001
0000
0100
0010
0100
0010
0100
0000
0001
0000
,
2000
0010
0000
0001
,
3002
0013
0100
1000
,
0001
0000
0000
0100
0000
0000
0002
0000
,
0013
0100
1000
0010
,
1000
0000
0100
0010
0000
0001
0000
1000
,
0001
0000
0010
0100
0010
0000
0001
0000
,
1000
0000
0010
0100
0010
0000
1000
0000
,
0100
0010
0100
0010
0100
0000
1000
0000
,
0002
1000
0000
0010
,
0023
0130
0200
1300
,
0100
1000
0001
0100
,
0020
0000
0030
2000
0000
3000
0002
0000
,
0010
0000
0013
0000
0001
0000
1000
0010
,
0000
0100
0000
0000
0001
0010
0100
0000
,
2000
3200
0320
0032
,
0203
0320
1030
0001
,
2002
0000
0000
0000
0000
3003
0000
0000
;
