#TITLE:Virtual Virus;
#SUBTITLE:;
#ARTIST:Kobaryo;
#TITLETRANSLIT:;
#SUBTITLETRANSLIT:;
#ARTISTTRANSLIT:;
#GENRE:Hardstyle;
#CREDIT:;
#BANNER:Virtual Virus-bn.png;
#BACKGROUND:Virtual Virus-bg.png;
#LYRICSPATH:;
#CDTITLE:cdtitle.png;
#MUSIC:Virtual Virus.ogg;
#OFFSET:-0.155000;
#SAMPLESTART:50.661003;
#SAMPLELENGTH:12.650000;
#SELECTABLE:YES;
#BPMS:0.000000=152.000000
;
#STOPS:
;
#BGCHANGES:;
#KEYSOUNDS:;
#ATTACKS:;

//---------------dance-single - ----------------
#NOTES:
     dance-single:
     :
     Hard:
     9:
     0.558725,0.732286,0.173363,0.388333,0.627574,564.000000,539.000000,25.000000,56.000000,0.000000,0.000000,0.558725,0.732286,0.173363,0.388333,0.627574,564.000000,539.000000,25.000000,56.000000,0.000000,0.000000:
// measure 0
0000
0000
0000
0000
,  // measure 1
0000
0000
0000
0000
,  // measure 2
0000
0000
0000
0000
,  // measure 3
0000
0000
0000
0000
,  // measure 4
0000
0000
0000
0000
,  // measure 5
0000
0000
0000
0000
,  // measure 6
0000
0000
0000
0000
,  // measure 7
0000
0000
0000
0000
,  // measure 8
1002
0100
0010
0100
,  // measure 9
2003
0000
0010
0010
3020
0000
1000
0000
,  // measure 10
0230
0000
0010
0320
0001
0000
1000
0000
,  // measure 11
2030
3020
0032
0023
,  // measure 12
2030
0010
0100
0010
,  // measure 13
3002
0000
0100
0100
0203
0000
0010
0000
,  // measure 14
0320
0000
1000
2030
0000
0000
3010
1000
,  // measure 15
0002
0023
2030
3020
,  // measure 16
0032
0010
1000
0010
,  // measure 17
1003
0001
1000
0010
1000
0000
1000
0000
,  // measure 18
1002
0000
0100
0203
0001
0000
0010
0000
,  // measure 19
0320
0230
2300
3200
,  // measure 20
0320
0001
0100
1000
,  // measure 21
0130
0001
0010
0001
0100
0000
0001
0000
,  // measure 22
0102
0000
1000
2003
0001
0000
3020
0000
,  // measure 23
2030
0100
0001
0100
,  // measure 24
3001
1001
0110
1001
,  // measure 25
0110
0000
0000
1010
0000
0000
0101
0000
0000
1010
0000
0100
,  // measure 26
0100
0000
0001
0200
0000
0300
0002
0000
0003
1000
0000
1000
,  // measure 27
0010
0000
1000
0020
0000
0030
0100
0010
0100
0210
0000
0000
,  // measure 28
0301
0100
0001
0100
0010
0100
0010
0100
0001
0100
0001
1000
,  // measure 29
0010
1000
0010
0100
0010
0100
0010
0000
0100
0001
0000
0000
,  // measure 30
0004
4003
3400
0340
,  // measure 31
0130
0000
0000
0100
0000
0000
0100
0000
0010
0110
0000
0000
,  // measure 32
0110
0000
0010
0001
0000
0010
0100
0000
0010
0001
0000
0100
,  // measure 33
0001
0000
1000
0010
0000
1000
0100
0000
1000
0001
0000
0001
,  // measure 34
0001
0000
0100
0010
0000
0100
1000
0000
0100
0010
0000
0010
,  // measure 35
1000
0000
0001
0100
0000
0001
0010
0100
0010
0001
0000
0000
,  // measure 36
0011
0000
0001
1000
0000
0100
0010
0000
0100
1000
0000
0001
,  // measure 37
1000
0000
0001
0100
0000
0010
1000
0000
0001
1000
0000
1000
,  // measure 38
0001
0000
0100
0001
0000
0010
0100
0000
0010
0001
0000
0010
,  // measure 39
0011
0000
0000
0101
0000
0000
0001
1000
0001
1000
0000
0000
,  // measure 40
1001
0000
1000
0010
0000
0100
0010
0000
1000
0010
0000
0010
,  // measure 41
0100
0000
0001
0100
0000
0010
0100
0000
0001
1000
0000
1000
,  // measure 42
0100
0000
1000
0001
0000
0010
0001
0000
1000
0100
0000
1000
,  // measure 43
0010
0000
0100
0001
0000
1000
0010
0100
0010
1000
0000
0000
,  // measure 44
1010
0000
0010
0100
0000
0001
0100
0000
0010
0100
0000
0001
,  // measure 45
1000
0000
0010
0100
0000
0010
0001
0000
0010
1000
0000
1000
,  // measure 46
0001
0000
0100
0001
0000
0100
0010
0000
0100
1000
0000
0100
,  // measure 47
0010
0000
0100
0010
0000
0100
0020
0000
0000
0000
0000
0000
,  // measure 48
1030
0000
1000
0001
0000
1000
0001
0000
0000
0001
0000
0000
,  // measure 49
0100
0000
0000
0010
0000
0010
1000
0000
0010
1000
0000
0000
,  // measure 50
1000
0000
1000
0001
0000
0000
0100
0000
0000
0001
0000
0001
,  // measure 51
0010
0000
0001
0010
0000
0000
0001
0010
0100
1000
0000
0000
,  // measure 52
1000
0010
1000
0010
1000
0010
1000
0000
0010
0100
0000
0000
,  // measure 53
0100
0001
0100
0001
0100
0001
0100
0000
0001
0010
0000
0000
,  // measure 54
0004
0403
0340
4030
,  // measure 55
3010
0000
0000
0010
0000
0000
0010
0000
0100
0110
0000
0000
,  // measure 56
0110
0000
0010
1000
0000
0010
1000
0000
0010
1000
0000
1000
,  // measure 57
0001
0010
0001
0010
0100
0010
0100
0010
0001
0010
0000
0010
,  // measure 58
0001
0000
1000
0001
0000
1000
0001
0000
1000
0001
0000
0010
,  // measure 59
0100
0010
0001
0010
0000
0010
0001
1000
0001
1000
0000
0000
,  // measure 60
1001
0000
0001
0100
0000
0001
0100
0000
0001
0100
0000
0010
,  // measure 61
1000
0100
1000
0100
0010
0100
0010
0100
1000
0100
0000
0100
,  // measure 62
1000
0000
0001
0010
0000
0001
0100
0000
0001
0010
0000
0010
,  // measure 63
0001
0000
0001
1000
0000
1000
0010
0000
0010
0100
0010
0100
,  // measure 64
0010
0000
0100
0110
0000
0010
1000
0000
0010
1000
0000
0010
,  // measure 65
0100
0001
0100
0001
0010
0001
0010
0001
0100
0001
0000
0001
,  // measure 66
1000
0000
0010
1000
0000
0100
0010
0000
0100
1000
0000
0001
,  // measure 67
0100
0010
1000
0010
0000
0010
0100
0001
0100
0010
0000
0000
,  // measure 68
0110
0000
0100
0010
0000
0100
0010
0000
0100
0010
0000
0100
,  // measure 69
0010
0000
1000
0001
0000
1000
0001
0000
1000
0001
0000
1000
,  // measure 70
0001
0010
0100
0010
0001
0010
0100
1000
0100
1000
0001
1000
,  // measure 71
0001
0100
0010
1000
0000
1000
0001
0100
0010
1000
0000
0000
,  // measure 72
1100
0000
1000
0000
0001
0100
0010
0000
,  // measure 73
0100
0000
0001
0000
1000
0010
0100
0000
,  // measure 74
0010
0000
1000
0000
0001
0010
0100
0000
,  // measure 75
0010
0000
0001
0000
1000
0100
0010
0000
,  // measure 76
0100
0000
0010
0000
0001
1000
0100
0000
,  // measure 77
1000
0000
0001
0000
0100
0001
0010
0000
,  // measure 78
0001
0000
1000
0000
0010
0100
0001
0000
,  // measure 79
0010
0000
0100
0000
1000
0001
0010
0000
,  // measure 80
0011
0020
0031
0020
0130
0020
0031
0020
,  // measure 81
0130
2000
3100
2000
3010
2000
3001
2000
,  // measure 82
3010
0200
1300
0200
0310
0200
1300
0200
,  // measure 83
0310
2000
3001
0020
0130
2000
3010
0200
,  // measure 84
0301
0020
0130
0020
0031
2000
3100
2000
,  // measure 85
3010
1000
0001
1000
,  // measure 86
0010
0100
0001
0100
,  // measure 87
0002
1000
0010
0100
,  // measure 88
0013
0000
0000
0000
;

//---------------dance-single - ----------------
#NOTES:
     dance-single:
     :
     Medium:
     8:
     0.494333,0.579726,0.291250,0.055476,0.412604,499.000000,457.000000,42.000000,8.000000,0.000000,0.000000,0.494333,0.579726,0.291250,0.055476,0.412604,499.000000,457.000000,42.000000,8.000000,0.000000,0.000000:
// measure 0
0000
0000
0000
0000
,  // measure 1
0000
0000
0000
0000
,  // measure 2
0000
0000
0000
0000
,  // measure 3
0000
0000
0000
0000
,  // measure 4
0000
0000
0000
0000
,  // measure 5
0000
0000
0000
0000
,  // measure 6
0000
0000
0000
0000
,  // measure 7
0000
0000
0000
0000
,  // measure 8
1000
0010
0001
0100
,  // measure 9
1000
0000
0001
1000
0001
0000
0001
0000
,  // measure 10
0100
0000
0010
0100
0001
0000
1000
0000
,  // measure 11
2000
3200
2300
3020
,  // measure 12
1030
0001
0100
0010
,  // measure 13
1000
0000
0100
1000
0100
0000
0010
0000
,  // measure 14
0100
0000
1000
0001
0100
0000
0100
0001
,  // measure 15
1000
0001
0010
0100
,  // measure 16
0110
0010
1000
0010
,  // measure 17
0001
0010
0001
0010
0100
0000
0010
0000
,  // measure 18
0011
0000
1000
0001
1000
0000
0010
0000
,  // measure 19
0001
0100
1000
0010
,  // measure 20
1010
0010
1000
0100
,  // measure 21
1000
0100
1000
0100
0010
0000
0100
0000
,  // measure 22
1100
0000
0010
1000
0001
0000
0001
1000
,  // measure 23
0020
0001
1000
0001
,  // measure 24
1030
1010
1000
1001
,  // measure 25
0001
0000
0000
0101
0000
0000
0001
0000
0000
0011
0000
0001
,  // measure 26
0100
0000
0001
1000
0000
0000
1000
0000
0000
1000
0000
0010
,  // measure 27
0100
0000
0010
0100
0000
0000
0001
1000
0100
0010
0000
0000
,  // measure 28
0110
0000
0010
0001
0000
0000
0001
0000
0000
0001
0000
0000
,  // measure 29
0101
0000
0000
0100
0000
1000
0100
0000
0010
0100
0000
0000
,  // measure 30
0004
0000
4003
0010
,  // measure 31
3010
0000
0000
0010
0000
0000
0010
0000
0100
0010
0000
0000
,  // measure 32
0110
0000
0010
1000
0000
0000
1001
0000
0000
0110
0000
0000
,  // measure 33
1001
0000
0001
0010
0000
0010
0100
0000
0100
1000
0000
0001
,  // measure 34
0001
0000
1000
0010
0000
0000
1010
0000
0000
0110
0000
0000
,  // measure 35
0101
0000
0001
0100
0000
0001
1000
0100
1000
0100
0000
0000
,  // measure 36
1100
0000
1000
0100
0000
0000
1100
0000
0000
1001
0000
0000
,  // measure 37
0011
0000
0001
0100
0000
0010
0100
0000
0001
0100
0000
0010
,  // measure 38
0010
0000
1000
0100
0000
0000
1100
0000
0000
1001
0000
0000
,  // measure 39
0011
0000
0000
0001
0000
0000
0001
0010
0100
1000
0000
0000
,  // measure 40
1001
0000
1000
0010
0000
0100
0010
0000
1000
0010
0000
0100
,  // measure 41
0010
0000
1000
0010
0000
0100
0010
0000
0010
1000
0000
0001
,  // measure 42
0100
0000
0010
0100
0000
0001
0100
0000
0010
0100
0000
0001
,  // measure 43
0100
0000
0010
0100
0000
0100
0001
0010
0001
0010
0000
0000
,  // measure 44
0011
0000
0001
1000
0000
0010
1000
0000
0100
1000
0000
0010
,  // measure 45
1000
0000
0001
1000
0000
0010
1000
0000
0100
1000
0000
1000
,  // measure 46
0001
0000
0100
0001
0000
0010
0001
0000
0100
0001
0000
1000
,  // measure 47
0001
0000
0100
0001
0000
0010
0002
0000
0000
0000
0000
0000
,  // measure 48
1003
1001
0110
1001
,  // measure 49
0100
0000
0000
0010
0000
0100
0001
0000
0100
0010
0000
0000
,  // measure 50
0110
0000
0000
0011
0000
0000
1100
0000
0000
0011
0000
0001
,  // measure 51
0010
0000
0001
0010
0000
0000
0100
0010
0100
1000
0000
0000
,  // measure 52
1100
0000
1000
0010
0000
1000
0010
0000
0000
0010
0000
0000
,  // measure 53
0110
0000
0010
0100
0000
0001
0100
0000
0010
0100
0000
0000
,  // measure 54
0004
0000
0403
0000
,  // measure 55
0310
0000
0000
0010
0000
0000
0010
0000
0100
0010
0000
0000
,  // measure 56
0110
0000
0010
0001
0000
0000
0001
0000
0000
0001
0000
0001
,  // measure 57
1000
0000
0000
1000
0000
0000
1000
0000
0010
1000
0000
0010
,  // measure 58
1010
0000
1000
0100
0000
0000
0100
0000
0000
0100
0000
0010
,  // measure 59
0100
1000
0100
0010
0000
0010
0001
1000
0001
0010
0000
0000
,  // measure 60
0011
0000
0001
0100
0000
0000
0100
0000
0000
0100
0000
0010
,  // measure 61
1000
0000
0000
0001
0000
1000
0001
0000
0100
0001
0000
0001
,  // measure 62
0100
0000
0001
0010
0000
0000
0001
0000
0000
1000
0000
1000
,  // measure 63
0001
0000
0001
1000
0000
1000
0020
0000
0000
0001
0000
0000
,  // measure 64
0130
0000
0100
0110
0000
0010
1000
0000
0010
0001
0000
0010
,  // measure 65
1000
0000
0100
0010
0000
0100
1000
0000
0100
0001
0000
0100
,  // measure 66
1000
0000
0010
1000
0000
0100
0010
0000
0100
1000
0000
0001
,  // measure 67
0100
0001
0100
0001
0000
0001
1000
0010
1000
0100
0000
0000
,  // measure 68
1100
0000
0100
1000
0000
0000
0010
0000
0000
1000
0000
1000
,  // measure 69
0010
0000
0000
0100
0000
0100
1000
0000
0100
0001
0000
1000
,  // measure 70
0001
0000
0010
0100
0000
0000
0010
0000
0000
0001
0000
0001
,  // measure 71
1000
0100
0010
0001
0000
1000
0001
0010
0100
1000
0000
0000
,  // measure 72
1100
1000
0001
0010
,  // measure 73
0100
0010
0001
1000
,  // measure 74
0001
0100
0001
0010
,  // measure 75
0100
0000
1000
0000
0001
1000
0010
0000
,  // measure 76
1000
0010
0001
0100
,  // measure 77
1000
0001
0100
0010
,  // measure 78
1000
0010
0001
0100
,  // measure 79
1000
0000
0001
0000
0010
0100
0010
0000
,  // measure 80
0110
0000
0100
0000
1000
0001
1000
0000
,  // measure 81
0100
0000
0010
0000
0100
1000
0100
0000
,  // measure 82
0001
0000
0010
0000
1000
0010
1000
0000
,  // measure 83
0010
0000
0100
0000
0001
0100
0001
0000
,  // measure 84
0010
0000
0100
0000
1000
0100
1000
0000
,  // measure 85
0010
0000
0100
0000
0001
0100
0001
0000
,  // measure 86
1000
0000
0100
0000
0010
0100
0010
0000
,  // measure 87
0020
1000
0001
1000
,  // measure 88
0130
0000
0000
0000
;

//---------------dance-single - ----------------
#NOTES:
     dance-single:
     :
     Easy:
     5:
     0.344745,0.396655,0.131756,0.332857,0.114420,348.000000,329.000000,19.000000,48.000000,0.000000,0.000000,0.344745,0.396655,0.131756,0.332857,0.114420,348.000000,329.000000,19.000000,48.000000,0.000000,0.000000:
// measure 0
0000
0000
0000
0000
,  // measure 1
0000
0000
0000
0000
,  // measure 2
0000
0000
0000
0000
,  // measure 3
0000
0000
0000
0000
,  // measure 4
0000
0000
0000
0000
,  // measure 5
0000
0000
0000
0000
,  // measure 6
0000
0000
0000
0000
,  // measure 7
0000
0000
0000
0000
,  // measure 8
2000
0000
0001
0000
,  // measure 9
3020
0000
0000
1000
2030
0000
0001
0000
,  // measure 10
3200
0000
0010
0320
0000
0000
0100
0000
,  // measure 11
0230
2300
3002
0023
,  // measure 12
0032
0000
0100
0000
,  // measure 13
2003
0000
0010
3020
0000
0000
2030
0000
,  // measure 14
3002
0000
0100
0203
0000
0000
0320
0000
,  // measure 15
2030
3002
0023
0032
,  // measure 16
0203
0000
1000
0000
,  // measure 17
0301
0100
0001
0010
,  // measure 18
0021
0000
0100
0230
0000
0000
0010
0000
,  // measure 19
0320
2030
3200
0320
,  // measure 20
0230
0000
0001
0000
,  // measure 21
1300
0100
0010
0100
,  // measure 22
0210
0000
0010
0320
0000
0000
2030
0000
,  // measure 23
3020
0230
0302
0203
,  // measure 24
0310
0000
0100
0000
,  // measure 25
0001
0000
0000
0000
0000
0000
1000
0000
0000
0000
0000
1000
,  // measure 26
0001
0000
0100
0000
,  // measure 27
0010
0000
1000
1010
,  // measure 28
1001
0001
1000
0001
,  // measure 29
1000
0100
0010
0001
,  // measure 30
0011
0000
0001
0000
,  // measure 31
0001
0001
0001
1001
,  // measure 32
1001
1000
0001
0100
,  // measure 33
0100
0000
0000
0010
0000
0010
0100
0000
0010
0100
0000
0000
,  // measure 34
0001
0000
0000
0010
0000
0000
0001
0000
0000
1000
0000
0001
,  // measure 35
0100
0000
0001
0100
0000
0001
0200
0000
0000
0310
0000
0000
,  // measure 36
0110
0100
0001
1000
,  // measure 37
0001
0000
0000
0010
0000
0100
1000
0000
0100
1000
0000
0000
,  // measure 38
0010
0100
0001
1000
,  // measure 39
0100
0100
0020
0031
,  // measure 40
0011
0001
1000
0010
,  // measure 41
0100
0000
0000
0001
0000
0100
0001
0000
0100
0001
0000
0000
,  // measure 42
0010
0000
0000
0100
0000
0000
0001
0000
0000
0100
0000
1000
,  // measure 43
0100
0000
1000
0100
0000
1000
0200
0000
0000
0310
0000
0000
,  // measure 44
0110
0001
1000
0010
,  // measure 45
0100
0000
0000
0001
0000
1000
0010
0000
1000
0010
0000
0000
,  // measure 46
0100
0001
0010
0100
,  // measure 47
0020
0030
0020
0030
0020
0000
0000
0000
,  // measure 48
0130
1000
0010
1000
,  // measure 49
0100
0010
0001
0010
,  // measure 50
1000
0010
0001
0010
,  // measure 51
0100
1000
0020
1030
,  // measure 52
1010
0100
0010
0100
,  // measure 53
0001
0010
0100
0010
,  // measure 54
0110
0000
0010
0000
,  // measure 55
1000
1000
1000
1001
,  // measure 56
1001
0001
1000
0100
,  // measure 57
0010
0000
0000
0100
0000
0010
0001
0000
0010
0001
0000
0000
,  // measure 58
1000
0001
0100
0010
,  // measure 59
0100
0000
0100
0010
0000
0100
0002
0000
0000
0013
0000
0000
,  // measure 60
0011
0001
1000
0001
,  // measure 61
0010
0000
0000
0100
0000
0100
0010
0000
0100
1000
0000
0000
,  // measure 62
0100
0000
0000
0010
0000
0000
0001
0000
0000
1000
0000
0001
,  // measure 63
1000
0000
0001
1000
0000
0001
2000
0000
0000
0000
0000
0000
,  // measure 64
3000
1001
1000
0001
,  // measure 65
1000
0000
0000
0010
0000
0100
0010
0000
0100
0010
0000
0000
,  // measure 66
0100
0000
0000
0001
0000
0000
0010
0000
0000
0100
0000
0100
,  // measure 67
0010
0000
0100
1000
0000
0100
2000
0000
0000
3010
0000
0000
,  // measure 68
1010
0100
0010
0001
,  // measure 69
0010
0000
0000
0100
0000
0010
0001
0000
0010
0100
0000
0000
,  // measure 70
0100
0000
0000
1000
0000
0000
0010
0000
0000
0100
0000
0100
,  // measure 71
0002
0000
0000
0003
0000
0010
0200
0000
0000
0310
0000
0000
,  // measure 72
0110
0001
0010
1000
,  // measure 73
0010
0001
1000
0001
,  // measure 74
0010
0100
1000
0001
,  // measure 75
1000
0100
0001
0010
,  // measure 76
1000
0010
0100
0001
,  // measure 77
0010
0100
1000
0001
,  // measure 78
1000
0010
0100
0001
,  // measure 79
0010
0100
0010
0001
,  // measure 80
0011
0001
1000
0010
,  // measure 81
0100
0010
0001
0010
,  // measure 82
0100
0001
1000
0100
,  // measure 83
0010
0100
0001
0100
,  // measure 84
1000
0100
1000
0001
,  // measure 85
0010
0001
1000
0100
,  // measure 86
0010
0001
0010
0100
,  // measure 87
2000
0000
0001
0000
,  // measure 88
3100
0000
0000
0000
;

//---------------dance-single - ----------------
#NOTES:
     dance-single:
     :
     Beginner:
     2:
     0.196148,0.274607,0.097083,0.194167,0.000000,198.000000,184.000000,14.000000,28.000000,0.000000,0.000000,0.196148,0.274607,0.097083,0.194167,0.000000,198.000000,184.000000,14.000000,28.000000,0.000000,0.000000:
0000
0000
0000
0000
,
0000
0000
0000
0000
,
0000
0000
0000
0000
,
0000
0000
0000
0000
,
0000
0000
0000
0000
,
0000
0000
0000
0000
,
0000
0000
0000
0000
,
0000
0000
0000
0000
,
0002
0000
0000
0000
,
0023
0000
0032
0000
,
0203
0000
0000
0320
0000
0000
0000
0000
,
0130
0000
0001
0010
,
0002
0000
0000
0000
,
2003
0000
0000
3200
0000
0000
0320
0000
,
0032
0000
0000
0203
0000
0000
0320
0000
,
0130
0000
0010
0100
,
0001
0000
0000
0000
,
1000
0000
0001
0000
,
0100
0000
0010
0000
,
0100
0000
0001
0010
,
0100
0000
0000
0000
,
1000
0000
0010
0000
,
1000
0000
0001
0000
,
0020
0000
0000
0000
,
0031
0000
0000
0000
,
1000
0000
0000
0000
,
0100
0000
0000
0000
,
0010
0000
0000
0000
,
0110
0000
0000
0000
,
0001
0000
0000
0000
,
1000
0000
0100
0000
,
1100
0000
0000
0000
,
1001
0000
0001
0000
,
0100
0000
0010
0010
,
0010
0000
1000
0000
,
0001
0000
2000
3010
,
1010
0000
0001
0000
,
0100
0000
0010
0010
,
0010
0000
1000
0000
,
0100
0100
0200
1300
,
1100
0000
1000
0010
,
1000
0000
0001
0010
,
0001
0000
0100
0010
,
0100
0000
0002
0013
,
0011
0000
1000
0010
,
0100
0000
0001
0100
,
0010
0000
1000
0001
,
1000
1000
2000
0000
,
3100
0000
0001
0001
,
0001
0000
1000
1000
,
1000
0000
0010
0010
,
0010
0000
0200
0310
,
0110
0000
0000
0000
,
1000
0000
0000
0000
,
0001
0000
0010
0000
,
0011
0000
0000
0000
,
0101
0000
0001
0000
,
0010
0000
0100
0100
,
0100
0000
1000
0000
,
0001
0000
0020
0031
,
0011
0000
1000
0000
,
0001
0000
0100
0100
,
0100
0000
0001
0000
,
0010
0010
0020
0000
,
0030
0011
0001
1000
,
0001
0000
0010
0100
,
0010
0000
0001
0010
,
0100
0000
2000
3010
,
1010
0000
0010
0010
,
0010
0000
0100
0100
,
0100
0000
0001
1000
,
0002
0003
2000
3100
,
1100
1000
0000
0010
,
0000
0001
0000
0010
,
0000
0100
0000
0001
,
0000
1000
0000
0001
,
1000
0100
0000
1000
,
0000
0001
0000
0100
,
0000
0010
0000
1000
,
0000
0001
0000
1000
,
1002
1000
0000
0010
,
0000
0100
0000
1000
,
2003
0001
0000
0100
,
0000
0010
0000
0100
,
3200
1000
0000
0001
,
0000
1000
0000
0010
,
0320
0100
0000
0001
,
0002
0000
0000
0000
,
0033
0000
0000
0000
;
