#TITLE:Virtual Angel;
#SUBTITLE:;
#ARTIST:ARTMS;
#TITLETRANSLIT:;
#SUBTITLETRANSLIT:;
#ARTISTTRANSLIT:;
#GENRE:K-Synthpop;
#CREDIT:;
#BANNER:Virtual Angel-bn.png;
#BACKGROUND:Virtual Angel-bg.png;
#LYRICSPATH:;
#CDTITLE:cdtitle.png;
#MUSIC:Virtual Angel.ogg;
#OFFSET:-0.003000;
#SAMPLESTART:57.834000;
#SAMPLELENGTH:23.132999;
#SELECTABLE:YES;
#BPMS:0.000000=83.000000
,16.000000=166.000000
,112.000000=83.000000
,128.000000=166.000000
,192.000000=83.000000
,212.000000=166.000000
,276.000000=83.000000
;
#STOPS:
;
#BGCHANGES:0.000=Virtual Angel.avi=1.000=1=0=0=StretchNoLoop==CrossFade==,
99999=-nosongbg-=1.000=0=0=0 // don't automatically add -songbackground-
;
#KEYSOUNDS:;
#ATTACKS:;

//---------------dance-single - ----------------
#NOTES:
     dance-single:
     X-Scale 3:
     Beginner:
     2:
     0.095343,0.191877,0.000000,0.000000,0.000000,84.000000,84.000000,0.000000,0.000000,0.000000,0.000000,0.095343,0.191877,0.000000,0.000000,0.000000,84.000000,84.000000,0.000000,0.000000,0.000000,0.000000:
0000
0000
0000
0000
,
0000
0000
0000
0000
,
0000
0000
0000
0000
,
0000
0000
0000
0000
,
0001
0000
0000
0000
,
1000
0000
0000
0000
,
0100
0000
0000
0000
,
1000
0000
0000
0000
,
0001
0000
0100
0000
,
0001
0000
0000
0000
,
1000
0000
0100
0000
,
1000
0000
0000
0000
,
0001
0000
0000
0000
,
0100
0000
0000
0000
,
0001
0000
0000
0000
,
1000
0000
0000
0000
,
0001
0000
0000
0000
,
0100
0000
0000
0000
,
0001
0000
0000
0000
,
1000
0000
0000
0000
,
0100
0000
0000
0000
,
0010
0000
0000
0000
,
0100
0000
0000
0000
,
1000
0000
0000
0000
,
0100
0000
0000
0000
,
0010
0000
0000
0000
,
0100
0000
0000
0000
,
1000
0000
0000
0000
,
0000
1000
0000
0001
,
0000
0100
0000
0001
,
0000
1000
0000
0010
,
0000
0100
0000
0000
,
0001
0000
0000
0000
,
1000
0000
0000
0000
,
0010
0000
0000
0000
,
1000
0000
0000
0000
,
0001
0000
0100
0000
,
0001
0000
0000
0000
,
1000
0000
0100
0000
,
1000
0000
0000
0000
,
0001
0000
0000
0000
,
0010
0000
0000
0000
,
0100
0000
0000
0000
,
1000
0000
0000
0000
,
0001
0000
0100
0000
,
0001
0000
0000
0000
,
1000
0000
0100
0000
,
1000
0000
0000
0000
,
0001
0000
0010
0000
,
0100
0000
1000
0000
,
0100
0010
0100
1000
,
0001
1000
0000
0000
,
0000
0000
0000
0000
,
0001
0000
0000
0000
,
1000
0000
0000
0000
,
0010
0000
0000
0000
,
1000
0000
0000
0000
,
0001
0000
0010
0000
,
0001
0000
0000
0000
,
1000
0000
0010
0000
,
1000
0000
0000
0000
,
0001
0000
0000
0000
,
0100
0000
0000
0000
,
0001
0000
0000
0000
,
1000
0000
0000
0000
,
0001
0000
0010
0000
,
0001
0000
0000
0000
,
1000
0000
0010
0000
,
1000
0000
0000
0000
,
0001
0000
0000
0000
;

//---------------dance-single - ----------------
#NOTES:
     dance-single:
     X-Scale 7:
     Easy:
     5:
     0.286028,0.333699,0.079452,0.286028,0.000000,252.000000,242.000000,10.000000,36.000000,0.000000,0.000000,0.286028,0.333699,0.079452,0.286028,0.000000,252.000000,242.000000,10.000000,36.000000,0.000000,0.000000:
0000
0000
0000
0000
,
0000
0000
0000
0000
,
0000
0000
0000
0000
,
0000
0000
0000
0000
,
1000
0000
0000
0001
0000
0100
0000
0002
,
0000
1000
0000
1003
,
0100
0000
0000
0010
0000
0100
0000
0020
,
0000
0001
0000
0031
,
1000
0000
0100
0010
0100
0000
1000
0000
,
0001
0100
0001
1000
,
0001
0000
0010
0100
0010
0000
0001
0000
,
1000
0100
0000
0100
,
1100
0000
0000
2000
0000
3002
0000
0203
,
0000
0000
0000
0300
0001
0000
0000
0000
,
0010
0000
0000
0200
0000
2300
0000
3200
,
0000
0000
0000
0000
0300
0010
0100
0010
,
0100
0000
1000
0000
0000
0001
0100
0002
,
0000
2003
0000
0000
3000
0100
0010
0100
,
0010
0000
0001
0000
0000
0000
1000
0001
,
0000
0100
0000
0000
0001
0000
1000
0000
,
0001
0000
0000
0100
0000
0010
0000
1000
,
0000
0000
0001
0000
0000
0100
0001
0000
,
1000
0000
0000
0020
0030
2000
3000
0002
,
0000
0000
0023
0000
0000
0130
1000
0100
,
1000
0000
0001
0000
0000
0001
0100
0000
,
0002
0100
2003
0100
,
3001
0000
1000
0000
0000
0100
0010
0000
,
0002
0010
2003
0010
,
3001
1001
0000
1100
,
0000
0101
0000
0110
,
0000
1100
0000
0101
,
0000
0011
0000
0000
,
2000
0000
0000
3200
0000
0000
0320
0000
,
0000
0030
0001
0000
0000
1000
0001
0000
,
0020
0000
0000
0230
0000
0000
2300
0000
,
0000
0000
3001
0000
0000
1000
0001
1000
,
0001
0010
0001
1000
,
0000
0000
0100
0000
0000
1000
0001
1000
,
0001
1000
0100
0010
,
0000
0001
0000
1000
,
0002
0000
0000
0023
0000
0000
0230
0000
,
0000
0000
1300
0000
0001
0000
1000
0100
,
1000
0001
0100
0001
,
0000
0000
0010
0000
0000
0000
0100
1000
,
0001
1000
0001
1000
,
0000
0000
0100
0000
0000
0100
0010
0000
,
0001
0000
0100
0001
1000
0000
0010
0000
,
0000
0000
1000
0000
0000
0001
1000
0000
,
1001
0100
1000
0001
,
0100
0001
0010
0001
,
1000
0100
0010
0001
,
0100
0010
1000
0001
0200
0000
0000
0000
,
0300
0000
0000
0000
,
0011
0000
0001
0000
1000
0001
1000
0000
,
0010
0000
0100
0000
0001
0100
0001
0000
,
0010
0000
0100
0000
1000
0100
1000
0000
,
0001
0000
0100
0000
0010
0100
0010
0000
,
1000
0100
0010
0002
,
0000
0000
0103
0000
0001
0100
0001
0000
,
0010
0000
0100
0000
1000
0001
1000
0000
,
0100
0000
0010
0000
0100
1000
0100
2000
,
0000
0000
0000
3002
0000
0203
0000
0302
,
0000
0100
0000
1003
,
0001
0000
0000
0020
0000
0230
0000
2300
,
0000
0001
0000
3001
,
1000
0000
0100
0010
0001
0000
1000
0000
,
0001
0000
0100
0000
0001
0100
0001
0000
,
0010
0000
0100
1000
0100
0000
0010
0000
,
0001
0000
1000
0000
0001
0100
0001
0000
,
1000
0000
0100
0000
,
1000
0000
0000
0000
;

//---------------dance-single - ----------------
#NOTES:
     dance-single:
     X-Scale 10:
     Medium:
     7:
     0.391585,0.586059,0.127123,0.532329,0.063562,345.000000,329.000000,16.000000,67.000000,0.000000,0.000000,0.391585,0.586059,0.127123,0.532329,0.063562,345.000000,329.000000,16.000000,67.000000,0.000000,0.000000:
0000
0000
0000
0000
,
0000
0000
0000
0000
,
0000
0000
0000
0000
,
0000
0000
0000
0000
0000
0000
0000
0000
0000
0000
0000
0000
0000
0001
0100
0001
,
0000
0000
0101
0002
0000
2003
0000
3002
,
0000
0000
0100
0000
0000
1003
0001
1000
,
0100
0000
1100
2000
0000
3002
0000
2003
,
0000
0010
0000
3001
,
1000
0000
0100
0010
0001
0000
1000
0000
,
0001
0000
0100
0000
0001
0010
0100
0000
,
1000
0000
0001
0000
1000
0001
0100
0000
,
0001
0000
1000
0000
0010
0100
0010
0100
,
0000
0000
0000
0002
0000
2003
0000
3002
,
0000
0000
0003
0000
0010
0100
2000
0000
,
3001
0000
0100
0002
0000
2003
0000
3002
,
0000
0000
0010
0000
0003
0001
1000
0001
,
0100
0000
0010
0100
0001
0000
1000
0200
,
0000
0320
0100
0000
0030
0010
0100
1000
,
0001
0000
0100
0000
0001
0000
1000
0001
,
0000
0100
0000
0000
0001
0100
1000
0100
,
0001
0000
1000
0100
0000
1000
0000
0001
,
0000
0000
0100
0000
0001
0010
0100
0000
,
1000
0000
0001
0100
0000
0010
0000
2000
,
0000
0000
3001
0000
1000
0100
0001
0100
,
1000
0000
1001
0000
0001
0100
0001
0000
,
1000
0000
1100
0000
0100
0010
0100
0000
,
1000
0000
1010
0000
0001
1000
0001
0000
,
0100
0000
0101
0000
0001
0100
1000
0100
,
0001
0001
1001
1000
0100
0010
0001
0200
,
1000
0000
0301
2000
0200
3000
0320
0000
,
0031
1000
1001
0001
0100
0010
0100
0001
,
0010
0000
0000
0010
0100
0000
2000
0000
0000
0000
3000
0000
0001
0010
1000
0010
,
0002
0000
0000
2003
0000
0000
3020
0000
,
0001
0000
1030
0010
0100
0001
1000
0000
,
0200
0000
0000
0320
0000
0000
0032
0000
,
0010
0000
1000
0000
0013
1000
0001
0100
,
1000
1100
0001
0101
,
0100
0000
0110
0000
0010
0100
0001
1000
,
0100
1100
0001
1001
,
0100
0000
0101
0000
0001
0010
0100
0010
,
0002
0000
1000
2003
0000
0100
3200
0000
,
0010
0000
1000
0000
0301
0100
1000
0000
,
0001
0100
0010
0000
1000
0000
0100
0000
,
1000
0000
0001
0000
0100
0000
0001
0010
,
0200
0302
0203
2300
,
0001
0000
3010
0000
1000
0000
0100
0010
,
0002
0000
0103
0010
2000
0000
3002
0000
,
0103
0000
0001
0010
0200
0000
0000
0300
,
1100
0000
0000
0000
0000
0000
0000
0000
1000
0000
0000
0000
0000
0000
0000
0000
0100
0000
0000
0000
0000
0000
0000
0000
0010
0000
0000
0010
0000
0000
0100
0000
,
1000
0000
0000
0000
0000
0000
0000
0000
0001
0000
0000
0000
0000
0000
0000
0000
0100
0000
0000
0000
0000
0000
0000
0000
0010
0000
0000
0010
0000
0000
0100
0000
,
0001
0100
0010
1000
0100
0010
0001
1000
,
0100
1000
0001
1000
0100
0010
0100
1000
0002
0000
0000
0000
0100
0000
2000
0000
,
3003
0000
0000
0000
,
0120
0000
0000
2030
0000
0000
3002
0000
,
1000
0000
0013
0000
0100
0010
0001
0000
,
2000
0000
0000
3020
0000
0000
0230
0000
,
0001
0000
0010
0000
0301
0000
0100
0010
,
1000
0000
0100
0010
0002
0000
2003
0000
,
3100
0000
1000
0000
0001
0010
1000
0010
,
0001
0000
1000
0002
0000
0000
0203
0000
,
0310
0000
1000
0100
0001
0100
0010
0002
,
0000
0000
0103
0200
0000
0302
0000
2003
,
0000
0100
0000
3100
,
1000
0000
0001
0020
0000
0230
0000
2300
,
0000
0001
0000
3100
,
0010
0000
1000
0010
0002
0000
0203
0000
,
0301
0000
1000
0000
0001
0100
0001
0000
,
0010
0000
0100
1000
0200
0000
0320
0000
,
0001
0000
0130
0010
0002
0000
0000
2003
,
0000
0000
0000
0000
3002
0000
0000
0103
0020
0000
0000
1030
0200
0000
0000
1300
,
0002
0003
0000
0000
;

//---------------dance-single - ----------------
#NOTES:
     dance-single:
     X-Scale 11:
     Hard:
     8:
     0.506223,0.896220,0.222466,0.405206,0.190685,446.000000,418.000000,28.000000,51.000000,0.000000,0.000000,0.506223,0.896220,0.222466,0.405206,0.190685,446.000000,418.000000,28.000000,51.000000,0.000000,0.000000:
// measure 0
0000
0000
0000
0000
,  // measure 1
0000
0000
0000
0000
,  // measure 2
0000
0000
0000
0000
,  // measure 3
0000
0000
0000
0000
0000
0000
0000
0000
0000
0000
0000
1000
0010
0100
0001
1000
,  // measure 4
1001
0000
0001
0010
0000
0100
0010
0002
,  // measure 5
1000
0000
0103
0000
0001
0100
1000
0100
,  // measure 6
0001
0000
1000
0010
0000
1000
0100
0020
,  // measure 7
0001
0000
0100
0000
0031
0010
1000
0010
,  // measure 8
0001
0000
0100
0001
1000
0000
1100
0000
,  // measure 9
0100
0000
1000
0000
0001
0100
1000
0100
,  // measure 10
0001
0000
1000
0001
0100
0000
0101
0000
,  // measure 11
0001
0000
1000
0100
0001
1000
0010
0100
,  // measure 12
1000
0000
0001
0020
0000
0032
0000
2003
,  // measure 13
0100
0000
3001
0000
0010
0100
2000
0000
,  // measure 14
3001
0000
0100
0002
0000
1003
0100
0020
,  // measure 15
1000
0000
0031
0001
0000
1000
0001
1000
,  // measure 16
0100
0000
1000
0000
0001
0000
0100
0001
,  // measure 17
0000
1000
0001
0100
0000
0010
0100
0010
,  // measure 18
0100
0000
0001
1000
0000
0100
0010
0200
,  // measure 19
0000
2300
0000
3000
0001
0100
1000
0100
,  // measure 20
0001
0000
1000
0200
0000
2300
0000
3002
,  // measure 21
0100
0000
1003
0000
0001
0100
0010
0000
,  // measure 22
1000
0000
0000
0000
0010
0000
0001
0000
0000
0000
0100
0000
0000
0000
1000
0100
,  // measure 23
0000
0000
0000
1000
0002
0000
0000
0000
0000
0000
1003
0000
0001
0000
1000
0000
,  // measure 24
0010
0000
0010
0100
1000
0001
0010
0100
,  // measure 25
0002
1000
0203
0010
,  // measure 26
1300
0000
0100
0010
1000
0001
0010
0100
,  // measure 27
1000
0000
0001
0100
0000
0001
0100
0010
,  // measure 28
0101
0000
0001
0000
1001
0000
0100
0000
0000
1000
1000
0000
1100
0000
0001
0000
,  // measure 29
1000
0001
0010
0001
1000
0000
1010
0000
1000
0100
0010
0001
1001
0000
0110
0000
,  // measure 30
1100
0000
0000
0001
0001
0000
0011
0000
0000
0100
0100
0000
0101
0000
1000
0000
,  // measure 31
1100
0000
0000
0100
0100
0000
0110
0000
0000
0000
0000
1000
0100
0001
1000
0010
,  // measure 32
0001
0000
1000
0000
0010
0100
0001
0000
,  // measure 33
1000
0000
0100
1000
0001
0100
0010
0010
,  // measure 34
1000
0000
0010
0100
0000
0100
0001
1000
,  // measure 35
0100
0000
0100
0010
0000
0010
0001
1000
,  // measure 36
0001
0000
0100
0010
0001
0000
0010
0000
,  // measure 37
1000
0000
0001
0000
1000
0100
0001
0100
,  // measure 38
1000
0000
0010
0100
0001
0000
0200
0000
,  // measure 39
0001
0000
0310
0000
0100
0010
0001
0010
,  // measure 40
0100
0000
0001
0000
1000
0100
0001
0000
,  // measure 41
0100
0000
1000
0000
0001
0100
0010
0100
,  // measure 42
0001
0000
1000
0000
0001
0010
0100
0000
,  // measure 43
0001
0000
0100
0000
1000
0100
0001
0100
,  // measure 44
1000
0010
0001
0100
,  // measure 45
1000
0000
0001
0000
0010
0100
1000
0001
,  // measure 46
1000
0000
0100
1000
0010
0000
0001
0000
,  // measure 47
1000
0000
0100
0001
2000
0000
0000
3002
,  // measure 48
0000
0000
0000
0000
0003
0000
0002
0000
1000
0000
0003
0001
0000
0000
0010
0000
0011
0000
0000
1000
0000
0000
0010
0000
0110
0000
0000
0100
0000
0000
0001
0000
,  // measure 49
0101
0000
0000
0000
0000
0000
0000
0000
1100
0000
0000
0100
0000
0000
0010
0000
0011
0000
0000
1000
0000
0000
0001
0000
1001
0000
0000
0100
0000
0000
1000
0000
,  // measure 50
1100
0000
0000
0000
0100
0000
0000
0000
0010
0000
0000
0100
1000
0000
0001
0000
1000
0000
0000
0010
0100
0000
0001
0000
1000
0000
0000
0001
0100
0000
0010
0000
,  // measure 51
1000
0100
0001
0100
1000
0010
0001
0010
1000
0001
2000
0000
3002
0000
0203
0000
,  // measure 52
0300
0000
0000
0000
0000
0000
0000
0000
0000
0000
0000
0000
1000
0010
0001
0010
,  // measure 53
1000
0000
1010
0000
0001
1000
0010
0000
,  // measure 54
1000
0000
0001
0000
0100
0010
1000
0001
,  // measure 55
0020
0000
0000
0000
0100
0000
0230
0000
0000
0000
1000
0000
1300
0000
0000
0001
,  // measure 56
0200
0000
1000
0000
0301
0100
0001
0010
,  // measure 57
0100
0000
0100
0010
0002
0000
2003
0000
,  // measure 58
0100
0000
3001
0000
1000
0100
0001
0100
,  // measure 59
1000
0000
0100
2000
0000
0001
3002
0003
,  // measure 60
0001
0000
1000
0100
0010
1000
0001
0100
,  // measure 61
0010
0000
0001
0202
0303
0220
0330
2200
,  // measure 62
0000
3300
1000
0000
0001
0100
1000
0100
,  // measure 63
0001
0000
1000
2002
3003
0220
0330
2020
,  // measure 64
0000
3030
0001
0000
1000
0100
0001
0100
,  // measure 65
1000
0000
0010
1000
0001
0000
0010
0000
,  // measure 66
1000
0010
0002
0000
2003
0100
0100
0001
,  // measure 67
3001
0000
1000
0001
0200
0000
0302
0000
,  // measure 68
0100
0000
1003
0001
0100
0100
0100
0010
,  // measure 69
1000
0100
0001
0100
2000
0000
0000
3001
0020
0000
0000
1030
0200
0000
0000
0302
,  // measure 70
2000
0000
3003
0000
;
