#VERSION:0.83;
#TITLE:Viola;
#SUBTITLE:;
#ARTIST:Yves;
#TITLETRANSLIT:;
#SUBTITLETRANSLIT:;
#ARTISTTRANSLIT:;
#GENRE:Bubblegum Bass;
#ORIGIN:;
#CREDIT:;
#BANNER:Viola-bn.png;
#BACKGROUND:Viola-bg.png;
#PREVIEWVID:;
#JACKET:Viola-jacket.png;
#CDIMAGE:;
#DISCIMAGE:;
#LYRICSPATH:;
#CDTITLE:cdtitle.png;
#MUSIC:Viola.ogg;
#OFFSET:-0.003000;
#SAMPLESTART:2.165000;
#SAMPLELENGTH:16.993000;
#SELECTABLE:YES;
#BPMS:0.000=111.000;
#STOPS:;
#DELAYS:;
#WARPS:;
#TIMESIGNATURES:0.000=4=4;
#TICKCOUNTS:0.000=4;
#COMBOS:0.000=1;
#SPEEDS:0.000=1.000=0.000=0;
#SCROLLS:0.000=1.000;
#FAKES:;
#LABELS:0.000=Song Start;
#BGCHANGES:4.000=Viola.avi=1.000=0=0=0=StretchNoLoop====,
99999=-nosongbg-=1.000=0=0=0 // don't automatically add -songbackground-
;
#KEYSOUNDS:;
#ATTACKS:
;

//---------------dance-single - ----------------
#NOTEDATA:;
#CHARTNAME:X-Scale 3;
#STEPSTYPE:dance-single;
#DESCRIPTION:;
#CHARTSTYLE:;
#DIFFICULTY:Beginner;
#METER:2;
#RADARVALUES:0.091935,0.133057,0.008697,0.000000,0.000000,74.000000,73.000000,1.000000,0.000000,0.000000,0.000000,0.000000,0.000000,0.000000,0.091935,0.133057,0.008697,0.000000,0.000000,74.000000,73.000000,1.000000,0.000000,0.000000,0.000000,0.000000,0.000000,0.000000;
#CREDIT:iamthek3n;
#NOTES:
// measure 0
0000
0000
0000
0000
,  // measure 1
1000
0000
0000
0000
,  // measure 2
0001
0000
0000
0000
,  // measure 3
1000
0000
0000
0000
,  // measure 4
0001
0000
0000
0000
,  // measure 5
0100
0000
0000
0000
,  // measure 6
0010
0000
0000
0000
,  // measure 7
0100
0000
0000
0000
,  // measure 8
0010
0000
0000
0000
,  // measure 9
1000
0000
0000
0000
,  // measure 10
0001
0000
0000
0000
,  // measure 11
0100
0000
0000
0000
,  // measure 12
0001
0000
0000
0000
,  // measure 13
1000
0000
0000
0000
,  // measure 14
0100
0000
0000
0000
,  // measure 15
0010
0000
0000
0000
,  // measure 16
0100
0000
0000
0000
,  // measure 17
1000
0000
0000
0000
,  // measure 18
0001
0000
0100
0000
,  // measure 19
0001
0000
0000
0000
,  // measure 20
1000
0000
0100
0000
,  // measure 21
0000
1000
0000
1000
,  // measure 22
0000
0001
0000
0001
,  // measure 23
0000
0010
0000
0010
,  // measure 24
0000
0001
0000
0001
,  // measure 25
0000
1000
0000
1000
,  // measure 26
0000
0100
0000
0100
,  // measure 27
0000
1000
0000
1000
,  // measure 28
0000
0001
0000
0000
,  // measure 29
1001
0000
0000
1000
0000
0000
0001
0000
,  // measure 30
0000
0100
0000
0100
,  // measure 31
0000
0000
0001
0000
,  // measure 32
0001
0000
0001
0000
,  // measure 33
0100
0000
0000
0010
0000
0000
1000
0000
,  // measure 34
0000
0100
0000
0100
,  // measure 35
0000
0000
1000
0000
,  // measure 36
1000
0000
1000
0000
,  // measure 37
0001
0000
0000
0100
0000
0000
0001
0000
,  // measure 38
0000
1000
0000
1000
,  // measure 39
0000
0000
0001
0000
,  // measure 40
0001
0000
0001
0000
,  // measure 41
0100
0000
0000
0001
0000
0000
1000
0000
,  // measure 42
0000
0100
0000
0100
,  // measure 43
0000
0000
1000
0000
,  // measure 44
1000
0000
1000
0000
,  // measure 45
0001
0000
0000
0000
,  // measure 46
0000
0000
0000
0000
,  // measure 47
1000
0000
0000
0000
,  // measure 48
0000
0000
0000
0000
,  // measure 49
0001
0000
0000
0000
,  // measure 50
0000
0000
0000
0000
,  // measure 51
1000
0000
0000
0000
;

//---------------dance-single - ----------------
#NOTEDATA:;
#CHARTNAME:X-Scale 6;
#STEPSTYPE:dance-single;
#DESCRIPTION:;
#CHARTSTYLE:;
#DIFFICULTY:Easy;
#METER:4;
#RADARVALUES:0.259654,0.338351,0.086966,0.165235,0.000000,209.000000,199.000000,10.000000,19.000000,0.000000,0.000000,0.000000,0.000000,0.000000,0.259654,0.338351,0.086966,0.165235,0.000000,209.000000,199.000000,10.000000,19.000000,0.000000,0.000000,0.000000,0.000000,0.000000;
#CREDIT:iamthek3n;
#NOTES:
// measure 0
0000
0000
0000
0000
,  // measure 1
1001
0000
0000
0100
0000
0000
1000
0000
,  // measure 2
0000
0001
0000
0001
,  // measure 3
1000
0000
0001
0010
0200
0000
1300
0000
,  // measure 4
0200
0310
0200
1300
,  // measure 5
0001
0000
0000
1000
0000
0000
0010
0000
,  // measure 6
0000
1000
0000
1000
,  // measure 7
0001
0000
1000
0001
0200
0000
0310
0000
,  // measure 8
0200
0301
0200
0300
,  // measure 9
0101
0100
0001
0000
0000
0000
1000
0000
,  // measure 10
0001
1000
0000
0100
,  // measure 11
0010
0100
1000
0000
0000
0000
0001
0000
,  // measure 12
1000
0001
0000
0100
,  // measure 13
0010
0100
0001
0000
0000
0000
1000
0000
,  // measure 14
0001
0000
1000
0000
0010
1000
0001
0000
,  // measure 15
0100
0010
1000
0000
0100
0010
0001
0000
,  // measure 16
1000
0001
0100
0001
1000
0001
0100
0000
,  // measure 17
1001
0100
1000
0000
0001
0100
0001
0000
,  // measure 18
1000
0000
0100
0000
1000
0001
0200
0300
,  // measure 19
0101
0100
0001
0000
0010
0100
1000
0000
,  // measure 20
0001
0000
1000
0000
0010
1000
0001
0010
,  // measure 21
0100
1000
0000
1000
,  // measure 22
0000
0001
0000
0001
,  // measure 23
0000
0100
0000
0100
,  // measure 24
0000
0010
0000
0010
,  // measure 25
0000
1000
0000
1000
,  // measure 26
0000
0100
0000
0100
,  // measure 27
0000
0010
0000
0010
,  // measure 28
0000
0001
0000
0011
,  // measure 29
1001
0000
0100
1000
0000
0001
0100
0000
,  // measure 30
0101
0000
1100
0000
0000
0100
1000
0001
,  // measure 31
0010
0000
0100
0010
0002
0000
0103
0000
,  // measure 32
0002
0000
1003
0000
0002
0000
0013
0100
,  // measure 33
1000
0000
0001
0100
0001
0000
1000
0100
,  // measure 34
1000
0000
1001
0000
1000
0000
0001
0010
,  // measure 35
0100
0000
1000
0001
0200
0000
0301
0000
,  // measure 36
2000
3100
0020
0030
,  // measure 37
0011
0000
0001
0000
1000
0010
1000
0000
,  // measure 38
0001
0000
0010
0000
0100
0010
0001
1000
,  // measure 39
0001
0000
0100
0010
2000
0000
3001
0010
,  // measure 40
0200
0000
0310
0100
2000
0000
3001
1000
,  // measure 41
0010
0000
1000
0000
0100
0010
0001
0000
,  // measure 42
1000
0000
0001
0000
0100
0010
1000
0001
,  // measure 43
0010
0000
0100
0010
0002
0000
1003
0001
,  // measure 44
0200
0000
0301
0010
0200
0000
0300
0000
,  // measure 45
1000
0000
0000
0000
0001
0000
0000
0100
,  // measure 46
0000
0000
0000
0000
,  // measure 47
0001
0000
0000
0000
0010
0000
0000
0100
,  // measure 48
0000
0000
0000
0000
,  // measure 49
1000
0000
0000
0000
0100
0000
0000
0010
,  // measure 50
0000
0000
0000
0001
0000
0000
0000
0000
,  // measure 51
1000
0000
0000
0000
0001
0000
0000
0100
;

//---------------dance-single - ----------------
#NOTEDATA:;
#CHARTNAME:X-Scale 10;
#STEPSTYPE:dance-single;
#DESCRIPTION:;
#CHARTSTYLE:;
#DIFFICULTY:Medium;
#METER:7;
#RADARVALUES:0.416193,0.507009,0.278290,0.269593,0.273942,335.000000,303.000000,32.000000,31.000000,0.000000,0.000000,0.000000,0.000000,0.000000,0.416193,0.507009,0.278290,0.269593,0.273942,335.000000,303.000000,32.000000,31.000000,0.000000,0.000000,0.000000,0.000000,0.000000;
#CREDIT:iamthek3n;
#NOTES:
// measure 0
0000
0000
0000
0000
,  // measure 1
1100
0000
0000
0100
0000
0000
0010
0000
0000
0001
0000
0000
2000
0000
0000
0000
,  // measure 2
3001
0000
0000
0000
0010
0000
0000
0010
0000
0000
0010
0000
0100
0000
1000
0000
,  // measure 3
0001
0000
0000
0000
1001
0000
1000
0000
0200
0000
0000
0000
0310
0001
0000
0000
,  // measure 4
0012
0000
0000
0000
1003
0000
0000
0100
2000
0000
0000
0000
3001
0000
0000
0000
,  // measure 5
0010
0000
0000
0001
0000
0000
1000
0000
0000
0010
0000
0000
0200
0000
0000
0000
,  // measure 6
0301
0000
0000
0000
0101
0000
0000
1000
0000
0000
1000
0000
0001
0000
1000
0000
,  // measure 7
0100
0000
0000
0000
0110
0000
0010
0000
0002
0000
0000
0000
1003
0001
0000
0000
,  // measure 8
0020
0000
0000
0000
0130
0000
0000
0100
2000
0000
0000
0000
3000
0000
0000
0000
,  // measure 9
1100
0000
1000
0000
0001
0000
0010
0000
0000
0010
0000
0000
0100
0000
0010
0000
,  // measure 10
0001
0000
0000
0000
1001
0000
0000
0100
0000
0000
0100
0000
1000
0000
0000
0000
,  // measure 11
0001
0100
0001
0010
0100
0000
1000
0000
,  // measure 12
0001
0000
0000
0000
0100
0000
0000
0000
0001
0100
0001
1000
0000
0100
0000
0000
,  // measure 13
0110
0000
0001
0000
1001
0000
0100
0000
0000
1000
0000
0000
0001
0000
0000
0000
,  // measure 14
1000
0000
0000
0000
1001
0000
0000
0100
0000
0000
1000
0100
1000
0000
0000
0000
,  // measure 15
0001
0000
0100
0000
1000
0000
0100
0000
0000
0100
0000
0100
0001
0000
0000
0000
,  // measure 16
1000
0000
0100
0000
0010
0000
0000
0011
0000
0000
0001
1000
0001
0000
0000
0000
,  // measure 17
1001
0000
0100
0000
1100
0000
1000
0010
0000
0100
0001
0000
0011
0000
0000
0000
,  // measure 18
0001
0010
1000
0001
0100
0010
0001
0000
,  // measure 19
0101
0000
1000
0000
1001
0000
0100
1000
0000
0001
0100
0000
0101
0000
0000
0000
,  // measure 20
1000
0100
0010
1000
0001
0100
0010
0001
,  // measure 21
1000
0000
0000
0000
1001
0000
0000
0000
0100
0000
0000
0100
0000
0000
0100
0000
,  // measure 22
0000
1100
0000
0101
,  // measure 23
0001
0000
0000
0000
1001
0000
0000
0000
0010
0000
0000
0010
0000
0000
0010
0000
,  // measure 24
0000
0011
0000
1010
,  // measure 25
0010
0000
1000
0100
0001
0000
1000
0010
,  // measure 26
0001
1000
0002
0000
0003
0000
1001
0000
,  // measure 27
0001
0010
1000
0000
0001
0100
1000
0001
,  // measure 28
2000
3100
0000
1100
,  // measure 29
0101
0000
0000
0001
1000
0000
0001
0000
0000
0010
0000
0000
0100
0000
0000
0000
,  // measure 30
1100
0000
0000
0100
1000
0000
0000
0001
0000
0001
1000
0000
0100
0000
0010
0000
,  // measure 31
0001
0000
0100
0000
0010
0000
1000
0000
0002
0000
0000
0000
0103
0001
0000
0000
,  // measure 32
2000
0000
0000
0000
3100
0000
0000
1000
0002
0000
0000
0000
0103
0000
0100
0000
,  // measure 33
0101
0000
0000
0001
1000
0000
0100
0000
0000
0010
0000
0000
0002
0000
0000
0000
,  // measure 34
1003
0000
0000
0001
0010
0000
0000
0001
0000
0001
1000
0000
0100
0000
0010
0000
,  // measure 35
1000
0000
0010
0000
0001
0000
1000
0000
0002
0000
0000
0000
0013
0001
0000
0000
,  // measure 36
2000
0000
0000
0100
3000
0000
0000
0100
2000
0000
0001
0000
3000
0000
0000
0000
,  // measure 37
1001
0000
0000
1000
0010
0000
1000
0000
0001
0000
0010
0000
0100
1000
0000
0000
,  // measure 38
0001
0000
0100
0001
0100
0000
0010
0100
0000
0001
1000
0000
0100
0000
0001
0000
,  // measure 39
0100
0000
0010
0000
0001
0000
1000
0000
0002
0000
0000
0000
0013
0100
0000
0000
,  // measure 40
2000
0000
0000
0001
3001
0000
0100
0010
0200
0000
0000
0000
0301
0000
0001
0000
,  // measure 41
1001
0000
0000
0100
1000
0000
0001
0010
0000
0001
1000
0000
0100
0010
0000
0000
,  // measure 42
0001
0000
1000
0001
1000
0000
0100
0010
0000
0010
0001
1000
0001
0000
0010
0000
,  // measure 43
0100
0000
0001
0000
0100
0000
1000
0000
0002
0000
0000
0000
0103
0001
0000
0000
,  // measure 44
2000
0000
0000
0100
3100
0000
1000
0001
0000
0000
1001
0000
0000
0000
0000
0000
,  // measure 45
0002
0000
0000
0000
0023
0000
0000
0230
,  // measure 46
0000
0000
0000
0300
,  // measure 47
2000
0000
0000
0000
3002
0000
0000
0203
,  // measure 48
0000
0000
0000
0300
,  // measure 49
0001
0000
1000
0100
0001
0000
1000
0000
,  // measure 50
0010
0000
0100
0000
1000
0000
0002
0000
0000
0000
0000
0000
0003
0000
0000
1000
,  // measure 51
0001
0100
0010
1000
0100
0010
0001
1000
,  // measure 52
2002
0000
0000
0000
,  // measure 53
3003
0000
0000
0000
;

//---------------dance-single - ----------------
#NOTEDATA:;
#CHARTNAME:X-Scale 13;
#STEPSTYPE:dance-single;
#DESCRIPTION:;
#CHARTSTYLE:;
#DIFFICULTY:Hard;
#METER:9;
#RADARVALUES:0.509370,0.553101,0.347862,0.339166,0.352211,410.000000,370.000000,40.000000,39.000000,15.000000,0.000000,1.000000,0.000000,0.000000,0.509370,0.553101,0.347862,0.339166,0.352211,410.000000,370.000000,40.000000,39.000000,15.000000,0.000000,1.000000,0.000000,0.000000;
#CREDIT:iamthek3n;
#NOTES:
// measure 0
0000
0000
0000
0000
,  // measure 1
1001
0000
0000
0100
0000
0000
1100
0000
0000
0001
0000
0000
1001
0000
0000
0000
,  // measure 2
0001
0000
0000
0000
0110
0000
0000
0010
1000
0000
0001
0000
1000
0000
0100
0000
,  // measure 3
0001
0000
1000
0000
0010
0000
0100
0000
2000
0000
0010
0000
3010
0100
0000
0000
,  // measure 4
0002
0000
0000
0000
1003
0000
0000
0001
0020
0000
0100
0000
0130
0000
0010
0000
,  // measure 5
0110
0000
0000
0001
0000
0000
1001
0000
0000
0010
0000
0000
0011
0000
0000
0000
,  // measure 6
0010
0000
0000
0000
0100
0000
0000
0100
1000
0000
0001
0000
1000
0000
0010
0000
,  // measure 7
0001
0000
1000
0000
0100
0000
0001
0000
0020
0000
0100
0000
0130
0010
0000
0000
,  // measure 8
0002
0000
0000
0000
0103
0000
0000
0001
2000
0000
0010
0000
3020
0030
0000
0000
,  // measure 9
1001
0000
0010
0000
0001
0000
1000
0000
0000
1100
0000
0000
0001
0000
1000
0000
,  // measure 10
0001
0000
0000
0000
0000
0000
0000
0000
0000
0000
0010
0000
0100
0000
0000
0000
0000
0000
1000
0000
0000
0001
0000
0000
1000
0000
0000
0000
0000
0000
0001
0000
0000
0000
0000
0000
0010
0000
0000
0100
0000
0000
0010
0000
0000
0000
0000
0000
,  // measure 11
1001
0000
0001
0000
0100
0000
0101
0000
0000
1100
0000
0000
0100
1000
0001
0000
,  // measure 12
0020
0000
0000
0030
1001
0000
0000
1000
0100
0010
0001
1000
0000
0001
0000
0000
,  // measure 13
0011
0000
1000
0000
1010
0000
1000
0001
0M10
0000
1000
0001
0010
0000
0000
0000
,  // measure 14
1100
0000
0100
0000
1001
0000
0000
0001
0100
0000
0001
0010
0100
0000
0000
0000
,  // measure 15
1000
0100
0010
0001
1000
0000
0010
0100
0001
0000
1000
0000
0100
0000
0010
0000
,  // measure 16
0101
0000
1000
0000
1001
0000
0001
0010
0M00
0000
0010
0100
0001
0000
0000
0000
,  // measure 17
1001
0000
0100
0000
0110
0000
0001
0100
00M0
0100
1000
0000
0100
0010
0000
0000
,  // measure 18
0011
0000
0001
0000
1000
0000
0100
0010
000M
0000
0010
0000
0100
0000
0001
0000
,  // measure 19
1001
0000
0010
0000
0110
0000
1000
0010
000M
0010
0001
0000
0010
0100
0000
0000
,  // measure 20
1100
0000
0000
0000
0100
0000
0000
0000
1000
0000
0000
0000
0001
0000
0100
0000
0004
0000
0000
0000
0013
0000
0100
0000
1000
0000
0000
M00M
0000
0000
0000
0000
,  // measure 21
0200
0000
0301
0000
0001
0010
0100
0001
,  // measure 22
2000
3020
0230
2300
,  // measure 23
3001
0000
1000
0010
0100
1000
0001
0010
,  // measure 24
0200
0000
0302
0000
2003
3000
0200
0000
,  // measure 25
0301
0100
1000
0000
0001
0000
0010
0000
0100
0000
0000
0000
1000
0010
0100
0000
,  // measure 26
0001
0000
1000
0000
0020
0000
0000
0000
0030
0000
0000
0000
1001
0000
0000
1000
,  // measure 27
0100
0001
0100
1000
0001
0010
0100
0010
,  // measure 28
0002
0003
0011
0000
0000
0000
1010
0000
,  // measure 29
1001
0000
0000
0100
0000
0000
0110
0000
0000
0001
0000
0000
0101
0000
0000
0000
,  // measure 30
0001
0000
0000
0001
1000
0000
0010
0100
000M
0100
1000
0000
0001
0000
1000
0000
,  // measure 31
0100
0000
0001
0000
1000
0000
0010
0000
0002
0000
0000
0000
0103
0010
0000
0000
,  // measure 32
2000
0000
0000
0000
3001
0000
0000
0010
0200
0000
0000
0000
0310
0000
0100
0000
,  // measure 33
1100
0000
0000
0001
0000
0000
0101
0000
0000
0100
0000
0000
0110
0000
0000
0000
,  // measure 34
0001
0000
0000
1000
0010
0000
1000
0100
00M0
0100
0001
0000
1000
0000
0001
0000
,  // measure 35
0010
0000
1000
0000
0001
0000
0100
0000
2000
0000
0000
0000
3010
1000
0000
0000
,  // measure 36
0002
0000
0000
0000
0103
0000
0000
0001
0010
0000
0011
0000
0000
0000
0000
0000
,  // measure 37
1100
0000
0000
0100
1000
0000
0001
0100
M000
0100
1000
0000
0100
0010
000M
0010
,  // measure 38
1000
0000
0001
1000
0001
0000
0010
0100
M000
0100
0001
0000
1000
0000
0001
0000
,  // measure 39
1000
0000
0100
0000
0001
0000
0100
0000
2000
0000
0001
0000
3001
0010
0000
0000
,  // measure 40
0002
0000
0100
0000
0103
0000
0001
0000
1000
0000
0010
1000
0001
0000
1000
0000
,  // measure 41
1001
0000
1000
0000
0001
0000
1000
0100
00M0
0100
0010
0000
1000
0001
0000
0000
,  // measure 42
1001
0000
0001
0100
00M0
0100
1000
0000
0001
0100
0010
0100
0001
0000
1000
0000
,  // measure 43
0100
0000
0000
1000
0001
0000
0010
0100
M000
0100
0001
0000
0101
0000
0000
0000
,  // measure 44
1000
0000
0000
0001
1000
0000
0001
0010
0000
0000
0011
0000
0000
0000
0000
0000
,  // measure 45
1000
0000
0000
0000
0001
0010
0100
0001
,  // measure 46
2000
3020
0230
2300
,  // measure 47
3001
0000
1000
0010
0100
1000
0001
0010
,  // measure 48
0200
0302
2003
3200
,  // measure 49
0301
0100
1000
0000
0010
0000
0100
0000
0002
0000
0000
0000
0013
0100
1000
0000
,  // measure 50
0001
0000
1000
0000
0200
0000
2000
0000
0300
0000
0000
0000
0000
0000
3000
0001
,  // measure 51
1000
1000
0001
0100
1000
0100
0001
2000
,  // measure 52
0002
0003
0000
0000
,  // measure 53
3000
0000
0000
0000
;
