#TITLE:Vandalize;
#SUBTITLE:;
#ARTIST:ONE OK ROCK;
#TITLETRANSLIT:;
#SUBTITLETRANSLIT:;
#ARTISTTRANSLIT:;
#GENRE:Pop Rock;
#CREDIT:;
#BANNER:Vandalize-bn.png;
#BACKGROUND:Vandalize-bg.png;
#LYRICSPATH:;
#CDTITLE:cdtitle.png;
#MUSIC:Vandalize.ogg;
#OFFSET:0.113000;
#SAMPLESTART:56.698002;
#SAMPLELENGTH:15.299000;
#SELECTABLE:YES;
#BPMS:0.000000=134.000000
;
#STOPS:226.500000=0.896000
;
#BGCHANGES:2.000=Vandalize.avi=1.000=1=0=0=StretchNoLoop==CrossFade==,
99999=-nosongbg-=1.000=0=0=0 // don't automatically add -songbackground-
;
#KEYSOUNDS:;
#ATTACKS:;

//---------------dance-single - ----------------
#NOTES:
     dance-single:
     X-Scale 2:
     Beginner:
     2:
     0.114367,0.228845,0.021834,0.029112,0.000000,110.000000,107.000000,3.000000,4.000000,0.000000,0.000000,0.114367,0.228845,0.021834,0.029112,0.000000,110.000000,107.000000,3.000000,4.000000,0.000000,0.000000:
0000
0000
0000
0000
,
0000
0000
0000
0000
,
0000
0000
0000
0000
,
0000
0000
0000
0000
,
0000
0000
0000
1000
,
0000
0000
0000
0001
,
0000
0000
0000
0100
,
0000
0000
0010
0000
,
0000
0000
1000
0000
,
0000
0000
0001
0000
,
0000
0000
0010
0000
,
0000
0000
0001
0000
,
0000
0000
1000
0000
,
0000
0000
0010
0000
,
0000
0000
1000
0000
,
0000
0000
0001
0000
,
0000
0000
1000
0000
,
0000
0000
0001
0000
,
0000
0000
0010
0000
,
0000
0000
0100
0000
,
0000
0000
0010
0000
,
0000
0000
0001
0000
,
0000
0000
1000
0000
,
0000
0000
0001
0000
,
0000
0000
0100
0000
,
0000
0000
0000
0001
0000
0000
0000
0000
,
0000
0000
0000
1000
0000
0000
0000
0000
,
0000
0000
0000
0100
0000
0000
0000
1000
,
0000
0000
0000
0100
0000
0000
0000
0000
,
0000
0000
0000
0010
0000
0000
0000
0000
,
0000
0000
0000
0001
0000
0000
0000
0000
,
0000
0000
1000
0000
,
0000
0000
1001
0000
,
1000
0000
0001
0000
,
0100
0000
0001
0000
,
1000
0000
0010
0000
,
1000
0000
0100
0000
,
0010
0000
0100
0000
,
1000
0000
0001
0000
,
0200
0000
0000
0302
0000
0000
0000
0010
,
0000
0003
1001
0000
,
1000
0000
0100
0000
,
0010
0000
0001
0000
,
0100
0000
0010
0000
,
1000
0000
0000
0000
0001
0000
0000
0100
,
0000
0000
0000
0001
0000
0000
0000
1000
,
0000
0000
0000
0001
0000
0000
0000
0000
,
0000
0000
0000
0000
,
0000
0000
0000
0000
0100
0000
0000
0001
,
0000
0000
0000
0000
1000
0000
0000
0001
,
0000
0000
0000
0000
0100
0000
0000
0010
,
0000
0000
0000
0000
1000
0000
0000
0100
,
0000
0000
0000
0000
0010
0000
0000
0100
,
0000
0000
0000
0000
1000
0000
0000
0001
,
0000
0000
0000
0000
0100
0000
0000
0010
,
0000
0000
1000
0000
,
0001
0000
0000
0001
0000
0000
0000
1001
,
0000
0000
1000
0100
0000
0000
1000
0000
,
0000
0000
0001
0100
0000
0000
0001
0000
,
0000
0000
0010
0100
0000
0000
1000
0000
,
0001
0000
0100
0001
0000
0000
1000
0000
,
0000
0000
0010
0100
0000
0000
0010
0000
,
1000
0000
0001
1000
0000
0000
0010
0000
,
0000
0100
0010
0100
0000
0000
0002
0000
,
2000
3003
0000
0000
,
0000
1000
0000
0000
,
0000
0001
0000
0000
,
0000
0100
0000
0000
,
0000
0001
0000
0000
,
0000
0000
1000
0000
0000
0000
0000
1000
;

//---------------dance-single - ----------------
#NOTES:
     dance-single:
     X-Scale 6:
     Easy:
     4:
     0.284878,0.330554,0.021834,0.342062,0.000000,274.000000,271.000000,3.000000,47.000000,0.000000,0.000000,0.284878,0.330554,0.021834,0.342062,0.000000,274.000000,271.000000,3.000000,47.000000,0.000000,0.000000:
// measure 0
0000
0000
0000
0000
,  // measure 1
0000
0000
0000
0000
,  // measure 2
0000
0000
0000
0000
,  // measure 3
0000
0000
0000
0000
,  // measure 4
0000
0000
0000
1000
,  // measure 5
0000
0100
0000
1000
0000
0000
0001
0000
,  // measure 6
0000
0100
0000
0001
0000
0000
0010
0000
,  // measure 7
0000
0100
0000
0010
0200
0000
0000
0000
,  // measure 8
2300
0000
0000
0000
3001
0000
1000
0100
,  // measure 9
0000
1000
0000
0001
0010
0000
0100
1000
,  // measure 10
0000
0001
0000
0200
0000
0320
0000
2030
,  // measure 11
0000
3200
0000
0320
0001
0000
0000
0031
,  // measure 12
0000
0010
0000
0100
1000
0000
0001
1000
,  // measure 13
0000
0010
0000
0100
0010
0000
1000
0100
,  // measure 14
0000
1000
0000
0002
0000
0203
0000
0320
,  // measure 15
0000
2030
0000
3200
0010
0000
0000
0310
,  // measure 16
0100
1000
0001
1000
0020
0000
0000
2030
,  // measure 17
0000
0000
3001
0020
0100
0000
0031
0010
,  // measure 18
0100
1000
0020
0000
2030
0000
0000
3200
,  // measure 19
0000
0000
0310
0002
0010
0000
1003
0001
,  // measure 20
0100
0010
0100
0002
1000
0000
0000
0010
,  // measure 21
0000
1003
0000
0001
0010
0001
1000
0000
,  // measure 22
0100
1000
0001
0200
0010
0000
0000
0001
,  // measure 23
0300
0100
0000
0001
1000
0010
1000
0000
,  // measure 24
0100
0010
0001
1000
,  // measure 25
0000
0010
0000
1000
0000
0000
0100
0000
,  // measure 26
0000
0010
0000
0001
0000
0000
0100
0000
,  // measure 27
0000
0001
0000
1000
0000
0000
0010
0100
,  // measure 28
0010
0000
0000
1000
0000
0000
0001
0000
,  // measure 29
0000
0100
0000
0001
0000
0000
0010
0100
,  // measure 30
0010
0000
0000
0001
0000
0000
1000
0000
,  // measure 31
0000
0010
0000
1000
0000
0100
0000
0010
,  // measure 32
0000
0001
0000
0000
1001
0000
1000
0000
,  // measure 33
0010
1000
0001
0000
0010
0000
0100
0010
,  // measure 34
0001
0000
1000
0000
0010
0000
1000
0100
,  // measure 35
1000
0000
0001
0000
0100
0001
1000
0000
,  // measure 36
0010
0000
0100
0000
0001
0000
0010
0100
,  // measure 37
1000
0000
0001
0000
1000
0001
0100
0000
,  // measure 38
0001
1000
0200
0010
,  // measure 39
2300
0000
0010
0000
3001
0000
1000
0001
,  // measure 40
1000
0000
0010
0200
0000
0000
0301
1000
,  // measure 41
0010
2000
0000
3200
0000
0320
0000
0032
,  // measure 42
0000
2003
0000
3002
0000
0203
0000
0320
,  // measure 43
0000
2030
0000
3002
0000
0203
0000
0302
,  // measure 44
0000
0023
0000
0230
0000
2300
0000
3001
,  // measure 45
0000
1000
0010
2000
0000
3002
0000
0203
,  // measure 46
0000
0302
0000
2003
0000
0000
3000
0000
,  // measure 47
0000
0000
0000
0000
,  // measure 48
0000
0000
0000
0000
1001
0000
1000
0100
,  // measure 49
0000
1000
0001
0000
0010
0000
0100
1000
,  // measure 50
0000
0001
0100
0000
0001
0000
1000
0001
,  // measure 51
0000
0100
0001
0000
0010
0000
0100
1000
,  // measure 52
0000
0001
1000
0000
0001
0000
0010
0100
,  // measure 53
0000
0010
0001
0000
1000
0000
0010
1000
,  // measure 54
0000
0010
0100
0000
0001
0000
0010
0100
,  // measure 55
0000
1000
0001
0000
0100
0001
0000
1000
,  // measure 56
0000
2000
0000
0002
0000
0000
3003
1001
,  // measure 57
0000
0000
1000
0001
0000
0000
0001
0000
,  // measure 58
1000
0000
0010
1000
0000
0000
0100
0000
,  // measure 59
0010
0000
0001
0010
0000
0000
0001
0000
,  // measure 60
1000
0000
0010
1000
0000
0000
0001
0000
,  // measure 61
0100
0000
0010
0100
0000
0000
0001
0000
,  // measure 62
0010
0000
0100
1000
0000
0000
0001
0000
,  // measure 63
0000
1000
0010
1000
0000
0000
0000
0002
,  // measure 64
0000
0000
0103
0000
0000
0010
0000
0100
,  // measure 65
0000
0000
0001
0000
0000
1000
0000
0010
,  // measure 66
0000
0000
0100
0000
0000
0001
0000
0010
,  // measure 67
0000
0000
0100
1000
0000
1000
0001
0100
,  // measure 68
0000
0000
0001
0000
0000
0010
0000
0001
,  // measure 69
0000
0000
1000
0000
0000
0010
0000
1000
;

//---------------dance-single - ----------------
#NOTES:
     dance-single:
     X-Scale 12:
     Medium:
     8:
     0.395087,0.516732,0.058223,0.502176,0.171031,380.000000,372.000000,8.000000,69.000000,0.000000,0.000000,0.395087,0.516732,0.058223,0.502176,0.171031,380.000000,372.000000,8.000000,69.000000,0.000000,0.000000:
// measure 0
0000
0000
0000
0000
,  // measure 1
0000
0000
0000
0000
,  // measure 2
0000
0000
0000
0000
,  // measure 3
0000
0000
0000
0000
,  // measure 4
0000
0000
1000
0002
,  // measure 5
0003
0020
0030
0020
0030
0000
0200
0000
,  // measure 6
0300
2000
3000
2000
3000
0000
0002
0000
,  // measure 7
0003
0200
0300
0200
0320
0000
0100
0000
,  // measure 8
2030
0000
0010
0000
3001
0000
0100
0001
,  // measure 9
0000
1000
0000
0001
0100
0000
0010
1000
,  // measure 10
0000
0100
0000
0020
0000
0230
0000
2300
,  // measure 11
0000
3002
0000
0203
0000
0000
0310
0000
,  // measure 12
0100
0001
1000
0001
0100
0000
0001
1000
,  // measure 13
0000
0010
0000
1000
0100
0000
0010
0001
,  // measure 14
0000
1000
0000
0020
0000
0230
0000
2300
,  // measure 15
0000
3200
0000
0302
0100
0000
1000
1003
,  // measure 16
0001
0100
0010
0100
0001
0000
1000
0001
,  // measure 17
0000
0100
0000
0000
0010
0000
0000
0010
1000
0000
0001
0000
1000
0000
1000
0000
,  // measure 18
0000
0100
0000
0000
0010
0000
0000
0010
0100
0000
1000
0000
0010
0000
0010
0000
,  // measure 19
0000
0100
0000
0000
0001
0000
0000
0001
1000
0000
0001
0000
0100
0000
0100
0000
,  // measure 20
0000
0001
1000
0000
0100
0000
0100
0010
0001
0000
1000
0000
0001
0000
0001
0000
,  // measure 21
0000
0010
0000
0000
0100
0000
0000
0100
1000
0000
0001
0000
0100
0000
0100
0000
,  // measure 22
0000
0001
0000
0000
1000
0000
0000
0001
0010
0000
0100
0000
1000
0000
1000
0000
,  // measure 23
0000
0001
0000
0000
0001
0000
0100
0010
0100
0000
0001
0000
1000
0000
0010
0000
,  // measure 24
1000
0000
0000
0100
0000
0000
0020
0000
0000
0000
0000
0000
1030
0000
0010
0000
,  // measure 25
0001
1000
0001
0200
0000
0000
0310
0100
,  // measure 26
0001
0000
0000
0010
0000
0000
2000
0000
0000
0000
0000
0000
3010
0000
0001
0000
,  // measure 27
1000
0100
0010
0002
0000
0000
1003
0001
,  // measure 28
0100
0001
0000
2002
0000
0000
0000
0000
,  // measure 29
0000
0000
3003
2200
0000
3300
1000
0100
,  // measure 30
0010
0000
0000
0001
0000
0000
0202
0000
0000
0000
0000
0000
0000
0000
0000
0000
,  // measure 31
0000
0000
0000
0303
0001
0000
1000
0010
,  // measure 32
1000
0000
0000
0001
0000
0000
0200
0000
0000
0000
0300
0000
0020
0000
0000
0000
,  // measure 33
0031
0010
1000
0001
1000
0000
0010
1000
,  // measure 34
0001
1000
0000
0020
0000
0030
0200
0000
,  // measure 35
1300
0100
0001
1000
0001
0000
0100
0010
,  // measure 36
0000
1000
0000
0000
0001
0000
0100
0001
1000
0000
0000
0000
0001
0000
0001
0000
,  // measure 37
0000
1000
0100
0000
1000
0000
0000
0000
1000
0000
0000
0000
0001
0000
0001
0000
,  // measure 38
0000
0100
0001
0000
1000
0000
0000
0000
1001
0000
0000
0000
0001
0000
0000
0000
,  // measure 39
1000
0100
0000
0000
1100
0000
0000
1000
0001
0000
1000
0000
0010
0000
0100
0000
,  // measure 40
0001
0010
0100
2000
0100
0000
3001
1000
,  // measure 41
0100
0020
0000
0230
0000
2300
0000
3002
,  // measure 42
0000
0203
0000
2300
0000
3200
0000
0302
,  // measure 43
0000
2003
0000
3200
0000
0302
0000
0203
,  // measure 44
0000
2300
0000
3020
0000
0230
0000
0010
,  // measure 45
0000
0310
0100
0001
0000
1000
0100
0010
,  // measure 46
0000
0001
0000
2002
0000
0000
3003
0000
,  // measure 47
0000
0000
0000
0000
0000
0000
0010
1000
,  // measure 48
0001
0010
0000
0200
1000
0300
0100
0010
,  // measure 49
0001
1000
0010
0200
0010
0300
0001
0100
,  // measure 50
0001
0000
0000
0010
0000
0000
0200
0000
1000
0000
0300
0000
0100
0000
0010
0000
,  // measure 51
0001
1000
0001
0200
0010
0000
0301
1000
,  // measure 52
0100
0000
0000
0010
0000
0000
0001
0000
1000
0000
0000
0000
0001
0000
0001
0000
,  // measure 53
0000
0010
0100
0000
1000
0000
0000
0010
1000
0000
0000
0000
0100
0000
0100
0000
,  // measure 54
0000
0010
0001
0000
1000
0000
0000
0010
1000
0000
0000
0000
0001
0000
0001
0000
,  // measure 55
0000
0100
0001
0000
1000
0000
0000
0010
1000
0000
0001
0000
1000
0000
0001
0000
,  // measure 56
0010
0000
0000
0100
0000
0000
2200
0000
0000
0000
3300
0000
0000
0000
1001
0000
,  // measure 57
0000
0000
1000
0000
0100
0000
0100
0000
0000
0010
0100
0000
1000
0000
0001
1000
,  // measure 58
0001
0000
0100
0000
0010
0000
0010
0000
0000
0100
0001
0000
1000
0000
0001
0000
,  // measure 59
0010
0000
0100
0000
1000
0000
1000
0000
0010
1000
0000
0000
0001
0100
0001
0100
,  // measure 60
0001
0000
1000
0000
0100
0000
0100
0000
0010
0001
0000
0000
1000
0000
0001
0100
,  // measure 61
0001
0000
0010
0000
0100
0000
0100
0000
1000
0010
0000
0000
1000
0000
0002
0000
,  // measure 62
0100
0000
0000
0000
2003
0000
0000
0000
3010
1000
0020
0000
0100
0000
0130
0000
,  // measure 63
0001
0000
1000
0000
0001
0000
1000
0000
0000
0100
0000
0000
0010
0000
0002
0000
,  // measure 64
0000
0000
0013
1000
0010
0100
1000
0200
,  // measure 65
0000
0000
0300
0000
1000
0000
0001
0000
0100
0000
0000
0001
0000
0000
0020
0000
,  // measure 66
0000
0000
1030
0010
0001
1000
0010
0200
,  // measure 67
0000
0300
0001
0100
0001
0010
0000
0200
,  // measure 68
0000
0000
0000
0000
1300
0000
0100
0000
0010
0000
0000
0001
0000
0000
2000
0000
,  // measure 69
0000
0000
0000
0000
3010
0000
1000
0000
0001
0000
0000
0010
0000
0000
0200
0000
,  // measure 70
0000
0000
0000
0000
,  // measure 71
0300
0000
0000
0000
;

//---------------dance-single - ----------------
#NOTES:
     dance-single:
     X-Scale 15:
     Hard:
     10:
     0.553122,0.682305,0.225615,0.276561,0.305672,532.000000,501.000000,31.000000,38.000000,0.000000,0.000000,0.553122,0.682305,0.225615,0.276561,0.305672,532.000000,501.000000,31.000000,38.000000,0.000000,0.000000:
// measure 0
0000
0000
0000
0000
,  // measure 1
0000
0000
0000
0000
,  // measure 2
0000
0000
0000
0000
,  // measure 3
0000
0000
0000
0000
,  // measure 4
0000
0000
0000
0000
1000
0100
0010
0002
,  // measure 5
0000
2003
0000
3002
1003
0010
0100
0002
,  // measure 6
0000
0023
0000
2030
3001
0100
0010
0002
,  // measure 7
0000
2003
0000
3002
0013
1000
0010
0001
,  // measure 8
0100
0000
0001
0000
1000
0000
0100
0000
1100
0000
1000
0100
1000
0000
0010
0000
,  // measure 9
0100
0110
0000
0101
0001
1000
0001
0011
,  // measure 10
0000
0000
1010
0000
0000
0000
1001
0000
0001
0000
1000
0001
1000
0000
1001
0000
,  // measure 11
0000
0011
1000
2010
0001
0010
3001
1000
,  // measure 12
0100
0000
0001
0000
0100
0000
1000
0000
1100
0000
0001
1000
0001
0000
1001
0000
,  // measure 13
0000
0110
0000
0011
0010
0100
1000
0001
,  // measure 14
0100
0000
0101
0000
0000
0000
0110
0000
0100
0000
0010
1000
0010
0000
1010
0000
,  // measure 15
1000
0000
1001
0000
0000
0000
0011
0000
0001
0010
0100
1000
0001
0000
1000
0100
,  // measure 16
0000
0100
0010
0000
0001
0010
0100
0010
0001
0000
0100
0000
0001
0000
0001
0000
,  // measure 17
0100
0010
1000
0000
0010
0000
0001
0010
1000
0000
0001
0000
1000
0000
1000
0000
,  // measure 18
0010
0100
0001
0000
1000
0000
0001
0100
0010
0000
0100
0000
0010
0000
0010
0000
,  // measure 19
1000
0100
0010
0000
0001
0000
0010
0100
1000
0000
0001
0000
0010
0000
0010
0000
,  // measure 20
0100
1000
0000
0000
0001
0100
0010
1000
0001
0000
0010
0000
0100
0000
0100
0000
,  // measure 21
1000
0001
0010
0000
0100
0000
0010
0001
1000
0000
0001
0000
0100
0000
0100
0000
,  // measure 22
0010
0100
0001
0000
0100
0000
1000
0100
0001
0000
1000
0000
0001
0000
0001
0000
,  // measure 23
0100
0001
1000
0000
0010
0000
1000
0001
0100
0000
0010
0000
1000
0000
1000
0000
,  // measure 24
0000
0000
0100
0000
1000
0100
1000
0100
2000
0000
0000
0000
3001
0000
0010
0000
,  // measure 25
1000
0001
0100
2000
0000
0000
3010
1000
,  // measure 26
0002
0000
0000
0203
0000
0000
0320
0000
0000
0000
0000
0000
0031
0000
0010
0000
,  // measure 27
1000
0001
1000
0200
0000
0000
0301
0100
,  // measure 28
1000
0001
0000
0002
0000
0000
1000
0000
,  // measure 29
0000
0100
0003
0220
0000
0330
0001
1000
,  // measure 30
0001
0000
0000
0010
0000
0000
0002
0000
0000
0000
0000
0000
1000
0000
0000
0000
,  // measure 31
0000
0100
0000
1003
1000
1000
1000
0100
,  // measure 32
0010
0000
0000
0001
0000
0000
2000
0000
0001
0000
0100
0000
3001
0000
0001
0000
,  // measure 33
0010
0100
0010
0000
0001
0000
1000
0100
0010
0000
0100
0000
1000
0000
0001
0000
,  // measure 34
0100
0001
0000
0000
0010
0000
0200
0000
1000
0000
0010
0000
1300
0000
1000
0000
,  // measure 35
0100
0010
0001
0000
1000
0000
0001
0100
0001
0000
0010
0000
0100
0000
0100
0000
,  // measure 36
1000
0100
0000
0000
0100
0010
0001
1000
0001
0000
0100
0000
0010
0000
0100
0000
,  // measure 37
0001
1000
0000
0000
0001
0000
1000
0100
0010
0000
0001
0000
0100
0000
0100
0000
,  // measure 38
0001
1000
0000
0000
0100
0000
1000
0100
1000
0000
0000
0000
1001
0000
0000
0000
,  // measure 39
0001
0010
0000
0000
0011
0000
0000
0001
1000
0000
0100
0000
0010
0000
0001
0000
,  // measure 40
1000
0100
0000
0100
0010
0001
0100
0001
0010
0000
0010
0000
0100
0000
0100
0000
,  // measure 41
1000
0100
1000
0000
0001
0000
0100
0001
1000
0000
0010
0000
0100
0000
0100
0000
,  // measure 42
0001
0010
0100
0000
0010
0000
0100
0010
0001
0000
1000
0000
0010
0000
0010
0000
,  // measure 43
1000
0100
0010
0000
0001
0000
0100
0001
1000
0000
0010
0000
0100
0000
0100
0000
,  // measure 44
0001
1000
0100
0000
1000
0010
0100
0001
1000
0000
1000
0000
0001
0000
0101
0000
,  // measure 45
0000
0001
1000
1100
0100
0010
0001
0101
,  // measure 46
0000
0000
0110
0000
0000
0000
2001
0000
0000
0000
0000
0000
3000
0200
0000
0000
,  // measure 47
0000
0000
0300
0020
0000
0000
0000
0000
0030
0002
0000
0000
1000
0003
0001
0000
,  // measure 48
0100
0000
0001
0000
0010
0100
0010
0100
0020
0000
0000
0000
0130
0000
0010
0000
,  // measure 49
0001
1000
0001
0200
0000
0300
0101
1000
,  // measure 50
0001
0000
0000
0100
0000
0000
0020
0000
0000
0000
0030
0000
1001
0000
0001
0000
,  // measure 51
0010
1000
0010
0002
0000
0003
0101
0100
,  // measure 52
0001
0010
0000
0200
0010
0000
0001
0001
,  // measure 53
0000
1000
0000
0000
1300
0000
0000
0100
1000
0000
1000
0000
0001
0000
0100
0000
,  // measure 54
0001
0000
0000
1000
0000
0000
0020
0000
1000
0000
0000
0000
0100
0000
0100
0000
,  // measure 55
0000
0001
0000
0000
0001
0000
0000
0000
0130
0000
0100
0000
0100
0000
0001
0000
,  // measure 56
1000
0000
0100
0010
0100
0010
0200
0000
0000
0000
0300
0000
0000
0000
2002
0000
,  // measure 57
0000
0000
3003
0000
1000
0000
1000
0000
0001
0100
0010
0000
1000
0000
0010
0100
,  // measure 58
1000
0000
0100
0000
0001
0000
0001
0000
0100
0001
1000
0000
0010
0000
0100
0010
,  // measure 59
1000
0000
1000
0000
0001
0000
0010
0000
0100
1000
0000
0000
0100
1000
0001
1000
,  // measure 60
0100
0000
0010
0000
0001
0000
0001
0000
0100
0010
0100
0000
0001
0000
0000
0010
,  // measure 61
0100
0000
1000
0000
0001
0000
0001
0000
0100
0010
0100
0000
0001
0000
0000
0010
,  // measure 62
0100
0000
0010
0000
0001
0000
0001
0000
1000
0010
1000
0000
0100
0000
0010
0000
,  // measure 63
0001
0000
0100
0000
0100
0000
0100
0000
0001
1000
0000
0000
0001
0100
0001
0100
,  // measure 64
0002
0000
0013
0100
0000
1000
0000
0001
,  // measure 65
0100
1000
0100
0001
0000
0010
0000
0001
,  // measure 66
0100
0001
0010
0100
0000
0010
0000
0001
,  // measure 67
1000
0010
0100
0010
0000
0001
0010
1000
,  // measure 68
0000
0010
1000
0001
0000
0100
0000
0001
,  // measure 69
0010
0100
0010
0001
0000
0100
0000
2002
,  // measure 70
0000
0000
0000
0000
,  // measure 71
0003
0000
0000
0000
,  // measure 72
0000
0000
0000
0000
,  // measure 73
0000
0000
0000
0000
,  // measure 74
0000
0000
0000
0000
,  // measure 75
3000
0000
0000
0000
;
