#VERSION:0.83;
#TITLE:United We Are;
#SUBTITLE:;
#ARTIST:Hardwell;
#TITLETRANSLIT:;
#SUBTITLETRANSLIT:;
#ARTISTTRANSLIT:;
#GENRE:Big Room House;
#ORIGIN:;
#CREDIT:;
#BANNER:united-bn.png;
#BACKGROUND:united-bg.png;
#PREVIEWVID:;
#JACKET:united-jacket.png;
#CDIMAGE:;
#DISCIMAGE:;
#LYRICSPATH:;
#CDTITLE:cdtitle.png;
#MUSIC:united we are.ogg;
#OFFSET:-0.234000;
#SAMPLESTART:75.234001;
#SAMPLELENGTH:15.000000;
#SELECTABLE:YES;
#BPMS:0.000=64.000,
32.000=128.000,
64.000=64.000,
88.000=128.000;
#STOPS:;
#DELAYS:;
#WARPS:;
#TIMESIGNATURES:0.000=4=4;
#TICKCOUNTS:0.000=4;
#COMBOS:0.000=1;
#SPEEDS:0.000=1.000=0.000=0,
96.000=2.000=8.000=0,
103.000=4.000=0.000=0,
103.750=1.000=0.250=0;
#SCROLLS:0.000=1.000;
#FAKES:;
#LABELS:0.000=Song Start;
#BGCHANGES:;
#KEYSOUNDS:;
#ATTACKS:
;

//---------------dance-single - ----------------
#NOTEDATA:;
#CHARTNAME:X-Scale 14;
#STEPSTYPE:dance-single;
#DESCRIPTION:;
#CHARTSTYLE:;
#DIFFICULTY:Hard;
#METER:9;
#RADARVALUES:0.547004,0.686372,0.348094,0.000000,0.712378,473.000000,430.000000,43.000000,0.000000,0.000000,0.000000,1.000000,0.000000,0.000000,0.547004,0.686372,0.348094,0.000000,0.712378,473.000000,430.000000,43.000000,0.000000,0.000000,0.000000,1.000000,0.000000,0.000000;
#CREDIT:;
#NOTES:
0000
0000
0000
0000
,
0000
0000
0000
0000
,
0000
0000
0000
0000
,
0000
0000
0000
0000
,
1000
0000
0000
0100
0000
0000
0001
0000
0000
0100
0000
0000
1000
0000
0001
0010
0001
0000
0000
0100
0000
0000
0010
0000
0000
1000
0000
0000
0001
0000
1000
0100
,
1000
0000
0000
0010
0000
0000
0100
0000
0000
0010
0000
0000
0100
0000
0001
0100
0001
0000
0000
1000
0000
0000
0010
0000
0000
1000
0000
0000
0100
0000
1000
0010
,
1000
0000
0000
0001
0000
0000
0100
0000
0000
1000
0000
0000
0100
0000
0001
0010
0001
0000
0000
1000
0000
0000
0010
0000
0000
0001
0000
0000
0010
0000
1000
0100
,
1000
0000
0000
1000
0000
0000
0001
0000
0000
1000
0000
0000
0001
0000
0100
0010
0100
0000
0000
0001
0000
0000
1000
0000
0000
0100
0000
0000
0010
0000
0000
0000
,
1001
0000
0000
1000
0001
0000
1000
0000
0100
0010
0000
0000
0100
0000
1000
0100
,
1000
0000
0000
0001
1000
0000
0010
0000
1000
0001
0000
0000
1000
0000
0001
0010
,
0001
0000
0000
0001
0100
0000
0001
0000
1000
0001
0000
0000
0001
0000
0100
0010
,
0100
0000
0000
0001
1000
0000
0001
0000
1000
0100
0000
0000
1000
0000
1000
0100
,
1000
0000
0000
0010
1000
0000
0001
0000
0010
0100
0000
0000
0010
0000
0001
1000
,
0001
0000
0000
0100
0010
0000
0100
0000
0001
1000
0000
0000
0001
0000
1000
0100
,
1000
0000
0000
0010
0100
0000
0001
0000
0010
0001
0000
0000
1000
0000
1000
0001
,
1000
0000
0000
0001
1000
0000
0100
0000
1000
0010
0000
0000
0100
0000
0100
0010
,
0110
0000
0000
0100
0000
0000
0001
0000
0000
1000
0000
0000
0001
0000
1000
0001
1000
0000
0000
0001
0000
0000
0010
0000
0000
0100
0000
0000
1000
0000
0010
1000
,
0010
0000
0000
0001
0000
0000
0010
0000
0000
1000
0000
0000
0100
0000
1000
0100
1000
0000
0000
0010
0000
0000
0001
0000
0000
0010
0000
0000
0100
0000
0010
0100
,
0010
0000
0000
0100
0000
0000
0010
0000
0100
0001
0000
0000
0010
0000
0001
1000
0001
0000
0000
1000
0000
0000
0100
0000
1000
0001
0000
0000
0100
0000
0010
0100
,
0010
0000
0100
0000
1000
0000
0100
0000
0010
1000
0001
0100
0001
0010
0100
1000
,
1001
0000
0000
1000
0001
0000
0100
0000
0000
0100
0000
0000
0100
0000
0010
1000
0001
0000
0000
0100
0001
0000
0010
0000
0000
0010
0000
0000
0010
0000
0001
1000
,
0001
0000
0000
0100
0001
0000
1000
0000
0000
1000
0000
0000
1000
0000
0010
0100
0001
0000
0000
0001
1000
0000
0001
0000
0000
0001
0000
0000
0001
0000
0100
0001
,
0100
0001
0100
0001
0100
0001
0100
0001
0010
0100
0010
0100
0010
0100
0010
0100
,
1000
0001
1000
0001
1000
0001
1000
0001
0100
0010
0100
0010
0100
0010
0100
0010
,
0400
0000
0000
0000
,
0001
0010
0001
0310
,
1100
0000
0000
0000
0110
0000
0000
0000
0011
0000
0000
0001
0100
0000
0100
0010
,
1000
0000
0000
1000
0000
0000
0100
0000
0000
0100
0000
0000
0010
0000
0001
0000
,
0011
0000
0000
0000
0110
0000
0000
0000
1100
0000
0000
1000
0100
0000
0100
1000
,
0010
0000
0000
0010
0000
0000
1000
0000
0000
0001
0000
0000
0100
0000
0010
0000
,
0110
0000
0000
0000
1001
0000
0000
0000
0101
0000
0000
0100
0010
0000
0010
0100
,
0001
0000
0000
0001
0000
0000
1000
0000
0000
0100
0000
0000
1000
0000
0010
0000
,
1010
0000
0000
0000
0110
0000
0000
0000
0101
0000
0000
0001
1000
0000
1000
0100
,
0010
0000
0000
0001
0000
0000
1000
0000
0000
0010
0000
0000
0010
0000
0000
0000
,
0110
0000
1000
0000
1001
0000
0010
0000
1010
0000
0000
0010
0100
0000
0001
0100
,
0001
0000
0000
0010
0001
0000
1000
0000
0010
1000
0000
0000
1000
0000
0100
0000
,
1100
0000
1000
0000
1001
0000
0001
0000
0101
0000
0000
0100
0010
0000
0010
1000
,
0100
0000
0000
1000
0001
0000
0100
0000
0100
0010
0000
0000
0100
0000
0010
0000
,
0110
0000
0100
0000
0101
0000
0001
0000
1001
0000
0000
0001
0100
0000
0100
0010
,
1000
0000
0000
1000
0001
0000
0100
0000
0001
0010
0000
0000
0001
0000
1000
0000
,
1001
0000
1000
0000
1010
0000
0010
0000
0110
0000
0000
0100
0001
0000
1000
0001
,
1000
0000
0000
1000
0000
0000
0010
0000
0000
0100
0000
0000
0001
0000
0010
0000
,
0011
0000
0001
0000
1000
0000
0010
0100
0010
0000
1000
1000
0001
0000
1000
0000
,
1010
0000
0010
0000
0100
0000
0001
1000
0001
0000
0100
0100
0010
0000
0100
0000
,
0110
0000
0010
0000
1000
0000
0100
1000
0001
0000
0000
0001
0100
0000
0100
0000
,
0101
0000
0001
0000
1000
0000
0010
0010
0100
0000
0000
0100
0001
0000
1000
0000
,
1001
0000
0000
0000
0101
0000
0000
0000
0110
0000
0000
0100
0001
0000
1000
0000
,
1010
0000
0000
0000
1001
0000
0000
0000
0011
0000
0000
0001
0100
0000
0010
0000
,
0110
0000
0000
0000
1100
0000
0000
0000
1010
0000
0000
1000
0001
0000
0100
0000
,
0101
0000
0000
0000
1010
0000
0000
0000
0110
0000
0000
0100
0010
0000
1000
0000
;

//---------------dance-single - ----------------
#NOTEDATA:;
#CHARTNAME:X-Scale 10;
#STEPSTYPE:dance-single;
#DESCRIPTION:;
#CHARTSTYLE:;
#DIFFICULTY:Medium;
#METER:7;
#RADARVALUES:0.430202,0.545060,0.356189,0.040476,0.376427,372.000000,328.000000,44.000000,5.000000,0.000000,0.000000,0.000000,0.000000,0.000000,0.430202,0.545060,0.356189,0.040476,0.376427,372.000000,328.000000,44.000000,5.000000,0.000000,0.000000,0.000000,0.000000,0.000000;
#CREDIT:;
#NOTES:
// measure 0
0000
0000
0000
0000
,  // measure 1
0000
0000
0000
0000
,  // measure 2
0000
0000
0000
0000
,  // measure 3
0000
0000
0000
0000
,  // measure 4
1000
0000
0000
0100
0000
0000
1000
0000
0000
0100
0000
0000
1000
0000
0000
0000
0001
0000
0000
0100
0000
0000
0001
0000
0000
1000
0000
0000
0001
0000
0000
0000
,  // measure 5
1000
0000
0000
0010
0000
0000
0100
0000
0000
0010
0000
0000
0100
0000
0000
0000
0001
0000
0000
1000
0000
0000
0010
0000
0000
1000
0000
0000
0100
0000
0000
0000
,  // measure 6
1000
0000
0000
0001
0000
0000
0100
0000
0000
0100
0000
0000
0100
0000
0000
0000
0010
0000
0000
1000
0000
0000
0010
0000
0000
0010
0000
0000
0010
0000
0000
0000
,  // measure 7
1000
0000
0000
0001
0000
0000
0100
0000
0000
0100
0000
0000
0100
0000
0000
0000
0001
0000
0000
1000
0000
0000
0010
0000
0000
0010
0000
0000
0010
0000
0000
0000
,  // measure 8
1001
0000
0001
0000
0100
0010
0100
0000
,  // measure 9
0001
0000
1000
0000
0010
0100
0010
0000
,  // measure 10
1000
0000
0100
0000
1000
0000
0001
0100
,  // measure 11
0100
0000
0000
0001
0000
0000
1000
0000
0000
0100
0000
0000
1000
0000
0000
0000
,  // measure 12
1100
0000
1000
0000
0001
0100
0010
0000
,  // measure 13
0001
0000
0010
0000
0100
0010
0001
0000
,  // measure 14
1000
0100
1000
0010
,  // measure 15
1000
0000
0000
0001
0000
0000
0100
0000
0000
0010
0000
0000
0100
0000
0100
0000
,  // measure 16
0120
0000
0000
0100
0000
0000
0100
0000
0000
0000
0000
0000
0030
0000
0000
0000
2001
0000
0000
0001
0000
0000
0001
0000
0000
0000
0000
0000
3000
0000
0000
0000
,  // measure 17
1020
0000
0000
1000
0000
0000
1000
0000
0000
0000
0000
0000
0030
0000
0000
0000
2001
0000
0000
0001
0000
0000
0001
0000
0000
0000
0000
0000
3000
0000
0000
0000
,  // measure 18
1001
0000
0000
0001
0000
0000
0010
0000
0001
0000
0000
0000
1000
0000
0000
0000
0001
0000
0000
1000
0000
0000
0100
0000
1000
0000
0000
0000
0010
0000
0000
0000
,  // measure 19
0001
0010
1000
0100
0010
0001
0001
1000
,  // measure 20
1001
0000
0000
1000
0000
0000
0100
0000
0000
1000
0000
0000
0100
0000
0010
0000
0001
0000
0000
0000
1000
0000
0001
0000
0000
0010
0000
0000
0001
0000
0100
0000
,  // measure 21
0001
0000
0000
0010
0000
0000
0100
0000
0000
1000
0000
0000
0010
0000
0100
0000
0001
0000
0000
0000
1000
0000
0001
0000
0000
1000
0000
0000
0001
0000
0100
0000
,  // measure 22
0101
0001
0100
0001
0100
1000
0100
1000
,  // measure 23
0100
0010
0100
0010
1000
0001
1000
0001
,  // measure 24
2000
0000
0000
0000
,  // measure 25
0001
0100
0001
3100
,  // measure 26
0011
0000
0000
0000
1010
0000
0000
0000
0011
0000
0000
0000
1010
0000
1000
0010
,  // measure 27
1000
0000
0000
0100
0000
0000
1000
0000
0000
0100
0000
0000
0010
0000
0001
0000
,  // measure 28
0011
0000
0000
0000
1010
0000
0000
0000
0011
0000
0000
0000
1010
0000
0010
1000
,  // measure 29
0010
0000
0000
0100
0000
0000
0010
0000
0000
1000
0000
0000
0100
0000
0010
0000
,  // measure 30
0110
0000
0000
0000
1001
0000
0000
0000
0110
0000
0000
0000
1001
0000
1000
0100
,  // measure 31
1000
0000
0000
0001
0000
0000
1000
0000
0000
0100
0000
0000
1000
0000
0010
0000
,  // measure 32
1010
0000
0000
0000
0011
0000
0000
0000
1010
0000
0000
0000
0011
0000
0001
0100
,  // measure 33
0001
0000
0000
0010
0000
0000
1000
0000
0000
0010
0000
0000
0001
0000
0000
0000
,  // measure 34
0011
0000
1000
0000
0001
0000
1000
0000
0001
0000
0000
0010
0100
0000
1000
0100
,  // measure 35
1000
0000
0000
0010
1000
0000
0001
0000
1000
0010
0000
0000
1000
0000
0100
0000
,  // measure 36
1100
0000
1000
0000
0010
0000
1000
0000
0010
0000
0000
0100
0010
0000
1000
0100
,  // measure 37
1000
0000
0000
0001
1000
0000
0100
0000
1000
0001
0000
0000
0010
0000
0100
0000
,  // measure 38
0110
0000
0010
0000
0100
0000
0010
0000
0100
0000
0000
1000
0100
0000
0010
0001
,  // measure 39
0010
0000
0000
0100
0010
0000
0001
0000
0010
0100
0000
0000
0010
0000
0001
0000
,  // measure 40
0011
0000
0001
0000
1000
0000
0001
0000
1000
0000
0000
0100
1000
0000
0001
0010
,  // measure 41
0001
0000
0000
1000
0000
0000
0001
0000
0000
1000
0000
0000
0001
0000
0000
0000
,  // measure 42
1001
0000
0001
0000
1000
0000
0010
0100
0010
0000
1000
0000
0001
0000
1000
0000
,  // measure 43
0010
0000
0010
0000
0100
0000
0001
1000
0001
0000
0100
0100
0010
0000
0100
0000
,  // measure 44
0110
0000
0010
0000
1000
0000
0100
1000
0001
0000
0000
0001
0100
0000
0100
0000
,  // measure 45
0101
0000
0001
0000
1000
0000
0010
0010
0100
0000
0000
0100
0001
0000
1000
0000
,  // measure 46
1001
0000
0000
0000
0101
0000
0000
0000
0110
0000
0000
0100
0001
0000
1000
0000
,  // measure 47
1010
0000
0000
0000
1001
0000
0000
0000
0011
0000
0000
0001
0100
0000
0010
0000
,  // measure 48
0110
0000
0000
0000
1100
0000
0000
0000
1010
0000
0000
1000
0001
0000
0100
0000
,  // measure 49
0101
0000
0000
0000
1010
0000
0000
0000
0110
0000
0000
0100
0010
0000
1000
0000
;

//---------------dance-single - ----------------
#NOTEDATA:;
#CHARTNAME:X-Scale 6;
#STEPSTYPE:dance-single;
#DESCRIPTION:;
#CHARTSTYLE:;
#DIFFICULTY:Easy;
#METER:3;
#RADARVALUES:0.250951,0.323808,0.040476,0.137618,0.048571,217.000000,212.000000,5.000000,17.000000,0.000000,0.000000,0.000000,0.000000,0.000000,0.250951,0.323808,0.040476,0.137618,0.048571,217.000000,212.000000,5.000000,17.000000,0.000000,0.000000,0.000000,0.000000,0.000000;
#CREDIT:;
#NOTES:
// measure 0
0000
0000
0000
0000
,  // measure 1
0000
0000
0000
0000
,  // measure 2
0000
0000
0000
0000
,  // measure 3
0000
0000
0000
0000
,  // measure 4
0020
0000
0000
0100
0000
0000
0001
0000
2030
0000
0000
0001
0000
0000
0100
0000
,  // measure 5
3002
0000
0000
0010
0000
0000
1000
0000
0203
0000
0000
1000
0000
0000
0001
0000
,  // measure 6
0302
0000
0000
0100
0000
0000
1000
0000
2003
0000
0000
0001
0000
0000
0010
0000
,  // measure 7
3020
0000
0000
0001
0000
0000
0100
0000
0230
0000
0000
0010
0000
0000
0001
0000
,  // measure 8
0301
0100
1000
0100
,  // measure 9
0001
0010
0001
1000
,  // measure 10
0010
0100
0001
0010
,  // measure 11
0001
1000
0010
0100
,  // measure 12
0001
1000
0001
0010
,  // measure 13
0100
1000
0001
1000
,  // measure 14
0010
0100
0010
1000
,  // measure 15
0100
0010
0001
1000
,  // measure 16
1002
0000
0000
0003
2000
0000
0000
3000
,  // measure 17
0200
0000
0000
0300
0020
0000
0000
0030
,  // measure 18
0002
0003
0020
0030
0200
0300
2000
3000
,  // measure 19
0001
0010
0001
0010
0100
1000
0100
1000
,  // measure 20
1100
0000
0000
0001
0000
0000
1000
0000
0010
0000
0000
0100
0000
0000
0010
0000
,  // measure 21
1000
0000
0000
0100
0000
0000
0010
0000
0001
0000
0000
1000
0000
0000
0001
0000
,  // measure 22
1000
0100
0010
0001
,  // measure 23
1000
0010
0100
0001
,  // measure 24
1000
0000
0000
0000
,  // measure 25
0001
1000
0001
1000
,  // measure 26
1001
0100
0001
1000
,  // measure 27
0001
0000
0010
0000
0100
0000
1000
0001
,  // measure 28
1000
0010
0100
0001
,  // measure 29
1000
0000
0100
0000
0010
0000
0001
0010
,  // measure 30
0001
1000
0010
1000
,  // measure 31
0001
0000
0100
0000
0010
0000
0100
0010
,  // measure 32
0100
0001
1000
0001
,  // measure 33
0100
0100
0010
0010
,  // measure 34
0110
0000
0100
0000
0001
0000
1000
0100
,  // measure 35
1000
0000
0001
0000
0100
0000
0010
0100
,  // measure 36
0010
0000
1000
0000
0001
0000
1000
0010
,  // measure 37
1000
0000
0010
0000
0100
0000
0001
0100
,  // measure 38
0001
1000
0001
1000
0001
0000
0100
0010
,  // measure 39
0100
0000
0001
0000
0010
0000
0100
1000
,  // measure 40
0100
0010
0100
0010
0100
0000
1000
0000
,  // measure 41
0001
0000
0000
0000
,  // measure 42
1001
0000
0001
0010
0100
0000
0010
0100
,  // measure 43
1000
0000
0010
0100
0001
0000
1000
0010
,  // measure 44
0100
0000
0001
0010
0100
0000
0010
0100
,  // measure 45
1000
0000
0001
0100
0010
0000
1000
0010
,  // measure 46
0100
0001
1000
0001
,  // measure 47
0100
0010
0100
0001
,  // measure 48
0010
0100
1000
0001
,  // measure 49
1000
0000
0010
0000
0100
0000
0001
0200
,  // measure 50
0300
0000
0000
0000
;

//---------------dance-single - ----------------
#NOTEDATA:;
#CHARTNAME:X-Scale 1;
#STEPSTYPE:dance-single;
#DESCRIPTION:;
#CHARTSTYLE:;
#DIFFICULTY:Beginner;
#METER:1;
#RADARVALUES:0.093673,0.140958,0.024286,0.008095,0.000000,81.000000,78.000000,3.000000,1.000000,0.000000,0.000000,0.000000,0.000000,0.000000,0.093673,0.140958,0.024286,0.008095,0.000000,81.000000,78.000000,3.000000,1.000000,0.000000,0.000000,0.000000,0.000000,0.000000;
#CREDIT:;
#NOTES:
// measure 0
0000
0000
0000
0000
,  // measure 1
0000
0000
0000
0000
,  // measure 2
0000
0000
0000
0000
,  // measure 3
0000
0000
0000
0000
,  // measure 4
1000
0000
0100
0000
,  // measure 5
0010
0000
0001
0000
,  // measure 6
1000
0000
0100
0000
,  // measure 7
0010
0000
0001
0000
,  // measure 8
0011
0000
1000
0000
,  // measure 9
0001
0000
0100
0000
,  // measure 10
0010
0000
1000
0000
,  // measure 11
0001
0000
0100
0000
,  // measure 12
0010
0000
1000
0000
,  // measure 13
0001
0000
0010
0000
,  // measure 14
0100
0000
1000
0000
,  // measure 15
0001
0000
0010
0000
,  // measure 16
0011
0000
0100
0000
,  // measure 17
0001
0000
1000
0000
,  // measure 18
0001
0010
0100
1000
,  // measure 19
0001
0000
1000
0000
,  // measure 20
0001
0000
0100
0000
,  // measure 21
0010
0000
1000
0000
,  // measure 22
0001
0000
0000
0000
,  // measure 23
0010
0000
0000
0000
,  // measure 24
0200
0000
0000
0000
,  // measure 25
0000
0000
0000
0300
,  // measure 26
1100
0000
0000
0000
,  // measure 27
0001
0000
0100
0000
,  // measure 28
0001
0000
0000
0000
,  // measure 29
1000
0000
0100
0000
,  // measure 30
1000
0000
0000
0000
,  // measure 31
0010
0000
0100
0000
,  // measure 32
0010
0000
0000
0000
,  // measure 33
1000
0000
0001
0000
,  // measure 34
1000
0000
0000
0000
,  // measure 35
0100
0000
0010
0000
,  // measure 36
0100
0000
0000
0000
,  // measure 37
1000
0000
0010
0000
,  // measure 38
1000
0000
0000
0000
,  // measure 39
0001
0000
0010
0000
,  // measure 40
0001
0000
0000
0000
,  // measure 41
0100
0000
0010
0000
,  // measure 42
0100
0000
0001
0000
,  // measure 43
1000
0000
0001
0000
,  // measure 44
0100
0000
0010
0000
,  // measure 45
0100
0000
0001
0000
,  // measure 46
1000
0000
0000
0000
,  // measure 47
0100
0000
0000
0000
,  // measure 48
0010
0000
0000
0000
,  // measure 49
0001
0000
0000
0001
;
