#TITLE:Union;
#SUBTITLE:;
#ARTIST:Rebecca & Fiona;
#TITLETRANSLIT:;
#SUBTITLETRANSLIT:;
#ARTISTTRANSLIT:;
#GENRE:Commercial House;
#CREDIT:;
#BANNER:Union-bn.png;
#BACKGROUND:Union-bg.png;
#LYRICSPATH:;
#CDTITLE:cdtitle.png;
#MUSIC:Union.ogg;
#OFFSET:-0.003000;
#SAMPLESTART:90.002998;
#SAMPLELENGTH:15.000000;
#SELECTABLE:YES;
#BPMS:0.000000=64.000000
,16.000000=128.000000
,80.000000=64.000000
,112.000000=128.000000
;
#STOPS:
;
#BGCHANGES:0.000=Union.avi=1.000=1=0=0=StretchNoLoop==CrossFade==,
99999=-nosongbg-=1.000=0=0=0 // don't automatically add -songbackground-
;
#KEYSOUNDS:;
#ATTACKS:;

//---------------dance-single - ----------------
#NOTES:
     dance-single:
     X-Scale 11:
     Hard:
     8:
     0.408304,0.500975,0.072256,0.080285,0.325152,356.000000,347.000000,9.000000,10.000000,0.000000,0.000000,0.408304,0.500975,0.072256,0.080285,0.325152,356.000000,347.000000,9.000000,10.000000,0.000000,0.000000:
0000
0000
0000
0000
,
0000
0000
0000
0000
,
0000
0000
0000
0000
,
0000
0000
0000
0000
,
1001
0000
1000
0010
0001
0010
1000
0000
,
0001
0000
0100
0010
1000
0010
0100
0000
,
0001
0000
0010
0100
1000
0100
0010
0000
,
0001
0000
1000
0001
0010
0001
1000
0000
,
0100
0000
0010
0100
1000
0100
0010
0000
,
0001
0000
0100
0001
1000
0001
0100
0000
,
0001
0000
0010
0100
1000
0001
1000
0000
,
0100
0000
0010
0001
0010
0000
1001
0000
,
0110
0000
0000
0000
0100
0000
0001
0000
1000
0001
0000
0000
0100
0000
0000
0000
,
0010
0000
0100
0000
0001
0000
1000
0000
0010
1000
0000
0000
0010
0000
0000
0000
,
1000
0000
0000
0000
0100
0000
0010
0000
0001
0010
0000
0000
0001
0000
1000
0000
,
0010
0000
0000
0000
1000
0000
0100
0000
0010
0001
0000
0000
1000
0000
0000
0000
,
0001
0000
0000
0000
1000
0000
0001
0000
0100
0001
0000
0000
1000
0000
0000
0000
,
0001
0000
0100
0000
1000
0000
0100
0000
0001
0100
0000
0000
0001
0000
0000
0000
,
0010
0000
0000
0000
0100
0000
1000
0000
0001
1000
0000
0000
0100
0000
0010
0000
,
0001
0000
0000
0000
0100
0000
0001
0000
1000
0001
0000
0000
1001
0000
0000
0000
,
1000
0010
0100
0010
0001
0010
1000
0000
0000
0000
0001
0000
0010
0000
0001
2000
,
0000
0000
3100
0010
0001
0000
0000
1000
0001
0000
0200
0000
0000
0300
0010
0000
,
1000
0000
0001
0100
1000
0100
0001
0000
1000
0000
0100
0000
0001
0000
0010
2000
,
0000
3100
1000
0001
1000
0000
0000
0100
0010
0000
0002
0000
0000
0003
0011
0000
,
1001
0000
1000
0000
0100
0000
0010
0000
0001
0000
0000
0000
0010
0000
0000
0000
0100
0000
0000
0000
0000
0000
1000
0000
0000
0100
0000
0000
1000
0000
0010
0000
,
0001
0000
1000
0000
0100
0000
0001
0000
1000
0000
0000
0000
0010
0000
0000
0000
1000
0000
0000
0000
0000
0000
0001
0000
0000
0010
0000
0000
0001
0000
0000
0000
,
0100
0010
1000
0001
0100
0000
0001
0000
0010
0000
0000
0100
1000
0100
0001
0100
,
1000
0001
1000
0001
0010
0100
0010
0100
,
1000
0000
0000
0100
0000
0000
0001
0000
0000
0010
0000
0000
1000
0000
0000
0000
,
0001
0000
0000
0100
0000
0000
1000
0000
0000
0100
0000
0000
0001
0000
0000
0000
,
0100
0000
0000
0001
0000
0000
0010
0000
0000
0100
0000
0000
1000
0000
0000
0000
,
0010
0000
0000
1000
0000
0000
0001
0000
0000
1000
0000
0000
0100
0000
0010
0000
,
0001
0100
0010
1000
0100
0010
0001
0001
,
1000
0010
0001
0010
1000
0001
0010
0010
,
0100
0010
0100
0010
0100
0010
0100
0010
0100
0010
0100
0010
0001
0000
0001
0000
,
4000
0004
0000
0000
0000
0000
0000
0000
0000
0000
0000
0000
0000
0000
0000
0000
0000
0000
0000
0000
0000
0000
0000
0000
3003
0000
0000
0000
0000
0000
0000
0000
,
1001
0000
0000
1000
0100
0000
1000
0000
0001
0100
0000
0000
0001
0000
0000
0000
,
0010
0000
0000
0100
0010
0000
0001
0000
1000
0001
0000
0000
0100
0000
0000
0000
,
0010
0000
0000
0100
0001
0000
0010
0000
0100
1000
0000
0000
0001
0000
0000
0000
,
1000
0000
0000
0010
1000
0000
0001
0000
0010
0100
0000
0000
1000
0000
0100
0000
,
1000
0000
0000
0010
0100
0000
0010
0000
0001
0010
0000
0000
0100
0000
0000
0000
,
0001
0000
0000
1000
0010
0000
1000
0000
0001
0100
0000
0000
0001
0000
0000
0000
,
0010
0000
0000
0100
1000
0000
0100
0000
0001
0100
0000
0000
1000
0000
0000
0000
,
0001
0000
0000
0100
0001
0000
1000
0000
0010
1000
0000
0000
0001
0000
0010
0000
,
0011
0000
0000
0001
1000
0000
0001
0000
0010
0100
0000
0000
0010
0000
0001
0000
,
1000
0000
0000
0100
0010
0000
0100
0000
1000
0001
0000
0000
0200
0000
0000
0000
,
0301
0000
0000
0010
0100
0000
0010
0000
0001
1000
0000
0000
0020
0000
0000
0000
,
0130
0000
0000
0010
1000
0000
0001
0000
0010
0001
0000
0000
1000
0000
0100
0000
,
0010
0000
0000
0001
0010
0000
0001
0000
1000
0010
0000
0000
1000
0000
0001
0000
,
0100
0000
0000
0001
0010
0000
0100
0000
1000
0001
0000
0000
2000
0000
0000
0000
,
3100
0000
0000
0010
0100
0000
1000
0000
0001
0100
0000
0000
0002
0000
0000
0000
,
0013
0000
0000
0001
0010
0000
0100
0000
1000
0001
0000
0000
2002
0000
0000
0000
,
3003
0000
0000
0000
;

//---------------dance-single - ----------------
#NOTES:
     dance-single:
     X-Scale 9:
     Medium:
     6:
     0.336048,0.394699,0.152541,0.240854,0.224797,293.000000,274.000000,19.000000,30.000000,0.000000,0.000000,0.336048,0.394699,0.152541,0.240854,0.224797,293.000000,274.000000,19.000000,30.000000,0.000000,0.000000:
0000
0000
0000
0000
,
0000
0000
0000
0000
,
0000
0000
0000
0000
,
0000
0000
0000
0000
,
0101
0001
2000
3200
,
0310
0100
1000
0001
0100
0000
0101
0000
,
0001
0000
1000
0010
1000
0000
0100
0010
,
0002
2003
3100
1100
,
0100
1000
0020
0032
,
0013
1000
0001
0100
0001
0000
1001
0000
,
1000
0000
0001
0010
0100
0000
1000
0001
,
0200
0320
1030
1010
,
1000
0000
0000
0000
0001
0000
0010
0000
0000
0001
0000
0000
2000
0000
0000
0000
,
3100
0000
0000
0000
1000
0000
0001
0000
0000
0100
0000
0000
0101
0000
0000
0000
,
0001
0000
0000
0000
0010
0000
0100
0000
0000
1000
0000
0000
0200
0000
0000
0000
,
0310
0000
0000
0000
0100
0000
1000
0000
0000
0001
0000
0000
0101
0000
0000
0000
,
1000
0000
0000
0000
0100
0000
1000
0000
0000
0001
0000
0000
0020
0000
0000
0000
,
0130
0000
0000
0000
0010
0000
0001
0000
0000
1000
0000
0000
1001
0000
0000
0000
,
0001
0000
0000
0000
0010
0000
0100
0000
0000
0010
0000
0000
0002
0000
0000
0000
,
1003
0000
0000
0000
0010
0000
1000
0000
0000
0001
0000
0000
1001
0000
0000
0000
,
0000
1000
0001
0100
0001
1000
0001
0000
0000
0000
0020
0000
0230
0000
2300
0002
,
3000
0000
0013
0100
1000
0000
0000
0100
0020
0000
0032
0000
0000
0000
0003
0000
,
0000
0000
1000
0010
0001
0010
1000
0000
0000
0000
0002
0000
0023
0000
0230
2000
,
0300
0000
3000
0000
0100
0000
0000
0010
0002
0000
2003
0000
0000
3000
1001
0000
,
0101
0000
0000
0000
0000
0000
0100
0000
0000
0010
0000
0000
0100
0000
0000
0000
0001
0000
0000
0000
0000
0000
0010
0000
0000
0100
0000
0000
1000
0000
0000
0000
,
0001
0000
0000
0000
0000
0000
0100
0000
0000
0001
0000
0000
1000
0000
0000
0000
0100
0000
0000
0000
0000
0000
0010
0000
0000
0100
0000
0000
1000
0000
0000
0000
,
0001
0000
0000
0000
0000
0000
0100
0000
0000
0001
0000
0000
1000
0000
0000
0000
0100
0000
0000
0000
0000
0000
0010
0000
0000
0001
0000
0000
0010
0000
0000
0000
,
0001
0100
0001
0100
0010
1000
0010
1000
,
1001
0000
0001
1000
0001
0000
0010
0000
,
0100
0000
1000
0100
1000
0000
0001
0000
,
1000
0000
0001
0100
0001
0000
1000
0000
,
0100
0000
0010
0001
0010
0000
0100
0000
,
1000
0100
0001
0100
0010
0100
1000
0000
,
0001
0100
0010
0001
0010
1000
0001
0000
,
1000
0000
0000
0100
0000
0000
0001
0000
0000
0010
0000
0000
1000
0000
0000
0000
,
0001
0000
0000
0100
0000
0000
1000
0000
0000
0100
0000
0000
0001
0000
1000
0000
,
1001
0000
0000
1000
0000
0000
0010
0000
0000
0100
0000
0000
0001
0000
0000
0000
,
0010
0000
0000
0100
0000
0000
0010
0000
0000
0001
0000
0000
1000
0000
0000
0000
,
0010
0000
0000
1000
0000
0000
0001
0000
0000
1000
0000
0000
0010
0000
0000
0000
,
0100
0000
0000
0001
0000
0000
0010
0000
0000
0100
0000
0000
1000
0000
0100
0000
,
1000
0000
0000
0010
0000
0000
0001
0000
0000
0100
0000
0000
1000
0000
0000
0000
,
0001
0000
0000
0100
0000
0000
1000
0000
0000
0100
0000
0000
0001
0000
0000
0000
,
1000
0000
0000
0010
0000
0000
0100
0000
0000
0010
0000
0000
1000
0000
0000
0000
,
0001
0000
0000
0010
0000
0000
0100
0000
0000
1000
0000
0000
1100
0000
0000
0000
,
1001
0000
0002
0000
0023
0000
0130
0020
,
0001
0000
0000
0000
0130
0000
0010
0000
0100
1000
0000
0000
1100
0000
0000
0000
,
1000
0000
0000
0000
0001
0000
0100
0000
0001
1000
0000
0000
0100
0000
0000
0000
,
1000
0000
0000
0000
0100
0000
0010
0000
0100
0010
0000
0000
0101
0000
0000
0000
,
0001
0000
2000
0000
3002
0000
0103
0020
,
0001
0000
0000
0000
1030
0000
0010
0000
1000
0001
0000
0000
1001
0000
0000
0000
,
1000
0000
0000
0000
0001
0000
0100
0000
0001
0010
0000
0000
0100
0000
0000
0000
,
1000
0000
0000
0000
0010
0000
1000
0000
0001
1000
0000
0000
1001
0000
0000
0000
;

//---------------dance-single - ----------------
#NOTES:
     dance-single:
     X-Scale 6:
     Easy:
     3:
     0.263792,0.311604,0.120427,0.144512,0.000000,230.000000,215.000000,15.000000,18.000000,0.000000,0.000000,0.263792,0.311604,0.120427,0.144512,0.000000,230.000000,215.000000,15.000000,18.000000,0.000000,0.000000:
// measure 0
0000
0000
0000
0000
,  // measure 1
0000
0000
0000
0000
,  // measure 2
0000
0000
0000
0000
,  // measure 3
0000
0000
0000
0000
,  // measure 4
1100
1000
0100
1000
,  // measure 5
0001
0100
0001
0010
,  // measure 6
0100
0000
0010
0001
1000
0000
0010
1000
,  // measure 7
0001
1000
0001
1001
,  // measure 8
1000
0001
0010
0001
,  // measure 9
1000
0010
1000
0100
,  // measure 10
0010
0000
0001
1000
0010
0000
0100
0010
,  // measure 11
1000
0001
0010
0011
,  // measure 12
0001
1000
0010
0100
,  // measure 13
0001
0100
0010
0100
0001
0000
0101
0000
,  // measure 14
1000
0000
0100
1000
0001
0000
0010
0001
,  // measure 15
1000
0100
0010
0110
,  // measure 16
0001
0100
0001
0010
,  // measure 17
0100
0010
0001
0010
0100
0000
1100
0000
,  // measure 18
1000
0000
0001
1000
0100
0000
0010
1000
,  // measure 19
0001
0100
0001
0101
,  // measure 20
0002
0000
0000
0003
1000
0001
0010
0001
,  // measure 21
2000
0000
0000
3000
0020
2000
0000
3030
,  // measure 22
0002
0000
0000
0003
0010
0100
0010
0001
,  // measure 23
0020
0000
0000
0030
0200
2000
0000
3300
,  // measure 24
1000
0000
0000
0000
0001
0000
0000
0000
0200
0000
0000
0000
0000
0300
0101
0000
,  // measure 25
0001
0000
0000
0000
0010
0000
0000
0000
0200
0000
0000
0000
0000
0300
1100
0000
,  // measure 26
1000
0000
0000
0000
0001
0000
0000
0000
0020
0000
0000
0000
0000
0030
0011
0000
,  // measure 27
0001
0010
0100
1000
0001
0010
0100
1000
,  // measure 28
0001
1000
0001
1000
,  // measure 29
0100
0010
0100
0010
,  // measure 30
0001
0010
0001
0010
,  // measure 31
0100
1000
0100
1000
,  // measure 32
0001
0000
0100
0000
0010
0000
1000
0100
,  // measure 33
1000
0000
0010
0000
0100
0000
0001
0100
,  // measure 34
0001
0000
1000
0000
0010
0000
1000
0001
,  // measure 35
2000
0000
0000
3001
,  // measure 36
1001
1000
0100
1000
,  // measure 37
0001
0100
0001
1000
,  // measure 38
0010
0100
0010
1000
,  // measure 39
0001
0000
0010
0000
0100
0000
0010
0001
,  // measure 40
0010
0001
1000
0010
,  // measure 41
1000
0001
0010
0100
,  // measure 42
1000
0010
0100
0001
,  // measure 43
1000
0000
0001
0000
0010
0000
0100
0010
,  // measure 44
0100
0000
2000
0000
3002
0000
0013
0200
,  // measure 45
0000
0000
1300
0100
1000
0000
1100
0000
,  // measure 46
0100
0010
0001
0100
,  // measure 47
0010
0000
1000
0010
1000
0000
1010
0000
,  // measure 48
0001
0000
2000
0000
3002
0000
0103
0020
,  // measure 49
0000
0000
1030
0010
1000
0000
1010
0000
,  // measure 50
1000
0001
0010
0001
,  // measure 51
0100
0000
0001
1000
0001
0000
1001
0000
;

//---------------dance-single - ----------------
#NOTES:
     dance-single:
     X-Scale 2:
     Beginner:
     1:
     0.110104,0.145415,0.016057,0.048171,0.000000,96.000000,94.000000,2.000000,6.000000,0.000000,0.000000,0.110104,0.145415,0.016057,0.048171,0.000000,96.000000,94.000000,2.000000,6.000000,0.000000,0.000000:
// measure 0
0000
0000
0000
0000
,  // measure 1
0000
0000
0000
0000
,  // measure 2
0000
0000
0000
0000
,  // measure 3
0000
0000
0000
0000
,  // measure 4
0001
0000
0000
0000
,  // measure 5
0010
0000
0000
0000
,  // measure 6
0100
0000
0000
0000
,  // measure 7
1000
0000
0000
0000
,  // measure 8
0010
0000
0000
0000
,  // measure 9
1000
0000
0000
0000
,  // measure 10
0001
0000
0000
0000
,  // measure 11
0100
0000
0000
0000
,  // measure 12
0010
0000
1000
0000
,  // measure 13
0001
0000
1000
0000
,  // measure 14
0010
0000
0100
0000
,  // measure 15
0001
0100
0001
0000
,  // measure 16
0010
0000
0100
0000
,  // measure 17
1000
0000
0001
0000
,  // measure 18
1000
0000
0100
0000
,  // measure 19
0010
0100
0010
0000
,  // measure 20
0001
0000
0010
0000
,  // measure 21
0100
0000
1000
0000
,  // measure 22
0010
0000
0100
0000
,  // measure 23
0001
0000
1000
0000
,  // measure 24
0100
0000
1000
0000
,  // measure 25
0001
0000
0100
0000
,  // measure 26
0001
0000
1000
0000
,  // measure 27
0010
0000
0100
0000
,  // measure 28
0001
0000
0010
0000
,  // measure 29
0100
0000
1000
0000
,  // measure 30
0100
0000
0010
0000
,  // measure 31
0001
0000
1000
0000
,  // measure 32
0001
0000
0100
0000
,  // measure 33
0010
0000
0100
0000
,  // measure 34
0001
0000
1000
0000
,  // measure 35
0100
0000
0000
0000
,  // measure 36
1001
0000
0001
0000
,  // measure 37
0010
0000
0001
0000
,  // measure 38
1000
0000
0010
0000
,  // measure 39
0100
0000
0010
0000
,  // measure 40
1000
0000
0100
0000
,  // measure 41
0010
0000
0001
0000
,  // measure 42
1000
0000
0001
0000
,  // measure 43
0100
0000
0001
0000
,  // measure 44
1000
0000
0200
0000
0320
0000
0031
2000
,  // measure 45
0000
3100
0000
1000
,  // measure 46
0000
0001
0000
0100
,  // measure 47
0000
0001
0000
0010
,  // measure 48
0000
0000
0200
0000
2300
0000
3001
2000
,  // measure 49
0000
3100
0000
0010
,  // measure 50
0000
0001
0000
0100
,  // measure 51
0000
0001
0000
1001
;
