#VERSION:0.83;
#TITLE:Unbreakable;
#SUBTITLE:;
#ARTIST:Aly & Fila meets Roger Shah & Susana;
#TITLETRANSLIT:;
#SUBTITLETRANSLIT:;
#ARTISTTRANSLIT:;
#GENRE:Uplifting Trance;
#ORIGIN:;
#CREDIT:;
#BANNER:unbreakable-bn.png;
#BACKGROUND:unbreakable-bg.png;
#PREVIEWVID:;
#JACKET:unbreakable-jacket.png;
#CDIMAGE:;
#DISCIMAGE:;
#LYRICSPATH:;
#CDTITLE:cdtitle.png;
#MUSIC:unbreakable.ogg;
#OFFSET:-0.006000;
#SAMPLESTART:41.744999;
#SAMPLELENGTH:13.900000;
#SELECTABLE:YES;
#BPMS:0.000=138.000;
#STOPS:;
#DELAYS:;
#WARPS:;
#TIMESIGNATURES:0.000=4=4;
#TICKCOUNTS:0.000=4;
#COMBOS:0.000=1;
#SPEEDS:0.000=1.000=0.000=0;
#SCROLLS:0.000=1.000;
#FAKES:;
#LABELS:0.000=Song Start;
#BGCHANGES:-0.006=unbreakable.avi=1.000=1=0=0=StretchNoLoop==CrossFade==,
99999=-nosongbg-=1.000=0=0=0 // don't automatically add -songbackground-
;
#KEYSOUNDS:;
#ATTACKS:
;

//---------------dance-single - ----------------
#NOTEDATA:;
#CHARTNAME:X-Scale 13;
#STEPSTYPE:dance-single;
#DESCRIPTION:;
#CHARTSTYLE:;
#DIFFICULTY:Hard;
#METER:9;
#RADARVALUES:0.578233,0.683774,0.039297,0.127716,0.707353,412.000000,408.000000,4.000000,13.000000,10.000000,0.000000,0.000000,0.000000,0.000000,0.578233,0.683774,0.039297,0.127716,0.707353,412.000000,408.000000,4.000000,13.000000,10.000000,0.000000,0.000000,0.000000,0.000000;
#CREDIT:;
#NOTES:
// measure 0
0000
0000
0000
0000
,  // measure 1
0000
0000
0000
0000
,  // measure 2
0000
0000
0000
0000
,  // measure 3
0000
0000
0000
0000
,  // measure 4
0001
0100
0010
1000
0100
0010
0001
0100
,  // measure 5
0010
0100
1000
0100
0001
0100
0010
1000
,  // measure 6
0001
0000
1000
0000
0001
0000
1000
0000
0001
0010
0001
0010
0001
0010
0001
0010
,  // measure 7
0001
0000
0100
0000
0010
0000
1000
0001
,  // measure 8
1001
0000
1000
0000
0001
0010
0001
0000
,  // measure 9
1000
0000
0100
0000
0010
1000
0010
0001
,  // measure 10
0010
0000
0100
0010
0001
0000
1000
0000
,  // measure 11
0100
0000
1000
0001
0100
0000
0010
1000
,  // measure 12
0001
0010
1000
0000
0001
0100
1000
0000
,  // measure 13
0010
0000
1000
0000
0001
0010
0100
0010
,  // measure 14
0002
0000
1003
0020
0031
0020
0130
0020
,  // measure 15
1030
0000
0010
0000
0000
0000
0010
1000
0000
0000
0010
1000
0000
0000
0010
0000
,  // measure 16
1010
0000
0000
0000
0100
0000
0001
0100
0000
0001
0100
0000
0100
0000
0010
0000
,  // measure 17
1000
0100
0000
1000
0100
0000
1000
0001
1000
0000
0100
0000
0001
0000
0100
0000
,  // measure 18
0010
0000
0001
0000
0001
0000
0100
0000
0010
0000
0100
0010
0000
1000
0010
0000
,  // measure 19
1000
0100
0000
1000
0001
0000
0010
0000
0001
0000
0010
0000
0100
0000
0010
0000
,  // measure 20
0001
0000
1000
0001
0000
1000
0010
0000
1000
0000
0001
0000
0100
0000
0001
0000
,  // measure 21
0010
0000
0100
0010
0000
0100
1000
0000
0100
0000
1000
0000
0001
0000
0100
0000
,  // measure 22
0001
0010
1000
0010
0001
0010
1000
0010
,  // measure 23
0001
0010
0001
0010
0001
0010
0001
0010
0001
0010
0001
0010
0001
0000
1000
0000
,  // measure 24
1001
0000
0000
0000
1000
0000
0000
0001
0000
0001
0000
0001
1000
0000
0001
0000
,  // measure 25
0010
0100
0000
0000
0010
0000
0000
0001
0000
0001
0000
0001
1000
0000
0100
0000
,  // measure 26
1000
0100
0000
0000
0100
0000
0000
1000
0000
1000
0000
1000
0001
0000
1000
0000
,  // measure 27
0001
0100
0000
0100
0001
0000
0000
1000
0000
1000
0000
1000
0100
0000
0010
0000
,  // measure 28
0001
0010
0000
0000
0010
0000
0000
0001
0000
0001
0000
0001
1000
0000
0001
0000
,  // measure 29
1000
0100
0000
0100
1000
0000
0000
0001
0000
0001
0000
0001
0010
0000
0001
0000
,  // measure 30
1000
0001
0000
0000
0001
0000
0000
1000
0000
1000
0000
1000
0001
0000
1000
0000
,  // measure 31
0001
0000
0010
0100
0010
0100
0010
0100
0010
0100
0010
0100
0020
0000
0000
0000
,  // measure 32
0130
0010
0000
0000
0001
0000
0000
0010
0000
0010
0000
0010
0000
0000
0000
0010
,  // measure 33
0001
0010
0000
0001
0000
0000
0000
0010
0000
0100
0000
0010
0001
0000
1000
0000
,  // measure 34
0001
1000
0000
0000
1000
0000
0000
0001
0000
0001
0000
0001
0000
0000
0000
1000
,  // measure 35
0010
1000
0000
0100
0000
0000
0000
1000
0000
0001
0000
0010
0100
0000
1000
0000
,  // measure 36
0100
1000
0000
0000
1000
0000
0000
0001
0000
0001
0000
0001
0000
0000
0000
0010
,  // measure 37
0100
0010
0000
0000
0001
0000
0000
1000
0100
0000
0000
0000
1000
0000
0001
0000
,  // measure 38
0010
0100
0000
0000
0010
0000
0000
0001
0000
0001
0000
0001
1000
0000
0000
0000
,  // measure 39
0100
0000
0010
0100
0010
0100
0010
0100
0010
0100
0010
0100
0020
0000
0000
0000
,  // measure 40
1030
0010
0001
0010
,  // measure 41
0001
0010
0000
0000
0100
0000
0000
1000
0000
1000
0000
1000
0001
0000
1000
0000
,  // measure 42
0100
1000
0000
0000
0010
0000
0000
1000
0000
1000
0000
1000
0010
0000
0000
0100
,  // measure 43
0000
0100
0000
0100
0001
0000
0000
0100
0010
0000
1000
0000
0010
0000
0200
0000
,  // measure 44
1300
0200
0010
0000
0301
0000
0010
0001
,  // measure 45
1000
0001
0000
0000
0001
0000
0000
0100
0000
0100
0000
0100
0001
0000
0010
0000
,  // measure 46
0001
1000
0000
0000
0001
0000
0000
1000
0000
1000
0000
1000
0100
0000
0010
0000
,  // measure 47
0100
0010
0000
0000
0001
0000
0000
1000
0000
1000
0000
1000
0100
0000
1000
0000
,  // measure 48
1100
0000
0010
0000
1000
0000
0001
0010
,  // measure 49
0001
1000
0000
0000
0001
0000
0000
0010
0000
0010
0000
0010
0100
0000
0010
0000
,  // measure 50
0001
1000
0000
0000
0001
0000
0000
0100
0000
0010
0000
0100
0000
0000
0000
0001
,  // measure 51
0000
1000
0000
0001
0000
0000
0000
1000
0002
0000
0000
0000
1003
0000
0010
0000
,  // measure 52
1000
0100
0000
0010
0100
0000
1000
0010
,  // measure 53
1000
0001
0000
0000
0010
0000
0000
0001
0000
0001
0000
0001
1000
0000
0010
0000
,  // measure 54
0100
0010
0000
0000
0100
0000
0001
0000
2000
0000
0000
0000
3100
0000
2000
0000
,  // measure 55
3100
1000
0100
1000
0100
1000
0100
1000
0100
1000
0100
1000
0002
0000
0000
0000
,  // measure 56
2003
000M
0M00
00M0
,  // measure 57
3M00
0000
0000
0000
000M
0M00
0000
0000
000M
0000
0000
0000
M000
0000
0000
0M00
,  // measure 58
M000
0000
0000
0000
;

//---------------dance-single - ----------------
#NOTEDATA:;
#CHARTNAME:X-Scale 10;
#STEPSTYPE:dance-single;
#DESCRIPTION:;
#CHARTSTYLE:;
#DIFFICULTY:Medium;
#METER:7;
#RADARVALUES:0.495427,0.671985,0.039297,0.343852,0.338940,353.000000,349.000000,4.000000,35.000000,4.000000,0.000000,0.000000,0.000000,0.000000,0.495427,0.671985,0.039297,0.343852,0.338940,353.000000,349.000000,4.000000,35.000000,4.000000,0.000000,0.000000,0.000000,0.000000;
#CREDIT:;
#NOTES:
// measure 0
0000
0000
0000
0000
,  // measure 1
0000
0000
0000
0000
,  // measure 2
0000
0000
0000
0000
,  // measure 3
0000
0000
0000
0000
,  // measure 4
0001
1000
0001
0000
1000
0100
1000
0000
,  // measure 5
0001
1000
0001
0000
0010
0100
0010
0001
,  // measure 6
0100
0000
0001
0000
0100
0000
0001
0000
0100
0001
0100
0001
0100
0001
0100
0001
,  // measure 7
0200
0300
0200
0300
0020
0030
0020
0030
,  // measure 8
0110
0000
1000
0000
0100
0010
0001
0000
,  // measure 9
1000
0000
0100
0000
0010
0100
1000
0001
,  // measure 10
0200
0000
0301
0010
0002
0000
0010
0000
,  // measure 11
0103
0000
0001
0000
0200
0000
0310
0100
,  // measure 12
0001
0200
0010
0000
0301
0100
0001
0000
,  // measure 13
1000
0000
0100
0000
0001
0100
1000
0100
,  // measure 14
0020
0000
0031
2000
3000
0200
0300
0020
,  // measure 15
0031
0010
0000
0001
0000
0010
0000
0001
,  // measure 16
0011
0000
0100
0000
0001
1000
0001
0000
,  // measure 17
0100
0000
0010
0000
1000
0100
0001
0100
,  // measure 18
1000
0001
1000
0100
0020
0000
0001
0000
,  // measure 19
0130
0000
0010
0001
2000
0000
3100
2000
,  // measure 20
0000
3100
1000
0001
0020
0000
1000
0000
,  // measure 21
0031
0000
0010
0001
1000
0001
0010
0001
,  // measure 22
0100
0010
0100
0010
0100
0010
0100
0010
,  // measure 23
0100
0010
0100
0010
0100
0010
0100
0010
0100
0010
0100
0010
0100
0000
0010
0000
,  // measure 24
0110
0000
0010
0000
0100
0000
0001
0010
,  // measure 25
0001
0000
0000
0000
0001
0000
0000
1000
0000
1000
0000
0000
0100
0000
1000
0000
,  // measure 26
0001
0000
0000
0000
0100
0000
0000
0010
0000
0010
0000
0000
1000
0000
0010
0000
,  // measure 27
1000
0000
0000
0000
0001
0000
0000
0010
0000
0010
0000
0000
0100
0000
0010
0000
,  // measure 28
0001
0000
0000
0000
1000
0000
0000
0100
0000
0100
0000
0000
1000
0000
0001
0000
,  // measure 29
0010
0000
0000
0000
0100
0000
0000
1000
0000
1000
0000
0000
0010
0000
1000
0000
,  // measure 30
0001
0000
0000
0000
0100
0000
0000
0001
0000
0001
0000
0000
1000
0000
0010
0000
,  // measure 31
1000
0000
0010
0100
0010
0100
0010
0100
0010
0100
0010
0100
0020
0000
0000
0000
,  // measure 32
0130
0010
0001
0010
1000
0100
1000
0001
,  // measure 33
0100
0001
0000
0000
1000
0000
0000
0010
0000
0010
0000
0000
1000
0000
0100
0000
,  // measure 34
1000
0100
0001
0100
0010
0001
1000
0100
,  // measure 35
1000
0100
0000
0000
1000
0000
0000
0001
0000
0001
0000
0001
0100
0000
0001
0000
,  // measure 36
1000
0010
0001
0010
0100
0001
0010
0001
,  // measure 37
1000
0100
0000
0000
1000
0000
0000
0010
0000
0010
0000
0010
0100
0000
0010
0000
,  // measure 38
0001
0010
0100
0001
1000
0100
1000
0001
,  // measure 39
0100
0000
0001
0100
0001
0100
0001
0100
0001
0100
0001
0100
0002
0000
0000
0000
,  // measure 40
0023
0001
1000
0001
,  // measure 41
0230
0000
0010
0000
1000
0000
1300
0100
,  // measure 42
0010
0000
0000
0000
0001
0000
0000
0010
0000
0010
0000
0000
0100
0000
0000
0010
,  // measure 43
0000
0010
0000
0000
0001
0000
0000
0000
1000
0000
0001
0000
1000
0000
0200
0000
,  // measure 44
0300
0200
0010
0000
1300
0000
0100
0010
,  // measure 45
0001
0010
0000
0000
0001
0000
0000
0100
0000
0100
0000
0000
0001
0000
0010
0000
,  // measure 46
0001
1000
0000
0000
0001
0000
0000
0000
1000
0000
0020
0000
0130
0000
0020
0000
,  // measure 47
0001
0000
0000
0000
0100
0000
0030
1000
0000
1000
0000
0000
0100
0000
0010
0000
,  // measure 48
0210
0001
0010
1000
,  // measure 49
2300
0000
0100
0000
0001
0000
3100
0010
,  // measure 50
0001
0010
0000
0000
0001
0000
0000
0100
0000
0100
0000
0000
1000
0000
0000
0100
,  // measure 51
0000
0100
0000
0000
0001
0000
0000
1000
0002
0000
0000
0000
1003
0000
0200
0000
,  // measure 52
0300
0200
0000
0000
0000
0300
0200
0000
0310
0000
0000
0000
0010
0000
0002
0000
,  // measure 53
1000
0000
0003
0000
0001
0000
0000
1000
0000
1000
0000
0000
0100
0000
0010
0000
,  // measure 54
0100
0010
0000
0000
0001
0000
1000
0000
0002
0000
0000
0000
0103
0000
0002
0000
,  // measure 55
1003
0001
1000
0001
1000
0001
1000
0001
1000
0001
1000
0001
2000
0000
0000
0000
,  // measure 56
3200
M000
00M0
M000
,  // measure 57
03M0
0000
0000
0000
;

//---------------dance-single - ----------------
#NOTEDATA:;
#CHARTNAME:X-Scale 7;
#STEPSTYPE:dance-single;
#DESCRIPTION:;
#CHARTSTYLE:;
#DIFFICULTY:Easy;
#METER:5;
#RADARVALUES:0.376132,0.447990,0.029473,0.225960,0.058946,268.000000,265.000000,3.000000,23.000000,0.000000,0.000000,0.000000,0.000000,0.000000,0.376132,0.447990,0.029473,0.225960,0.058946,268.000000,265.000000,3.000000,23.000000,0.000000,0.000000,0.000000,0.000000,0.000000;
#CREDIT:;
#NOTES:
0000
0000
0000
0000
,
0000
0000
0000
0000
,
0000
0000
0000
0000
,
0000
0000
0000
0000
,
1000
0100
0000
1000
0000
0100
0000
1000
,
0001
0010
0000
0001
0000
0010
0000
0001
,
1000
0100
0000
0100
1000
0001
0010
0100
,
1000
0001
0000
1000
0000
0001
0000
1000
,
1001
1000
0100
1000
,
0001
0000
0100
0000
0010
0000
1000
0001
,
2000
0000
3001
0010
0200
0000
0010
0000
,
1300
0000
0100
0000
1000
0000
0001
0010
,
0001
0200
0010
0000
0301
0000
0100
0000
,
0001
0000
0010
0000
0100
0010
0001
0010
,
0200
0000
0310
0100
0000
0001
0000
0100
,
1000
0001
0000
1000
0000
0001
0000
1000
,
1001
0100
0001
0010
,
0100
0000
0010
0000
0001
0000
1000
0100
,
1000
0100
0010
0001
2000
0000
0001
0000
,
3100
0000
1000
0000
0100
0000
0010
0002
,
0000
0103
0001
1000
0002
0000
0010
0000
,
0103
0001
0010
0001
,
0010
0100
0010
0000
0100
0010
0100
0000
,
1000
0001
1000
0001
1000
0001
1000
0001
,
1001
1000
0100
1000
,
0001
0000
0010
0000
1000
0000
0010
0100
,
1000
0000
0100
0000
1000
0000
0001
0010
,
0001
0000
1000
0000
0100
0000
0001
0100
,
1000
0000
0010
0000
0100
0000
0001
0010
,
0001
0000
1000
0000
0100
0000
1000
0100
,
0010
0000
0100
0000
1000
0000
0001
0010
,
0001
0100
0010
0100
0010
0100
0020
0000
,
0130
0000
0000
0000
0001
0000
0000
1000
0000
0100
0000
1000
0000
0000
0000
0000
,
0010
0000
1000
0000
0001
0000
0010
0100
,
1000
0000
0000
0000
0001
0000
0000
0010
0000
0001
0000
1000
0000
0000
0000
0000
,
0100
0000
1000
0000
0001
0000
0010
0100
,
1000
0000
0000
0000
0001
0000
0000
1000
0000
0100
0000
0010
0000
0000
0000
0000
,
1000
0000
0010
0000
0001
0000
0100
0010
,
0001
0000
0000
0000
0010
0000
0000
1000
0000
0010
0000
1000
0000
0000
0000
0000
,
0100
0001
1000
0001
1000
0001
2000
0000
,
3020
0001
0000
1000
,
2030
0000
0010
0000
0000
0000
3100
1000
,
0100
0001
0100
1000
,
0010
0000
0100
0000
0001
0010
0001
0020
,
0030
0020
0001
0000
0130
0000
0010
0001
,
1000
0000
0001
0000
0010
0000
0100
0010
,
0001
0000
1000
0000
0100
0020
1030
0020
,
0001
0000
0100
0030
0001
0000
0010
0100
,
2000
0001
0000
0100
,
3200
0000
1000
0000
0000
0000
0310
0100
,
1000
0001
0010
0001
,
1000
0000
0100
0000
2000
0000
3001
0100
,
0001
0000
1000
0100
1000
0000
1000
0200
,
0010
0300
0100
0000
1000
0000
0001
0010
,
0001
0000
1000
0100
0020
0000
0130
0020
,
1000
0000
0001
0030
1000
0010
0200
0300
,
0200
0000
0000
0000
,
0300
0000
0000
0000
;

//---------------dance-single - ----------------
#NOTEDATA:;
#CHARTNAME:X-Scale 2;
#STEPSTYPE:dance-single;
#DESCRIPTION:;
#CHARTSTYLE:;
#DIFFICULTY:Beginner;
#METER:2;
#RADARVALUES:0.145962,0.165049,0.029473,0.058946,0.000000,104.000000,101.000000,3.000000,6.000000,0.000000,0.000000,0.000000,0.000000,0.000000,0.145962,0.165049,0.029473,0.058946,0.000000,104.000000,101.000000,3.000000,6.000000,0.000000,0.000000,0.000000,0.000000,0.000000;
#CREDIT:;
#NOTES:
0000
0000
0000
0000
,
0000
0000
0000
0000
,
0000
0000
0000
0000
,
0000
0000
0000
0000
,
0000
1000
0000
0000
0000
0100
0000
0000
,
0000
0010
0000
0000
0000
0001
0000
0000
,
1000
0000
0001
0000
,
1000
0000
0000
0000
,
0110
0000
0010
0000
,
1000
0000
0100
0000
,
1000
0000
0001
0000
,
0010
0000
0001
0000
,
0100
0000
0010
0000
,
1000
0000
0100
0000
,
1000
0000
0010
0000
,
0000
0001
0000
0000
0000
0001
0000
0000
,
1000
0000
0100
0000
,
1000
0000
0001
0000
,
0100
0000
0001
0000
,
0010
0000
0100
0000
,
0010
0000
0001
0000
,
1000
0000
0100
0000
,
0010
0000
0001
0000
,
0100
0000
0010
0000
,
0110
0000
0100
0000
,
1000
0000
0001
0000
,
0010
0000
0001
0000
,
1000
0000
0100
0000
,
0010
0000
0001
0000
,
1000
0000
0010
0000
,
0100
0000
0001
0000
,
0010
0000
0001
0000
,
1000
0000
0100
0000
,
0010
0000
0100
0000
,
1000
0000
0001
0000
,
0100
0000
0010
0000
,
1000
0000
0001
0000
,
0010
0000
0100
0000
,
1000
0000
0010
0000
,
0100
0000
0001
0000
,
0201
0000
0000
0000
,
0320
0000
0000
1000
,
1030
0000
0010
0000
,
0100
0000
0001
0000
,
0010
0000
0100
0000
,
1000
0000
0001
0000
,
1000
0000
0100
0000
,
0010
0000
0001
0000
,
2000
0000
0000
0000
,
3002
0000
0000
0010
,
0013
0000
0001
0000
,
1000
0000
0100
0000
,
0010
0000
0100
0000
,
1000
0000
0001
0000
,
0100
0000
0010
0000
,
2000
0000
0000
3200
,
0300
0000
0000
0000
;

//---------------dance-single - ----------------
#NOTEDATA:;
#CHARTNAME:X-Scale 15;
#STEPSTYPE:dance-single;
#DESCRIPTION:;
#CHARTSTYLE:;
#DIFFICULTY:Challenge;
#METER:10;
#RADARVALUES:0.644196,0.740755,0.058946,0.235784,0.800684,459.000000,453.000000,6.000000,24.000000,27.000000,0.000000,0.000000,0.000000,0.000000,0.644196,0.740755,0.058946,0.235784,0.800684,459.000000,453.000000,6.000000,24.000000,27.000000,0.000000,0.000000,0.000000,0.000000;
#CREDIT:;
#NOTES:
// measure 0
0000
0000
0000
0000
,  // measure 1
0000
0000
0000
0000
,  // measure 2
0000
0000
0000
0000
,  // measure 3
0000
0000
0000
0000
,  // measure 4
1000
0000
0010
0000
0100
0000
0001
0000
0010
0100
0010
0100
0010
0000
0001
0000
,  // measure 5
1000
0000
0100
0000
1000
0000
0010
0000
0100
0010
0100
0010
0100
0000
0001
0000
,  // measure 6
0001
0000
0001
0000
0010
0000
0010
0000
0010
0001
0100
0001
0010
0001
0100
0001
,  // measure 7
0010
000M
0000
00M0
0001
0M00
1000
M001
,  // measure 8
1001
1000
0100
1000
0100
0010
0100
0010
,  // measure 9
0001
0010
0001
1000
0001
1000
0100
1000
,  // measure 10
0020
0000
0000
0000
0031
0000
0010
0000
1000
0000
0000
0000
0100
0000
0010
0100
,  // measure 11
0010
0000
0010
0001
0010
0000
0001
0000
2000
0000
0000
0000
3010
0000
1000
0000
,  // measure 12
0100
0020
1000
0000
0031
0000
0010
0001
,  // measure 13
1000
0001
0010
0100
1000
0001
0100
0010
,  // measure 14
1000
0000
0001
1000
M000
0100
0M00
0010
,  // measure 15
01M0
0000
1000
0100
0000
0000
1000
0100
0000
0000
1000
0100
0000
0000
1100
0000
,  // measure 16
1100
0000
1000
0001
0000
1000
0001
0000
1000
0001
0000
1000
0001
0000
0010
0100
,  // measure 17
0010
0100
0000
0010
0100
0000
0010
0100
0000
0010
0100
0000
0010
0000
0001
0000
,  // measure 18
1000
0000
0001
0000
0010
0000
0100
0000
2000
0000
0100
0000
0000
0100
0000
0000
,  // measure 19
3100
0000
0000
1000
0010
0000
1000
0000
0001
0000
0000
0000
0010
0000
0100
0000
,  // measure 20
1000
0000
0001
0000
1000
0000
0010
0000
2000
0000
0010
0000
0000
0010
0000
0000
,  // measure 21
3010
0000
1000
0100
0001
0100
0010
0001
,  // measure 22
1000
1000
1000
1000
0001
0001
0001
0001
,  // measure 23
1000
0100
0010
0001
1000
0010
0100
0001
1000
0100
0010
0001
1000
0000
1000
0000
,  // measure 24
1001
0000
0000
0001
0010
0000
0001
0100
0000
0100
0000
0100
0010
0000
1000
0000
,  // measure 25
0001
0010
0M00
0010
1000
0000
0100
1000
0000
1000
0000
1000
0001
0000
0010
0000
,  // measure 26
0100
0010
0000
0010
0001
0000
0001
1000
0000
1000
0000
1000
0010
0000
1000
0000
,  // measure 27
0100
0010
000M
0010
1000
0000
0001
0010
0000
0010
0000
0010
0100
0000
0010
0000
,  // measure 28
0001
1000
0000
1000
0100
0000
0010
0100
0000
0100
0000
0100
1000
0000
0001
0000
,  // measure 29
0100
0010
0M00
0010
0001
0000
1000
0100
0000
0100
0000
0100
0010
0000
0100
0000
,  // measure 30
1000
0010
0000
0010
0100
0000
0001
0100
0000
0100
0000
0100
0010
0000
1000
0000
,  // measure 31
0100
0000
1000
0010
0100
0010
1000
0010
0100
0010
1000
0010
0100
0000
0100
0000
,  // measure 32
0011
0000
0000
0001
1000
0000
0001
0100
0000
0100
0000
0100
0010
0000
1000
0001
,  // measure 33
0000
0001
0000
0001
0100
0000
0010
1000
0000
1000
0000
1000
0100
0000
1000
0000
,  // measure 34
0001
1000
0000
1000
0010
0000
0100
0001
0000
0001
0000
0001
0010
0000
0100
0010
,  // measure 35
0000
0010
0000
0010
0001
0000
1000
0001
0000
0001
0000
0001
1000
0000
0100
0000
,  // measure 36
1000
0100
0000
0100
0010
0000
0100
1000
0000
1000
0000
1000
0001
0000
0010
0001
,  // measure 37
0000
0001
0000
0001
0100
0000
0010
1000
0000
1000
0000
1000
0001
0000
0010
0000
,  // measure 38
0001
0100
0000
0100
0010
0000
1000
0010
0000
0010
0000
0010
0100
0000
0001
0010
,  // measure 39
0001
0000
1000
0001
0100
0001
1000
0001
0010
0001
1000
0001
0100
0000
0100
0000
,  // measure 40
0120
0000
0000
0000
0001
0000
0000
1000
0000
1000
0000
1000
0000
0000
0100
0000
,  // measure 41
0230
0000
0000
0010
0000
0000
0000
0001
0000
0001
0000
0001
0300
0000
0100
0000
,  // measure 42
0001
0100
0000
0100
0010
0000
0000
1000
0000
1000
0000
1000
0001
0000
0001
0010
,  // measure 43
0000
0010
0000
0010
0100
0000
0010
0100
0000
0100
0000
0100
1000
0000
0001
0000
,  // measure 44
0100
0020
0001
0030
0020
0000
0130
0020
,  // measure 45
0001
0000
0130
0000
0010
0000
1000
0200
,  // measure 46
0310
0002
0100
0003
0001
0020
0100
0130
,  // measure 47
0100
1000
0000
1000
0010
0000
0000
0100
0000
0100
0000
0100
0001
0000
0010
0000
,  // measure 48
0200
0000
0000
0000
0001
0000
0000
1000
0000
1000
0000
1000
0000
0000
0010
0000
,  // measure 49
0320
0000
0000
0000
0001
0000
0000
0100
0000
0100
0000
0100
0030
0000
0010
0000
,  // measure 50
0001
0010
0000
0010
0100
0000
0000
1000
0000
1000
0000
1000
0001
0000
0001
0100
,  // measure 51
0000
0100
0000
0100
0001
0000
0001
0010
0000
0010
0000
0010
0001
0000
0002
0000
,  // measure 52
1003
0002
0013
0100
0020
0000
0031
0020
,  // measure 53
1000
0000
0031
0010
0200
0000
1300
0200
,  // measure 54
0010
0000
1300
0002
0010
0003
0001
0010
,  // measure 55
0100
0010
0001
1000
0010
0100
0001
1000
0100
0010
0001
1000
0020
0000
0000
1030
,  // measure 56
20M0
0M00
00M0
0M00
00M0
0M00
00M0
0M00
,  // measure 57
30M0
0000
M000
0000
000M
M000
0000
0000
000M
0000
0000
0000
00M0
0M00
0000
00M0
,  // measure 58
0M00
0000
0000
0000
;
