#TITLE:Un monde sans danger;
#SUBTITLE:;
#ARTIST:Julien Lamassonne;
#TITLETRANSLIT:;
#SUBTITLETRANSLIT:;
#ARTISTTRANSLIT:;
#GENRE:Techno Pop;
#CREDIT:;
#BANNER:UMSD-bn.png;
#BACKGROUND:UMSD-bg.png;
#LYRICSPATH:;
#CDTITLE:cdtitle.png;
#MUSIC:UMSD.ogg;
#OFFSET:-0.003000;
#SAMPLESTART:45.356998;
#SAMPLELENGTH:30.236000;
#SELECTABLE:YES;
#BPMS:0.000000=126.999992
;
#STOPS:
;
#BGCHANGES:;
#KEYSOUNDS:;
#ATTACKS:;

//---------------dance-single - ----------------
#NOTES:
     dance-single:
     X-Scale 11:
     Hard:
     7:
     0.440770,0.453774,0.031087,0.272012,0.182636,397.000000,393.000000,4.000000,35.000000,0.000000,0.000000,0.440770,0.453774,0.031087,0.272012,0.182636,397.000000,393.000000,4.000000,35.000000,0.000000,0.000000:
0000
0000
0000
0000
,
0000
0000
0000
0000
,
0000
0000
0000
0000
,
0000
0000
0000
0000
,
0001
0000
0000
0010
0000
0000
0001
0000
0000
0010
0000
0000
0100
0000
0010
0000
,
0100
0000
0000
1000
0000
0000
0001
0000
0000
1000
0000
0000
0100
0000
1000
0000
,
0100
0000
0000
0010
0000
0000
0001
0000
0000
1000
0000
0000
0001
0000
0100
0000
,
0001
0000
0000
1000
0000
0000
0010
0000
0000
1000
0000
0000
0001
0000
0100
0000
,
0001
0000
0000
0010
0000
0000
1000
0000
0000
0100
0000
0000
0001
0000
1000
0000
,
0001
0000
0000
0100
0000
0000
1000
0000
0000
0010
0000
0000
0001
0000
0010
0000
,
0001
0000
0000
1000
0000
0000
0100
0000
0000
0010
0000
0000
0100
0000
0010
0000
,
0001
0000
0000
1000
0000
0000
0100
0000
0000
1000
0000
0000
0001
0000
1000
0000
,
1001
0000
1000
0100
0001
0100
0010
0002
,
0000
0023
0000
0030
0100
0010
0001
1000
,
0001
0000
0100
0002
0000
0023
0000
0230
,
2000
0300
3100
1000
0001
0100
1000
0100
,
0001
0000
1000
0100
0010
0100
1000
0002
,
0000
0023
0000
1030
0010
0001
1000
0100
,
0020
0000
0130
1000
0001
0100
0010
2000
,
0010
0000
0001
0000
3100
1000
0001
1000
,
0100
0000
1000
0010
0100
0010
0001
0010
,
1000
0000
0001
1000
0100
0001
0100
0010
,
0002
0000
0103
0020
0000
0032
0000
0023
,
0100
0000
1000
0000
0130
0010
1000
0001
,
1001
0000
0100
0000
0001
0200
1300
0200
,
0301
0000
1000
0100
0001
0100
0010
0002
,
0000
1003
0100
0000
1000
0020
0031
0020
,
1030
0000
0001
0100
1000
0001
0010
1000
,
0001
0000
1000
0000
0001
0020
1030
0020
,
0031
0000
1000
0100
0001
0100
0010
0001
,
0100
0000
0000
0001
1000
0000
0001
0000
0010
0000
1000
0000
0010
0000
0200
0000
,
0000
2300
0000
3200
0000
0320
0000
0032
,
1000
0000
0000
0000
0040
0000
0003
0030
0001
0000
0040
0000
0130
0000
0010
0100
,
0010
0000
0000
0001
1000
0000
0400
0000
1300
0000
0040
0000
0031
0000
0400
0000
,
1300
0000
0000
0100
0040
0000
0000
0030
0001
0000
0400
0000
0310
0000
0100
0010
,
0100
0000
0000
0001
1000
0000
0400
0000
0310
0000
0400
0000
1300
0000
0001
1000
,
0001
0000
0000
0100
0040
0000
0000
0030
1000
0000
0400
0000
0310
0000
0001
1000
,
0001
0000
0001
0400
1300
0004
1003
0400
,
0301
0000
0000
0100
0040
0000
0000
0030
1000
0000
0004
0000
1003
0000
0100
0000
,
0200
0000
0001
0004
0003
0040
0030
4000
,
0300
0000
3000
0000
0001
0010
0100
2000
,
0020
0000
3000
0000
0000
0000
0031
0010
,
2000
0000
3010
0200
0000
0320
0000
2030
,
0200
0300
3100
1000
0000
0001
0000
1000
,
1001
0000
0000
0010
0001
0000
0010
0000
0001
0000
0100
0000
1000
0000
0100
0000
,
0001
0000
0000
0100
0010
0000
1000
0000
0010
0000
0100
0000
0001
0000
0010
0000
,
0100
0000
0000
1000
0100
0000
0001
0000
0100
0000
0010
0000
0001
0000
0000
0000
,
1000
0000
0000
0010
1000
0000
0001
0000
0010
0000
1000
0000
0010
0000
0002
0000
,
0100
0000
0010
0000
0100
0000
0010
0003
,
0011
0000
0000
1000
0010
0000
1000
0000
0001
0000
0010
0000
1000
0000
0010
0000
,
0001
0000
0000
1000
0010
0000
1000
0000
0001
0000
0010
0000
0001
0000
0100
0000
,
0010
0000
0000
0100
0001
0000
1000
0000
0100
0000
0001
0000
0100
0000
1000
0000
,
0010
0000
0000
0100
0001
0000
1000
0000
0001
0000
0010
0000
0100
0000
1000
0000
,
0001
0000
0000
0100
0001
0000
1000
0000
0100
0000
0001
0000
0100
0000
1000
0000
,
0010
0000
0000
0100
0010
0000
1000
0000
0001
0000
0010
0000
0001
0000
1000
0000
,
0100
0000
0000
0010
0100
0000
1000
0000
0001
0000
0100
0000
0010
0000
0100
0000
,
0001
0000
0000
0010
0100
0000
1000
0000
0001
0000
1000
0000
0010
0000
1000
0000
,
0001
0000
0000
0010
0000
0000
1000
0000
0000
0100
0000
0000
0001
0000
0100
0000
,
0001
0000
0000
0100
0000
0000
1000
0000
0000
0100
0000
0000
0001
0000
0010
0000
,
0001
0000
0000
1000
0000
0000
0100
0000
0000
0010
0000
0000
0001
0000
1000
0000
,
0001
0000
0000
0010
0000
0000
1000
0000
0000
0100
0000
0000
0001
0100
0001
0000
,
0001
0000
1000
0000
0100
0010
0000
0100
,
0000
0000
1000
0010
0100
0010
0000
1000
,
0000
0000
0001
0000
0010
0100
0000
0010
,
0000
0000
0001
0010
0100
1000
0000
0001
;

//---------------dance-single - ----------------
#NOTES:
     dance-single:
     X-Scale 7:
     Medium:
     5:
     0.339737,0.352935,0.015544,0.318642,0.000000,306.000000,304.000000,2.000000,41.000000,0.000000,0.000000,0.339737,0.352935,0.015544,0.318642,0.000000,306.000000,304.000000,2.000000,41.000000,0.000000,0.000000:
0000
0000
0000
0000
,
0000
0000
0000
0000
,
0000
0000
0000
0000
,
0000
0000
0000
0000
,
1000
0000
0100
0000
1000
0000
0001
0010
,
0100
0000
0010
0000
0001
0000
1000
0001
,
0100
0000
0010
0000
0100
0000
0001
0010
,
0100
0000
1000
0000
0100
0000
1000
0001
,
0100
0000
0010
0000
0100
0000
0001
0010
,
0100
0000
0010
0000
0001
0000
1000
0001
,
0010
0000
0100
0000
0010
0000
0001
1000
,
0010
0000
0100
0000
0010
0000
1000
0100
,
0010
0000
0001
0010
0000
0001
1000
0001
,
0100
0000
0010
1000
0000
0100
1000
0001
,
0100
0000
0010
1000
0000
0001
0100
0010
,
1000
0000
0001
0010
0000
0100
0010
0001
,
1000
0000
0010
1000
0000
0001
1000
0100
,
1000
0000
0001
1000
0000
0100
0010
0100
,
1000
0000
0001
0100
0000
0010
0100
0001
,
1000
0000
0100
0010
0000
0001
1000
0001
,
0010
0000
0100
0010
0000
0001
1000
0001
,
0100
0000
0010
0100
0000
0001
0010
0100
,
1000
0000
0001
1000
0000
0100
1000
0001
,
1000
0000
0100
0010
0000
0001
1000
0001
,
1001
0000
1000
0000
0100
1000
0001
1000
,
0100
0000
0010
0001
0000
1000
0000
0001
,
0010
0000
0100
0000
0010
0100
0010
0001
,
0010
0000
0001
1000
0000
0100
0000
1000
,
0010
0000
0100
0000
0001
0010
0100
0010
,
0001
0000
1000
0010
0000
0100
0000
0010
,
1000
0000
0001
0000
0010
0100
1000
0100
,
0010
0000
0001
1000
0000
0010
0000
1000
,
0001
0000
0020
0000
0130
2000
3000
0002
,
0000
0003
1000
0002
0000
0203
0000
0302
,
0000
0003
0020
0000
0130
2000
3000
0002
,
0000
0003
1000
0200
0000
0320
0000
0230
,
0000
0300
2000
0000
3001
0200
0300
0020
,
0000
0030
1000
0002
0000
0023
0000
0230
,
0000
0300
0020
0000
0031
2000
3000
0020
,
0000
0030
0100
0002
0000
2003
0000
3002
,
0000
0000
0003
0000
1000
0100
0010
0001
,
2000
0000
0000
0000
,
3002
0000
0000
0100
0000
0010
0000
0100
,
0203
0000
0000
1000
0000
0010
0000
0001
,
0301
0000
0100
0001
0000
0000
0010
0100
,
1000
0000
0001
1000
0100
1000
0001
1000
,
0100
0000
0010
0200
0000
2300
0000
3002
,
0100
0000
0000
0010
0000
1000
1000
0000
,
2000
0000
0003
0000
0000
0000
0001
3000
,
1001
1000
0100
0010
0000
0001
0100
0010
,
0000
0001
0010
1000
0000
0001
0010
1000
,
0000
0010
0100
1000
0000
0001
1000
0200
,
0000
0320
0000
0230
0000
1300
0001
0100
,
0000
0010
0100
0001
0000
0010
0100
1000
,
0000
0001
1000
0010
0000
0001
0010
2000
,
0000
0000
0010
3000
1000
0001
0000
0020
,
0000
0230
0000
2300
0000
3002
0000
0203
,
0000
0000
1000
0000
0001
0301
0000
0010
,
0000
0000
0001
0100
0000
0010
0000
0100
,
0001
0000
1000
0000
0001
0100
0000
0010
,
1000
0000
0001
0010
0000
0200
1000
0000
,
1300
0000
1000
0000
0100
1000
0000
0001
,
0000
0000
0100
0001
0000
1000
0000
0001
,
0000
0000
0100
0000
0010
0100
0000
0001
,
0000
0000
1000
0100
0000
0010
0000
0001
;

//---------------dance-single - ----------------
#NOTES:
     dance-single:
     X-Scale 6:
     Easy:
     3:
     0.260909,0.303099,0.023315,0.046631,0.000000,235.000000,232.000000,3.000000,6.000000,0.000000,0.000000,0.260909,0.303099,0.023315,0.046631,0.000000,235.000000,232.000000,3.000000,6.000000,0.000000,0.000000:
0000
0000
0000
0000
,
0000
0000
0000
0000
,
0000
0000
0000
0000
,
0000
0000
0000
0000
,
0001
0000
0000
0100
0000
0000
0001
0000
,
0010
0000
0000
0100
0000
0000
0010
0000
,
0001
0000
0000
1000
0000
0000
0001
0000
,
0100
0000
0000
0010
0000
0000
0100
0000
,
0001
0000
0000
0010
0000
0000
0100
0000
,
1000
0000
0000
0010
0000
0000
0100
0000
,
0001
0000
0000
1000
0000
0000
0001
0000
,
0010
0000
0000
0100
0000
0000
1000
0000
,
1100
0000
0000
0000
1000
0000
0100
0010
,
0000
0010
0000
0000
0000
0000
0001
0000
,
0100
0000
0010
0100
0000
0001
0000
0020
,
0000
0000
0030
0100
0000
0100
1000
0000
,
1000
0000
0000
0000
0001
0000
1000
0100
,
0000
0100
0000
0000
0010
0000
0100
0000
,
1000
0000
0010
0100
0000
0001
0000
0020
,
0000
0000
0100
0000
0030
0100
0010
0100
,
0010
0000
0001
0000
1000
0000
0001
0200
,
0000
0000
0310
0000
0000
0000
1000
0100
,
0010
0000
0100
1000
0000
0001
0000
0200
,
0020
0000
0300
0030
,
0110
0000
0001
0000
1000
0010
0000
0100
,
0001
0000
0010
0100
0000
0010
0000
0100
,
0000
0000
1000
0000
0001
0010
0000
0001
,
1000
0000
0100
0010
0000
0100
0000
0010
,
0001
0000
1000
0000
0010
0100
0000
0010
,
1000
0000
0001
1000
0000
0100
0000
1000
,
0001
0000
0010
0000
0100
1000
0000
0001
,
1000
0000
0100
0010
0000
0100
0000
0010
,
0001
0000
1000
0000
0010
1000
0001
0000
,
0010
0000
0100
0010
0000
0100
0000
1000
,
0001
0000
1000
0000
0100
0010
0100
0000
,
1000
0000
0001
0100
0000
0010
0000
0100
,
0001
0000
0010
0000
0100
1000
0100
0000
,
1000
0000
0001
0100
0000
0010
0000
0100
,
0001
0000
0010
0000
0100
0010
0100
0000
,
1000
0000
0010
0100
0000
0001
0000
0100
,
0100
0000
0000
0000
,
0001
0000
0000
0000
,
1000
0000
0000
0000
,
0100
0000
0000
0010
0000
0100
0000
0100
,
1000
0100
0010
0001
,
1000
0100
0010
0001
,
1000
0010
0100
0001
,
1000
0010
0100
0001
,
2000
0000
0000
0000
0000
0000
0000
3000
,
1001
0000
1000
0000
0001
0100
0000
0010
,
0100
0000
0001
1000
0000
0100
0000
1000
,
0001
0000
0010
0000
0100
1000
0000
0001
,
1000
0000
0100
0010
0000
0100
0000
0010
,
0100
0000
1000
0000
0001
0010
0000
0001
,
1000
0000
0100
0010
0000
0100
0000
0010
,
0001
0000
1000
0000
0010
1000
0000
0001
,
1000
0000
0010
0100
0000
0010
0000
0100
,
0001
0100
0010
1000
,
0001
0100
0010
1000
,
0001
0010
0100
1000
,
0001
0010
0100
1000
,
0001
0000
0000
0000
,
1000
0000
0000
0000
,
0100
0000
0000
0000
,
0010
0000
0000
0000
,
0001
0000
0000
0000
;

//---------------dance-single - ----------------
#NOTES:
     dance-single:
     X-Scale 1:
     Beginner:
     1:
     0.082159,0.101033,0.000000,0.000000,0.000000,74.000000,74.000000,0.000000,0.000000,0.000000,0.000000,0.082159,0.101033,0.000000,0.000000,0.000000,74.000000,74.000000,0.000000,0.000000,0.000000,0.000000:
// measure 0
0000
0000
0000
0000
,  // measure 1
0000
0000
0000
0000
,  // measure 2
0000
0000
0000
0000
,  // measure 3
0000
0000
0000
0000
,  // measure 4
1000
0000
0000
0000
,  // measure 5
0100
0000
0000
0000
,  // measure 6
1000
0000
0000
0000
,  // measure 7
0100
0000
0000
0000
,  // measure 8
0010
0000
0000
0000
,  // measure 9
0001
0000
0000
0000
,  // measure 10
0010
0000
0000
0000
,  // measure 11
0001
0000
0000
0000
,  // measure 12
1000
0000
0000
0000
,  // measure 13
0010
0000
0000
0000
,  // measure 14
0100
0000
0000
0000
,  // measure 15
0010
0000
0000
0000
,  // measure 16
1000
0000
0000
0000
,  // measure 17
0100
0000
0000
0000
,  // measure 18
0010
0000
0000
0000
,  // measure 19
0100
0000
0000
0000
,  // measure 20
1000
0000
0000
0000
,  // measure 21
0001
0000
0000
0000
,  // measure 22
0010
0000
0000
0000
,  // measure 23
0100
0000
0000
0000
,  // measure 24
1000
0000
0100
0000
,  // measure 25
0010
0000
0000
0000
,  // measure 26
0100
0000
0010
0000
,  // measure 27
0100
0000
0000
0000
,  // measure 28
1000
0000
0001
0000
,  // measure 29
0100
0000
0000
0000
,  // measure 30
0010
0000
0100
0000
,  // measure 31
0001
0000
0000
0000
,  // measure 32
0010
0000
0100
0000
,  // measure 33
1000
0000
0000
0000
,  // measure 34
0100
0000
0010
0000
,  // measure 35
0001
0000
0000
0000
,  // measure 36
1000
0000
0001
0000
,  // measure 37
0100
0000
0000
0000
,  // measure 38
0010
0000
0100
0000
,  // measure 39
0001
0000
0000
0000
,  // measure 40
1000
0000
0000
0000
,  // measure 41
0100
0000
0000
0000
,  // measure 42
1000
0000
0000
0000
,  // measure 43
0100
0000
0000
0000
,  // measure 44
0010
0000
0000
0000
,  // measure 45
0001
0000
0000
0000
,  // measure 46
0010
0000
0000
0000
,  // measure 47
0001
0000
0000
0000
,  // measure 48
0010
0000
0000
0000
,  // measure 49
0100
0000
0010
0000
,  // measure 50
0001
0000
0000
0000
,  // measure 51
1000
0000
0001
0000
,  // measure 52
0100
0000
0000
0000
,  // measure 53
0010
0000
0100
0000
,  // measure 54
0001
0000
0000
0000
,  // measure 55
0010
0000
0100
0000
,  // measure 56
1000
0000
0000
0000
,  // measure 57
0001
0000
0000
0000
,  // measure 58
0010
0000
0000
0000
,  // measure 59
0100
0000
0000
0000
,  // measure 60
0010
0000
0000
0000
,  // measure 61
0001
0000
0000
0000
,  // measure 62
1000
0000
0000
0000
,  // measure 63
0100
0000
0000
0000
,  // measure 64
1000
0000
0000
0000
,  // measure 65
0001
0000
0000
0000
;
