#TITLE:우산;
#SUBTITLE:feat. Hyolyn & Gill Chang;
#ARTIST:Far East Movement;
#TITLETRANSLIT:Umbrella;
#SUBTITLETRANSLIT:;
#ARTISTTRANSLIT:;
#GENRE:Future K-Pop;
#CREDIT:;
#BANNER:Umbrella-bn.png;
#BACKGROUND:Umbrella-bg.png;
#LYRICSPATH:;
#CDTITLE:cdtitle.png;
#MUSIC:Umbrella.ogg;
#OFFSET:-0.005000;
#SAMPLESTART:45.338001;
#SAMPLELENGTH:20.000000;
#SELECTABLE:YES;
#BPMS:0.000000=90.000000
;
#STOPS:
;
#BGCHANGES:;
#KEYSOUNDS:;
#ATTACKS:;

//---------------dance-single - ----------------
#NOTES:
     dance-single:
     X-Scale 11:
     Hard:
     8:
     0.429069,0.465739,0.053092,0.136522,0.481619,396.000000,389.000000,7.000000,18.000000,0.000000,0.000000,0.429069,0.465739,0.053092,0.136522,0.481619,396.000000,389.000000,7.000000,18.000000,0.000000,0.000000:
// measure 0
0000
0000
0000
0000
,  // measure 1
1000
0000
0000
0100
0000
0000
1000
0000
0001
0000
0000
0100
0000
0000
0001
0000
,  // measure 2
0010
0000
0000
0100
0000
0000
0010
0000
0001
0000
0000
1000
0000
0000
0001
0000
,  // measure 3
0010
0000
0000
0001
0000
0000
1000
0000
0100
0000
0000
0010
0000
0000
0100
0000
,  // measure 4
1000
0000
0000
0010
0000
0000
1000
0000
0100
0000
0000
0010
0000
0000
0001
0000
,  // measure 5
1000
0000
0000
0001
0000
0000
0100
0000
0010
0000
0000
1000
0000
0000
0001
0000
,  // measure 6
0100
0000
0000
0001
0000
0000
0010
0000
0100
0000
0000
0010
0000
0000
0001
0000
,  // measure 7
1000
0000
0000
0100
0000
0000
0001
0000
0100
0000
0000
1000
0000
0000
0010
0000
,  // measure 8
0100
0000
0000
0001
0000
0000
1000
0000
0100
0000
0000
0000
1000
0100
1000
0000
,  // measure 9
1000
0000
0000
0010
0000
0100
0010
0000
0100
0000
0000
0001
0010
0000
0001
0000
,  // measure 10
1000
0000
0000
0001
0000
0010
0001
0000
0100
0001
0000
0001
1000
0100
0010
0000
,  // measure 11
0001
0000
0000
0010
0000
0001
1000
0000
0010
0000
0000
1000
0100
0000
1000
0000
,  // measure 12
0010
0000
0000
0100
0000
0001
0100
0000
0001
0010
0000
0010
0001
0000
1000
0000
,  // measure 13
0100
0000
1000
0010
0000
0010
0100
0000
0001
0000
1000
0100
0000
0100
0010
0000
,  // measure 14
0100
0000
1000
0010
0000
0010
0100
0000
0001
0010
0100
0000
0010
0000
0001
0000
,  // measure 15
1000
0000
0001
0010
0000
0010
0100
0000
1000
0000
0001
0100
0000
0100
0010
0000
,  // measure 16
2000
0000
0000
3000
0002
0000
0000
0003
2000
0000
0000
3010
1000
0010
0001
0000
,  // measure 17
0110
0000
0000
1000
0001
0000
0010
0000
0100
0000
0000
0100
0010
0000
0001
0000
,  // measure 18
1000
0000
0000
0001
0000
0000
1000
0000
0001
0000
0010
0000
0100
0000
1000
0000
,  // measure 19
1100
0000
0000
1000
0001
0000
0001
0000
0020
0000
0000
0000
0130
0000
0020
0000
,  // measure 20
0001
0000
0030
0001
0000
0000
1000
0000
0001
0000
0000
0100
0010
0100
0010
0000
,  // measure 21
0110
0000
0100
0000
0001
0010
1000
0000
0001
0100
1000
0000
0001
0000
0010
0000
,  // measure 22
0011
0000
0001
0000
1000
0100
0001
0000
1000
0010
0001
0000
1000
0000
0001
0010
,  // measure 23
0100
0000
0010
0000
0110
0000
0100
0000
1000
0010
1000
0100
0000
0010
0100
0010
,  // measure 24
0002
0000
0100
0000
0000
0000
0000
0000
0003
0100
0001
0100
0001
0000
0001
0010
,  // measure 25
0000
0001
0100
0000
0010
0100
0010
0000
1000
0000
0000
0001
1000
0000
0100
0000
,  // measure 26
0010
0000
0000
0100
0010
0000
0001
0000
0200
0010
0010
0000
0320
0000
0230
0000
,  // measure 27
0301
0000
0000
0000
0000
0000
0100
0000
0000
0000
0000
0001
0000
0000
0000
0000
0010
0000
0000
0000
0000
0000
0100
0000
0000
0000
0000
0000
0010
0000
0000
0000
,  // measure 28
0001
0000
0000
1000
0000
0000
1000
0000
0020
1000
1000
0000
2030
0000
3020
0000
,  // measure 29
0130
0000
0010
0000
1000
0001
0000
0000
0010
0000
0001
0000
1000
0001
0000
0000
,  // measure 30
0100
0000
0010
0000
1000
0010
0000
0000
0200
0001
0001
0000
0302
0000
0203
0000
,  // measure 31
0310
0000
1000
0000
0010
1000
0000
0000
1000
0000
0100
0000
0010
0100
0000
0000
,  // measure 32
0100
0000
0010
0000
0000
0001
0000
0000
1000
0000
0000
0000
1000
0000
0100
0000
,  // measure 33
1000
0000
0010
0000
1000
0100
1000
0100
0000
0010
0001
0010
0001
0000
0100
0000
,  // measure 34
0010
0000
1000
0100
1000
0001
0010
0001
0010
0000
0001
0010
0000
0001
0000
0000
,  // measure 35
1010
1000
0000
0000
0100
1000
0100
1000
0000
0001
1000
0001
1000
0000
0100
0000
,  // measure 36
0010
0000
0100
0000
1000
0100
0010
0100
1000
0000
0100
0000
0010
0000
1000
0000
,  // measure 37
0110
0000
0100
0000
0010
0001
0010
0001
1000
0000
0100
0000
1000
0001
0010
0100
,  // measure 38
1000
0000
0001
0000
1000
0001
0100
0001
1000
0000
0001
0010
0000
0001
0000
0000
,  // measure 39
1000
0010
0000
0000
1000
0100
0010
0100
1000
0000
0100
0000
1000
0001
0010
0001
,  // measure 40
0100
0000
0001
0000
1000
0100
0010
0001
0100
0000
0000
0001
0000
0000
0100
0000
,  // measure 41
0010
0000
0000
1000
0000
0000
0001
0000
0010
0000
0000
0100
0000
0000
0010
0000
,  // measure 42
0001
0000
0000
1000
0000
0000
0010
0000
0100
0000
0000
0010
0000
0000
1000
0000
,  // measure 43
0010
0000
0000
0001
0000
0000
0010
0000
0100
0000
0000
0001
0000
0000
1000
0000
,  // measure 44
0100
0000
0000
1000
0000
0000
0010
0000
0100
0000
0000
0010
0000
0000
1000
0000
,  // measure 45
0100
0000
1000
0000
0000
0001
0000
0000
0100
0000
0001
0000
0000
0010
0000
0000
,  // measure 46
0001
0000
1000
0000
0000
0100
0000
0000
0010
0000
0000
1000
0010
0000
0001
0000
,  // measure 47
0100
0000
0001
0000
0000
0010
0000
0000
0100
0000
1000
0000
0000
0010
0000
0000
,  // measure 48
0100
0000
0001
0000
0000
0010
0000
0000
0200
0000
0300
0000
0200
0000
0300
0000
,  // measure 49
0200
0300
0000
0000
0000
0000
0000
0000
;

//---------------dance-single - ----------------
#NOTES:
     dance-single:
     X-Scale 9:
     Medium:
     7:
     0.365142,0.391221,0.022754,0.159276,0.318551,337.000000,334.000000,3.000000,21.000000,0.000000,0.000000,0.365142,0.391221,0.022754,0.159276,0.318551,337.000000,334.000000,3.000000,21.000000,0.000000,0.000000:
0000
0000
0000
0000
,
1000
0000
0000
0010
0000
0000
0100
0000
0010
0000
0000
0001
0000
0000
1000
0000
,
0001
0000
0000
0100
0000
0000
0010
0000
1000
0000
0000
0010
0000
0000
0100
0000
,
0010
0000
0000
1000
0000
0000
0001
0000
1000
0000
0000
0100
0000
0000
0010
0000
,
0100
0000
0000
1000
0000
0000
0001
0000
0010
0000
0000
0001
0000
0000
0100
0000
,
1000
0000
0000
0100
0000
0000
0010
0000
0100
0000
0000
0001
0000
0000
0010
0000
,
0100
0000
0000
0010
0000
0000
0001
0000
1000
0000
0000
0010
0000
0000
1000
0000
,
0100
0000
0000
0010
0000
0000
0001
0000
0100
0000
0000
0010
0000
0000
0100
0000
,
0001
0000
0000
1000
0000
0000
0001
0000
0100
0000
0000
0000
0001
0000
0000
0000
,
1000
0000
0000
0010
0000
0000
1000
0000
0001
0000
0000
0010
0001
0000
0010
0000
,
0100
0000
0000
0010
0000
0000
0100
0000
1000
0000
0000
0010
0000
0000
0100
0000
,
0001
0000
0000
0010
0000
0000
0001
0000
1000
0000
0000
0100
2000
0000
0000
0000
,
3010
0000
0000
0100
0000
0000
0010
0000
1000
0000
0000
0100
0000
0000
0010
0000
,
0001
0000
0100
0000
0000
0001
0000
0000
1000
0000
0010
0000
0000
1000
0000
0000
,
0100
0000
0010
0000
0000
0100
0000
0000
1000
0010
0000
0010
0100
0000
0010
0000
,
1000
0000
0001
0000
0000
0010
0000
0000
0001
0000
0100
0000
0000
0010
0000
0000
,
2000
0000
0000
3000
0200
0000
0000
0300
2000
0000
0000
3000
0000
0000
0000
0000
,
1001
0000
0000
0001
0100
0000
0001
0000
0020
0000
0000
0000
0130
0000
0010
0000
,
0001
0000
0000
1000
0100
1000
0100
0000
0020
0000
0230
0000
2300
0000
3002
0000
,
2003
0000
3000
0100
1000
0000
0010
0000
0200
0000
0000
0000
0301
0000
0200
0000
,
0000
0000
0300
0010
0100
0010
0100
0000
0001
0000
1000
0001
1000
0100
0010
0000
,
0100
0000
1000
0000
0001
0000
1000
0000
0100
0000
0010
0100
0010
0000
0001
0000
,
1000
0000
0010
0000
0100
0000
0001
0000
0010
0000
0001
0000
1000
0000
0010
0100
,
0010
1000
0100
0010
0001
1000
0010
0100
,
0001
0010
0001
0010
,
0011
0000
0000
0100
0000
0001
0100
0000
0001
0000
0000
1000
0000
0000
0001
0000
,
0010
0000
0000
0001
0100
0000
0010
0000
2000
0000
0000
0000
3200
0000
2300
0000
,
3010
0000
0000
1000
0000
0001
1000
0000
0100
0000
0000
0010
0000
0000
0001
0000
,
0100
0010
1000
0100
0020
0000
0230
0320
,
0130
0000
1000
0000
0001
1000
0000
0000
0100
0000
0010
0000
0100
0010
0000
0000
,
0001
0000
1000
0000
0001
0100
0000
0000
0010
0100
0010
0000
1000
0000
0100
0000
,
0010
0000
0001
0000
0100
0001
0000
0000
0010
0000
0100
0000
0010
0100
0000
0000
,
1000
0000
0010
0000
0000
1000
0000
0000
0001
0000
0000
0000
0010
0000
0100
0000
,
1000
0100
0010
0100
1000
0000
0000
0000
0001
0000
0000
0000
0100
0010
0001
0010
,
0100
0000
0000
0000
0001
0000
0000
0000
1000
0000
0010
1000
0000
0010
0000
0000
,
1010
1000
0000
0000
0001
0000
0100
0000
0001
0000
0010
0000
0100
0000
0010
0000
,
0001
1000
0010
0100
0001
0010
0100
1000
,
0001
0010
0100
0010
0001
0000
0100
0000
0010
0000
1000
0000
0010
0100
1000
0100
,
0010
0000
1000
0000
0001
0000
0100
0000
0010
0000
1000
0001
0000
0001
0000
0000
,
0100
0001
0000
0000
1000
0000
0100
0000
0010
0000
0100
0000
1000
0000
0001
0000
,
0100
0000
0010
0000
1000
0000
0001
0000
0010
0000
0000
0001
0010
0000
0001
0000
,
1000
0000
0000
0100
0000
0000
1000
0000
0010
0000
0000
0100
0000
0000
0010
0000
,
1000
0000
0000
0001
0000
0000
1000
0000
0010
0000
0000
0100
0000
0000
0010
0000
,
1000
0000
0000
0100
0000
0000
1000
0000
0001
0000
0000
0010
0000
0000
0001
0000
,
0100
0000
0000
0010
0000
0000
0100
0000
0001
0000
0000
1000
0000
0000
0001
0000
,
0010
0000
0100
0000
0000
0010
0000
0000
0001
0000
1000
0000
0000
0001
0000
0000
,
0100
0000
0010
0000
0000
0100
0000
0000
0001
0000
0000
0001
1000
0000
0010
0000
,
1000
0000
0100
0000
0000
0010
0000
0000
0001
0000
0100
0000
0000
0001
0000
0000
,
0010
0000
0100
0000
0000
1000
0000
0000
0020
0000
0030
0000
0020
0000
0030
0000
,
0020
0030
0000
0000
0000
0000
0000
0000
;

//---------------dance-single - ----------------
#NOTES:
     dance-single:
     X-Scale 5:
     Easy:
     3:
     0.204783,0.241568,0.015169,0.053092,0.060676,189.000000,187.000000,2.000000,7.000000,0.000000,0.000000,0.204783,0.241568,0.015169,0.053092,0.060676,189.000000,187.000000,2.000000,7.000000,0.000000,0.000000:
0000
0000
0000
0000
,
1000
0000
0100
0000
,
0010
0000
0001
0000
,
1000
0000
0010
0000
,
0100
0000
0001
1000
,
0001
0000
0010
0000
,
0100
0000
1000
0000
,
0001
0000
0100
0000
,
0010
0000
1000
0001
,
1000
0000
0000
0100
0000
0000
1000
0000
0100
0000
0000
0010
0000
0000
0001
0000
,
0010
0000
0000
0001
0000
0000
0100
0000
0001
0000
0000
0100
0000
0000
0001
0000
,
0010
0000
0000
0100
0000
0000
0010
0000
0100
0000
0000
1000
0000
0000
0100
0000
,
1000
0000
0000
0001
0000
0000
1000
0000
0001
0000
0000
0010
0000
0000
0001
0000
,
0100
0000
0010
0000
,
1000
0000
0100
0000
,
0010
0000
0001
0000
,
2000
0010
0010
3010
,
0101
0000
0001
0000
1000
0000
0100
0010
,
0001
0000
0100
0000
0001
0100
0010
1000
,
0001
0000
0100
0000
0001
0000
0010
0100
,
1000
0000
0010
0000
1000
0000
0100
0010
,
0001
0000
0100
0000
0001
0000
0010
0100
,
1000
0000
0010
0000
1000
0000
0100
0010
,
0001
0000
0100
0000
0001
0000
0010
0100
,
2000
0010
0010
3010
,
0101
0000
0000
0000
0100
0000
0001
0000
0100
0000
0000
0010
0000
0000
0100
0000
,
0001
0000
0000
0010
0000
0000
0100
0000
2000
0000
0000
0000
0001
0000
0000
0000
,
0010
0000
0000
0000
0001
0000
0000
0000
3010
0000
0000
1000
0000
0000
0001
0000
,
0010
0000
0000
0001
0000
0000
0100
0000
0020
0000
0000
0000
0001
0000
0000
0000
,
0100
0000
0000
0000
0001
0000
0000
0000
0130
0000
0000
0010
0000
0000
1000
0000
,
0001
0000
0000
0010
0000
0000
0100
0000
2000
0000
0000
0000
0010
0000
0000
0000
,
0100
0000
0000
0000
0010
0000
0000
0000
3100
0000
0000
1000
0000
0000
0001
0000
,
2000
0000
0000
0100
0000
0000
0000
0000
0010
0000
0000
0000
0010
0000
0000
0000
,
3010
1000
0001
1000
,
0100
0010
0001
0200
,
0301
1000
0100
1000
,
0010
0000
0001
0000
0010
0000
0100
0010
,
1000
0010
0100
0001
,
0010
1000
0010
0001
,
0100
0010
0100
0001
,
1000
0000
0010
0000
0100
0000
0001
0010
,
0001
0000
0010
0000
,
0100
0000
1000
0000
,
0001
0000
0100
0000
,
0010
0000
0000
0000
1000
0000
0001
0100
,
0001
0000
0100
0000
,
0010
0000
1000
0001
,
1000
0000
0100
0000
,
0010
0000
0001
0100
,
0100
0000
0000
0000
;

//---------------dance-single - ----------------
#NOTES:
     dance-single:
     X-Scale 1:
     Beginner:
     1:
     0.079096,0.092911,0.000000,0.000000,0.000000,73.000000,73.000000,0.000000,0.000000,0.000000,0.000000,0.079096,0.092911,0.000000,0.000000,0.000000,73.000000,73.000000,0.000000,0.000000,0.000000,0.000000:
0000
0000
0000
0000
,
1000
0000
0000
0000
,
0100
0000
0000
0000
,
0010
0000
0000
0000
,
0001
0000
0000
0000
,
1000
0000
0000
0000
,
0010
0000
0000
0000
,
0100
0000
0000
0000
,
0001
0000
0000
0000
,
0100
0000
0000
0000
,
0010
0000
0000
0000
,
1000
0000
0000
0000
,
0001
0000
0000
0000
,
0010
0000
0000
0000
,
0100
0000
0000
0000
,
1000
0000
0000
0000
,
0010
0000
0000
0000
,
0100
0000
0010
0000
,
1000
0000
0001
0000
,
0010
0000
0001
0000
,
1000
0000
0010
0000
,
0100
0000
0010
0000
,
1000
0000
0001
0000
,
0010
0000
0001
0000
,
0100
0000
0000
0000
,
1000
0000
0001
0000
,
1000
0000
0010
0000
,
1000
0000
0100
0000
,
0010
0000
0001
0000
,
0100
0000
0001
0000
,
0010
0000
0100
0000
,
1000
0000
0010
0000
,
1000
0000
0000
0000
,
0000
0100
0000
0010
,
0000
0100
0000
0010
,
0010
0000
1000
0000
,
0001
0000
1000
0000
,
0100
0000
0010
0000
,
0001
0000
0100
0000
,
0001
0000
0010
0000
,
0001
0000
0100
0000
,
0001
0000
0000
0000
,
0100
0000
0000
0000
,
0010
0000
0000
0000
,
1000
0000
0000
0000
,
0001
0000
0000
0000
,
0010
0000
0100
0000
,
0010
0000
0000
0000
,
0001
0000
1000
0000
,
0001
0000
0000
0000
;
