#TITLE:UFO;
#SUBTITLE:;
#ARTIST:f5ve;
#TITLETRANSLIT:;
#SUBTITLETRANSLIT:;
#ARTISTTRANSLIT:;
#GENRE:Hyperpop;
#CREDIT:;
#BANNER:UFO-bn.png;
#BACKGROUND:UFO-bg.png;
#LYRICSPATH:;
#CDTITLE:cdtitle.png;
#MUSIC:UFO.ogg;
#OFFSET:-0.003000;
#SAMPLESTART:32.944000;
#SAMPLELENGTH:18.823999;
#SELECTABLE:YES;
#BPMS:0.000000=102.000000
;
#STOPS:
;
#BGCHANGES:0.000=UFO.avi=1.000=1=0=0=StretchNoLoop==CrossFade==,
99999=-nosongbg-=1.000=0=0=0 // don't automatically add -songbackground-
;
#KEYSOUNDS:;
#ATTACKS:;

//---------------dance-single - ----------------
#NOTES:
     dance-single:
     X-Scale 6:
     Easy:
     4:
     0.240851,0.314408,0.082020,0.000000,0.009113,185.000000,176.000000,9.000000,0.000000,0.000000,0.000000,0.240851,0.314408,0.082020,0.000000,0.009113,185.000000,176.000000,9.000000,0.000000,0.000000,0.000000:
0000
0000
0000
0000
,
0000
0000
0000
0000
,
0000
0001
0000
1000
,
0000
0001
0000
1000
,
0000
0100
0000
0010
,
0000
0100
0000
0010
,
0000
0001
0000
1000
,
0000
0001
0000
1000
,
0000
0010
0000
0100
,
0000
0010
0000
0100
,
0001
0000
0000
0000
,
1000
0000
0000
0000
,
0001
0000
0000
0000
,
1000
0000
0000
0000
,
1001
1000
0001
1000
,
0010
1000
0001
0010
,
0100
0010
0001
0010
,
0100
0000
0000
0000
1000
0000
0000
1000
0000
0000
1000
0000
0001
0000
1000
0000
,
0001
0010
0001
0100
,
0001
0000
0010
0000
0001
0000
0100
0001
,
1000
0100
0010
0100
,
1000
0000
0000
0000
0001
0000
0000
0001
0000
0000
0001
0000
1000
0000
0001
0000
,
1000
0000
0010
1000
0001
0010
0100
0000
,
1000
0001
0100
0010
1000
0000
0100
0010
,
0100
1000
0100
0000
0010
0001
1000
0001
,
0100
0000
0001
0000
1000
0000
0001
0100
,
0001
0000
0010
0100
1000
0000
0001
0100
,
0010
0100
0001
0000
1000
0000
0010
1000
,
0001
0000
0100
0001
1000
0001
0100
0000
,
0001
0000
1000
0000
0001
0000
0010
0100
,
1000
1100
0000
0101
,
0000
1100
0000
0101
,
0000
0011
0000
1010
,
0000
0011
0000
1010
,
1000
0000
0001
0000
1000
0000
0100
0010
,
0100
0000
1000
0000
0001
0000
0100
0001
,
0100
0000
0010
0000
1000
0000
0001
0100
,
0001
0000
0010
0000
0100
0000
1000
0100
,
1000
0000
0001
0000
0100
0001
1000
0000
,
0001
0000
0010
0100
1000
0000
0001
0000
,
0100
0010
1000
0000
0100
0000
0010
0100
,
1000
0001
0100
0001
,
1000
0000
0100
0010
0001
0000
1000
0000
,
0001
0100
0010
0000
1000
0000
0001
0010
,
0100
0000
0010
0000
0001
1000
0010
0000
,
0100
0000
0001
0000
1000
0000
0100
1000
,
0001
0000
0000
0000
;

//---------------dance-single - ----------------
#NOTES:
     dance-single:
     X-Scale 10:
     Medium:
     7:
     0.447853,0.440171,0.145812,0.127586,0.332635,344.000000,328.000000,16.000000,14.000000,0.000000,0.000000,0.447853,0.440171,0.145812,0.127586,0.332635,344.000000,328.000000,16.000000,14.000000,0.000000,0.000000:
0000
0000
0000
0000
,
0000
0000
0000
0000
,
0000
0000
1100
0000
0001
0000
0100
0001
,
1000
0001
0000
0000
0011
0000
0000
0000
0010
0000
0000
0000
0100
0000
1000
0000
,
0001
1000
0000
0000
1010
0000
0000
0000
1000
0000
0100
0010
0001
0000
1000
0000
,
0001
0000
0000
0000
1001
0000
0000
0000
0010
0000
0001
0010
0100
0000
1000
0000
,
0000
0000
0001
0000
1000
0100
0001
0010
,
1000
0000
0001
0000
1000
0010
0001
0100
,
1000
0000
0001
0000
0100
0010
1000
0001
,
0010
0100
1000
0100
0010
0001
1000
0001
,
2001
0000
0000
3200
0000
0000
0320
0000
0000
0000
1030
0000
0010
0000
0001
0000
,
2000
0000
0000
3002
0000
0000
0203
0000
0000
0000
1300
0000
0100
0000
0010
0000
,
2000
0000
0000
3002
0000
0000
0203
0000
0000
0000
1300
0000
0100
0000
0001
0000
,
0020
0000
0100
0000
0000
0031
0010
0100
,
1100
0000
0000
0000
1000
0000
0001
0000
1000
0000
0100
0000
0010
0100
0010
0100
,
0010
0000
0000
0000
0001
0000
0010
0100
1000
0000
0001
0000
1000
0001
0100
0000
,
0101
0000
0000
0000
0001
0000
1000
0100
0000
1000
0001
0000
0100
0000
0001
0000
,
0010
0000
0000
0000
1100
0000
0100
1000
0000
0100
1000
0000
0001
0000
0100
0000
,
0101
0000
0000
0000
0001
0000
0010
0000
0100
0000
0000
0000
1000
0100
1000
0100
,
1000
0000
0000
0000
0002
0000
2003
0000
3200
0000
0300
0000
0010
0100
1000
0000
,
1001
0000
0000
0000
0010
0000
0001
0000
1000
0000
0000
0010
1000
0001
0010
0100
,
0000
0000
0000
0000
1100
0000
1000
0001
0000
1000
0001
0000
0010
0000
0100
0000
,
1100
0000
0000
0000
0100
0000
1000
0001
0000
0100
0010
0000
0100
0000
0000
0000
,
0001
0000
0000
0000
0010
0000
0100
1000
0000
0001
0100
0000
0001
0000
1000
0000
,
0001
0000
0000
0000
1000
0000
0100
0010
0000
0100
1000
0000
0001
0000
0100
0000
,
0001
0000
0000
0000
0010
0000
0100
0010
0000
0010
0100
0000
1000
0000
0001
0000
,
0100
0000
0000
0100
0000
0000
0001
0000
0010
0000
0000
0000
0100
0000
0000
1000
,
0000
0000
0001
0000
1000
0000
0000
0000
0100
0000
0000
0010
0000
0000
0100
0000
,
1000
0000
0000
0000
0001
0000
0000
0001
0000
0000
1000
0000
0001
0000
1000
0000
,
0001
0000
0000
0000
0010
0000
0100
1000
0000
1000
0001
0000
0100
0000
0001
0000
,
0000
0000
1000
0100
0000
1000
0100
0000
0010
0000
0000
0000
0001
0000
0100
0001
,
0000
0100
0001
0000
1000
0000
0000
0000
0001
0000
0010
0100
0000
0010
0100
0000
,
1000
0000
0001
0000
0000
0001
0000
0000
0001
0000
0001
1000
0000
0000
1000
0000
,
0010
0000
0100
0000
0000
0100
0000
0000
0002
0000
0000
0000
1003
0000
0001
0000
,
1001
0000
0000
0000
0100
0000
1000
0000
0001
0000
0000
0000
1000
0001
1000
0001
,
0100
0000
0000
0000
0001
0000
0010
0000
0100
0000
0000
0000
1000
0100
1000
0000
,
1100
0000
0000
0000
0001
0000
1000
0000
0010
0000
0000
0000
1000
0010
1000
0001
,
0010
0000
0000
0000
0100
0000
1000
0001
0000
1000
0001
0000
0100
0000
0010
0000
,
1001
0000
0010
0001
0000
0010
0100
0000
1000
0000
0001
0000
0100
0000
0001
1000
,
0000
0010
1000
0000
0001
0000
1000
0000
0100
0000
0010
0100
0000
1000
0100
0000
,
1000
0000
0001
0000
0100
0000
0001
1000
0000
0010
0100
0000
0001
0000
0100
0000
,
1000
0000
0100
0000
0001
0000
1000
0010
0000
0100
0001
0000
1000
0000
0001
0000
,
0010
0000
0100
0010
0000
0100
1000
0000
0001
0000
1000
0000
0010
0000
0100
0010
,
0000
1000
0001
0000
0100
0000
0001
0000
0010
0000
0100
1000
0000
0001
0100
0000
,
0001
0000
1000
0000
0100
0000
0010
0100
0000
0010
0001
0000
1000
0000
0001
0000
,
0100
0000
0000
0000
0101
0000
0001
0100
0000
0001
1000
0000
0100
0000
0010
0000
,
0001
0000
0000
0000
;

//---------------dance-single - ----------------
#NOTES:
     dance-single:
     X-Scale 12:
     Hard:
     8:
     0.558514,0.503053,0.328078,0.209605,0.524013,429.000000,393.000000,36.000000,23.000000,0.000000,0.000000,0.558514,0.503053,0.328078,0.209605,0.524013,429.000000,393.000000,36.000000,23.000000,0.000000,0.000000:
// measure 0
0000
0000
0000
0000
,  // measure 1
0000
0000
0000
0000
,  // measure 2
1001
0000
0000
0000
0100
0000
0001
0001
0000
1000
1000
0000
1001
0000
0100
0000
,  // measure 3
1100
0000
0000
0000
1000
0000
0100
0100
0000
0010
0010
0000
0011
0000
1000
0000
,  // measure 4
1010
0000
0000
0000
0001
0000
1000
1000
0000
0001
0001
0000
1001
0000
0010
0000
,  // measure 5
0110
0000
0000
0000
0001
0000
0010
0010
0000
0100
0100
0000
2100
0000
0002
0000
,  // measure 6
3003
0000
1000
0100
0010
0000
1000
0010
0001
0000
0100
0000
1000
0000
0010
0000
,  // measure 7
0001
0000
0000
0000
1001
0000
0100
1000
0001
0000
0010
0000
1000
0000
0100
0000
,  // measure 8
0001
0010
1000
0001
0100
1000
0010
1000
,  // measure 9
0100
0001
1000
0010
0001
1000
0001
0100
,  // measure 10
0101
0000
0000
1000
0000
0000
0001
0000
0000
0000
0100
0000
0010
0000
1000
0000
,  // measure 11
0100
0000
0000
0010
0000
0000
0001
0000
0000
0000
0010
0000
1000
0000
0010
0000
,  // measure 12
0100
0000
0000
1000
0000
0000
0001
0000
0000
0000
0100
0000
0010
0000
1000
0000
,  // measure 13
0002
0000
0100
0000
0000
0100
0010
1003
,  // measure 14
1001
0000
0000
1000
0010
0000
1000
0000
0001
0000
0010
0100
1000
0100
0001
0100
,  // measure 15
1000
0000
0000
0000
1001
0000
1000
0200
0300
0100
0001
0000
1000
0001
0010
0000
,  // measure 16
1100
0000
0000
0000
0001
0000
1000
0200
0300
0100
0001
0010
1000
0001
0100
1000
,  // measure 17
0001
0000
0000
0000
0101
0000
0100
0001
0000
0100
0001
0000
0100
0000
0010
0000
,  // measure 18
1000
0000
0000
0001
0100
0000
0001
0000
0010
0000
1000
0010
0001
0010
0100
0010
,  // measure 19
0001
0000
0000
0000
0101
0000
0001
0200
0300
0100
1000
0000
0100
0010
0001
0000
,  // measure 20
0011
0000
0000
0000
1000
0000
0001
0200
0300
0100
1000
0001
0100
1000
0001
0010
,  // measure 21
1000
0000
0000
0000
1001
0000
0100
0001
0000
0100
0001
0000
1000
0000
0100
0000
,  // measure 22
1100
0000
0100
1000
0000
0100
0010
0000
0001
1000
0001
0000
0100
0000
0001
0010
,  // measure 23
0000
0100
1000
0000
0001
0000
1000
0100
1000
0000
0010
0100
0000
1000
0100
0000
,  // measure 24
0001
0000
1000
0000
0010
0000
0100
0010
0000
0100
0001
0000
0010
0000
1000
0000
,  // measure 25
0010
0000
0100
0000
1000
0000
0001
0020
0030
0010
1000
0001
1000
0000
0100
0000
,  // measure 26
1100
0000
0100
1000
0000
0100
0010
0000
0001
0000
1000
0000
0100
0000
1000
0010
,  // measure 27
0000
0001
0010
0000
1000
0000
0001
0100
0000
0010
1000
0000
0001
0010
0100
0000
,  // measure 28
1100
0000
1000
0000
0001
0000
1000
0100
0000
0001
0100
0000
1000
0000
0001
0000
,  // measure 29
0011
0000
0010
0000
0100
0000
1000
0001
0100
0010
1000
0001
0010
0000
0100
0000
,  // measure 30
1000
0000
0001
0020
0030
0010
1000
0000
0001
0000
0000
0000
1001
0000
1000
0200
,  // measure 31
0300
0100
0001
0000
0101
0000
0000
0000
0001
0000
1000
0200
0300
0100
0001
0000
,  // measure 32
1001
0000
0100
0000
1000
0200
0300
0100
0001
0000
1000
0020
0030
0010
0001
0000
,  // measure 33
1000
0000
0100
0000
1000
0020
0030
0010
0002
0000
0000
0010
0010
0000
0103
0000
,  // measure 34
0101
0000
0000
0000
1001
0000
0001
0200
0300
0100
1000
0000
0100
0010
0100
0010
,  // measure 35
0001
0000
0000
0000
1000
0000
0010
0200
0300
0100
1000
0000
0001
0100
0001
0000
,  // measure 36
0101
0000
0000
0000
1001
0000
1000
0020
0030
0010
0001
0000
0010
0100
0010
0100
,  // measure 37
0000
0000
0000
0000
1100
0000
0001
1000
0000
0001
1000
0000
0100
0000
0010
0000
,  // measure 38
1001
0000
0000
0000
0001
0000
1000
0200
0300
0100
0001
0000
1000
0000
0001
0000
,  // measure 39
0010
0000
1000
0000
0010
0000
0001
0200
0300
0100
1000
0000
0001
0100
0010
0000
,  // measure 40
0110
0000
1000
0000
0001
0000
1000
0200
0300
0100
0001
0000
1000
0000
0001
0000
,  // measure 41
0100
0000
0000
0000
0101
0000
0001
0200
0300
0100
1000
0001
1000
0100
0010
0000
,  // measure 42
1001
0000
1000
0001
0000
1000
0001
0000
0100
0000
1000
0000
0001
0000
0010
1000
,  // measure 43
0000
0001
0010
0000
0100
0000
0010
0200
0300
0100
0001
0000
1000
0010
0100
0000
,  // measure 44
0101
0000
0001
0000
0100
0000
0010
0100
0000
0010
0100
0000
0001
0000
0010
0000
,  // measure 45
0100
0000
0000
0000
1100
0000
0001
0100
0000
0001
0100
0000
0010
0000
1000
0000
,  // measure 46
1001
0000
0000
0000
;

//---------------dance-single - ----------------
#NOTES:
     dance-single:
     X-Scale 1:
     Beginner:
     1:
     0.091133,0.104803,0.000000,0.009113,0.000000,70.000000,70.000000,0.000000,1.000000,0.000000,0.000000,0.091133,0.104803,0.000000,0.009113,0.000000,70.000000,70.000000,0.000000,1.000000,0.000000,0.000000:
0000
0000
0000
0000
,
0000
0000
0000
0000
,
1000
0000
0000
0000
,
0001
0000
0000
0000
,
1000
0000
0000
0000
,
0001
0000
0000
0000
,
0010
0000
0000
0000
,
0100
0000
0000
0000
,
0010
0000
0000
0000
,
0100
0000
0000
0000
,
1000
0000
0000
0000
,
0100
0000
0000
0000
,
1000
0000
0000
0000
,
0100
0000
0000
0000
,
0000
0001
0000
0100
,
0000
0001
0000
0100
,
0000
0010
0000
1000
,
0000
0010
0000
1000
,
0000
0100
0000
0010
,
0000
0100
0000
0010
,
0000
0001
0000
1000
,
0000
0001
0000
1000
,
0000
0100
0000
0010
,
0000
0100
0000
0010
,
0000
0001
0000
1000
,
0000
0001
0000
1000
,
0000
0010
0000
1000
,
0000
0010
0000
1000
,
0000
0001
0000
0100
,
0000
0001
0000
0100
,
0000
0100
0000
0100
,
0000
0010
0000
0010
,
0000
1000
0000
0001
,
0000
1000
0000
0000
,
0001
0000
0000
0000
,
1000
0000
0000
0000
,
0001
0000
0000
0000
,
1000
0000
0000
0000
,
0000
0001
0000
0100
,
0000
0001
0000
1000
,
0000
0001
0000
0100
,
0000
0001
0000
1000
,
0000
0100
0000
0010
,
0000
0100
0000
1000
,
0000
0100
0000
0010
,
0000
0002
0000
0000
,
0003
0000
0000
0000
;
