#TITLE:U Want It;
#SUBTITLE:;
#ARTIST:Eliminate;
#TITLETRANSLIT:;
#SUBTITLETRANSLIT:;
#ARTISTTRANSLIT:;
#GENRE:Bass House;
#CREDIT:;
#BANNER:U Want It-bn.png;
#BACKGROUND:U Want It-bg.png;
#LYRICSPATH:;
#CDTITLE:cdtitle.png;
#MUSIC:U Want It.ogg;
#OFFSET:-0.004000;
#SAMPLESTART:61.879002;
#SAMPLELENGTH:15.000000;
#SELECTABLE:YES;
#BPMS:0.000000=128.000000
;
#STOPS:
;
#BGCHANGES:0.000=U Want It.avi=1.000=1=0=0=StretchNoLoop==CrossFade==,
99999=-nosongbg-=1.000=0=0=0 // don't automatically add -songbackground-
;
#KEYSOUNDS:;
#ATTACKS:;

//---------------dance-single - getting into the groove of "working"----------------
#NOTES:
     dance-single:
     X-Scale 6:
     Easy:
     4:
     0.243028,0.366744,0.082183,0.032873,0.000000,207.000000,197.000000,10.000000,4.000000,0.000000,0.000000,0.243028,0.366744,0.082183,0.032873,0.000000,207.000000,197.000000,10.000000,4.000000,0.000000,0.000000:
0000
0000
0000
0000
,
0000
0000
0000
0000
,
0000
0000
0000
0000
,
0000
0000
0000
0000
,
0000
0000
0000
0000
,
1000
0000
0001
0000
,
0100
0000
0001
0000
,
1000
0000
0001
0000
,
1000
0000
0000
0000
,
1001
0000
0000
0000
0000
0000
0000
0002
,
2003
3002
2000
0000
3003
0000
0000
0000
,
1100
0100
1000
0001
,
0100
0001
1000
0001
,
0010
0100
0010
0001
,
1000
0010
0100
0001
,
1000
0001
0100
0001
,
0000
0010
0000
0001
,
0011
0001
0000
0001
,
0000
1000
0000
1000
,
0000
0100
0000
0100
,
0000
0010
0000
0010
,
0001
1000
0001
0100
,
0001
1000
0001
0010
,
0100
0010
0001
0010
,
0100
0000
1000
0000
0000
0000
0000
0001
,
1000
0001
0000
0000
0100
0000
0000
0001
,
0100
0001
0000
0000
1000
0000
0000
0100
,
0010
0100
0000
0000
1000
0000
0000
0001
,
0100
0001
0000
0000
0010
0000
0000
0000
,
0100
1000
0001
1000
,
0100
1000
0001
1000
,
1100
0000
0000
0101
0000
0000
1001
0000
,
0000
0000
0000
0000
,
0110
0000
0000
0000
,
0000
0000
0000
0000
,
1001
1000
0001
1000
,
0010
1000
0001
0010
,
0100
0010
0001
1000
,
0001
0100
0001
1000
,
0100
1000
0000
0001
0100
0000
0001
0000
,
1000
0100
0000
1000
0001
0000
1000
0000
,
1001
0001
0100
0001
,
1000
0100
1000
0001
,
0010
0100
0010
0001
,
1000
0001
0100
0001
,
1000
0100
0010
0100
,
1000
0001
0010
0100
,
0010
0001
0000
1000
0001
0000
0100
0000
,
0001
1000
0000
0010
1000
0000
0001
0000
,
1001
1000
0000
1000
0001
0000
0100
0001
,
1000
0100
0000
0100
0010
0000
0100
1000
,
0001
0100
0000
0100
0010
0000
1000
0001
,
0100
0001
0000
0001
0100
0000
0001
0000
,
1000
0010
0000
1000
0001
0000
0100
0001
,
1000
0010
0000
0010
0100
0000
0001
0010
,
0100
1000
0000
1000
0001
0000
0100
0001
,
1000
0100
0000
0100
1000
0000
0001
0000
,
1000
0000
0000
0000
,
0000
0000
0000
0000
,
0001
0000
0000
0000
,
0000
0000
0000
0000
,
0010
0000
0000
0000
,
0100
0000
0000
0000
,
0010
0000
0000
0100
;

//---------------dance-single - man, my lawyer is stuck in the backrooms \:(----------------
#NOTES:
     dance-single:
     X-Scale 10:
     Medium:
     7:
     0.410917,0.586482,0.197240,0.057528,0.016437,350.000000,326.000000,24.000000,7.000000,0.000000,0.000000,0.410917,0.586482,0.197240,0.057528,0.016437,350.000000,326.000000,24.000000,7.000000,0.000000,0.000000:
0000
0000
0000
0000
,
0000
0000
0000
0000
,
0000
0000
0000
0000
,
0000
0000
0000
0000
,
0000
0000
0000
0000
,
0110
0000
0000
0001
0100
0001
0100
0000
,
0001
0000
0000
1000
0100
1000
0100
0000
,
1000
0000
0000
0001
1000
0001
1000
0000
,
0020
0000
0000
0000
0000
0000
0000
0030
,
0110
0000
0000
0000
0000
0000
0000
1000
,
0100
0010
0002
0000
0003
0000
0011
0000
,
1010
0000
0010
1000
0001
1000
0010
1000
,
0001
0000
0010
0100
1000
0001
0100
0010
,
1000
0000
0100
0010
0001
0100
1000
0100
,
0001
0000
1001
0000
1000
0100
0001
0100
,
1000
0000
0001
0100
0010
1000
0100
0010
,
0001
0011
0000
1010
,
1000
0001
0000
0001
0100
1000
0001
0010
,
1000
0001
0000
0001
1000
0100
0001
0100
,
1000
0001
0000
0001
0100
0010
1000
0001
,
0000
1001
0000
0110
,
0001
1000
0000
1000
0100
0001
0100
0010
,
0001
1000
0000
1000
0010
0100
1000
0001
,
0010
0100
0000
0100
0010
1000
0001
0020
,
0030
0020
0030
0010
0001
1000
0100
1000
,
1100
0000
0001
0000
1000
0100
0100
0000
,
0010
0000
0100
0000
1000
0001
0001
0000
,
0010
0000
0100
0000
1000
0001
0001
0000
,
0010
0000
0001
0000
1000
0100
0100
0000
,
1000
0100
0001
0100
1000
0100
0001
0100
,
1000
0010
0001
0010
1000
0010
0001
0010
,
1000
0000
0001
1000
0001
0000
1001
0000
1000
0100
1000
0000
1100
0000
0001
1000
,
0002
0000
0000
0013
0010
0001
0001
0000
,
0011
0001
0000
0000
,
1000
1000
0000
1001
,
0110
0000
0100
0001
1000
0001
0001
0000
,
0010
0000
0100
1000
0001
0100
1000
0100
,
0001
0000
1001
1000
0001
0100
0100
0000
,
0001
0010
0100
0000
1000
0100
0001
0100
,
0010
0001
0000
0010
0100
0010
0100
0000
,
1000
0100
0000
0100
1000
0001
0100
0010
,
1000
0000
1010
0001
1000
0001
0001
0000
,
0010
0100
1000
0000
0001
0100
1000
0100
,
0001
0000
1001
1000
0001
0100
0100
0000
,
0001
0000
1000
0000
0100
0000
0001
0000
1000
0000
0010
0000
0001
1000
0001
0000
,
1001
0000
0110
1000
0001
0010
0010
0000
,
0100
0010
0001
0000
1000
0100
0001
0100
,
1000
1100
0000
0101
,
0000
1100
0000
0101
,
0001
1000
0000
1000
0100
0001
0100
0010
,
0001
1000
0000
1000
0001
0010
1000
0010
,
0100
1000
0000
1000
0000
0010
0100
1000
,
0100
0001
0000
0001
0010
0100
0001
0100
,
0010
0001
0000
0001
0010
1000
0001
0100
,
0010
0001
0000
0001
1000
0100
0001
0100
,
1000
0010
0000
0010
0100
0001
1000
0100
,
0010
0001
0000
0001
1000
0001
0100
0001
,
1000
0000
0000
0000
0100
0000
1000
0001
,
0000
0000
0000
0000
0001
0000
1000
0001
,
0000
0000
0000
0000
0010
0000
0100
0010
,
0000
0000
0000
0000
,
1000
0000
0000
0000
0001
0000
0100
0001
,
0000
0000
0000
0000
1000
0000
0001
1000
,
0000
0000
0000
0000
0010
0000
0200
0002
,
0000
0000
0000
0000
0000
0000
0000
0303
;

//---------------dance-single - you're not getting paid overtime for clearing this----------------
#NOTES:
     dance-single:
     X-Scale 11:
     Hard:
     8:
     0.510711,0.613140,0.230114,0.304079,0.028764,435.000000,407.000000,28.000000,37.000000,0.000000,0.000000,0.510711,0.613140,0.230114,0.304079,0.028764,435.000000,407.000000,28.000000,37.000000,0.000000,0.000000:
0000
0000
0000
0000
,
0000
0000
0000
0000
,
0000
0000
0000
0000
,
0000
0000
0000
0000
,
0000
0000
0000
0000
0000
0000
0000
1000
,
0001
0100
0000
0001
0001
1000
1000
0100
,
0010
0001
0000
1000
1000
0001
0001
0100
,
0010
1000
0000
0001
0001
0010
0010
0100
,
0020
0002
0003
0000
0000
0000
0000
0030
,
1001
0000
0000
0000
0000
0000
0001
0000
1000
0000
0200
0300
0200
0300
0001
0000
,
1000
0002
2000
0000
3003
0000
1100
0000
,
0101
0000
0100
0000
0001
0000
1000
0000
0001
0000
0200
0300
0200
0300
1000
0000
,
1100
0000
0002
0000
1003
0000
0100
0000
0001
0000
0100
0000
1000
0001
1000
0000
,
1001
0000
0100
0000
0110
0000
0001
0000
1000
0000
0200
0300
0200
0300
0001
0000
,
0101
1000
0002
0013
0100
0001
0100
1000
,
1100
0000
0100
0000
1000
0000
0001
0000
1000
0000
0020
0030
0020
0030
0001
0000
,
2000
0001
0000
3002
,
1003
0010
0000
0010
0100
1000
0001
0010
,
0100
0001
0000
0001
0100
1000
0100
0001
,
1000
0100
0000
0100
0001
0100
0010
0001
,
0000
0000
0011
0010
0100
0010
0001
1000
,
0100
0001
0100
1000
0001
0100
0010
0100
,
0001
1000
0100
0010
0100
1000
0001
0100
,
0010
0100
0001
0010
0100
1000
0010
0001
,
1000
0100
0001
0000
1000
0000
1001
0000
,
0001
0000
0000
0000
0000
0000
1000
0000
0001
0000
0200
0300
0200
0300
1000
0000
,
0001
0000
0000
0000
1000
0000
0100
0000
0010
0000
0200
0300
0200
0300
0001
0000
,
1000
0000
0000
0000
0001
0000
0010
0000
0100
0000
0020
0030
0020
0030
1000
0000
,
0001
0000
0000
0000
1000
0000
0100
0000
1000
0000
0020
0030
0020
0030
0001
0000
,
0011
0010
0001
1000
0100
0001
0100
1000
,
0001
0100
1000
0100
0001
1000
0001
0010
,
0011
0000
1000
0001
1000
0000
1001
0000
0100
1000
0100
0000
1100
0000
1000
0001
,
0200
0000
0000
1300
0100
0010
0100
0001
,
0101
0001
2000
3000
0000
0000
0000
1000
,
0001
0100
0020
0030
0000
0000
0110
0000
,
1001
0000
0100
0000
0001
0000
1000
0000
0100
0000
0020
0030
0020
0030
1000
0000
,
0001
0000
0010
0000
0100
0000
0001
0000
1000
0000
0010
0000
0100
0010
0001
0000
,
1000
0000
0001
0000
0100
0000
0010
0000
1000
0000
0200
0300
0200
0300
0001
0000
,
1000
0000
0010
0000
1010
0000
1000
0000
0100
0000
1000
0000
0001
0100
0001
0000
,
0104
4003
3100
1000
0001
0100
1000
0100
,
0001
0000
1001
0000
1000
0100
0001
0100
,
1000
0000
0001
0000
1000
0000
0100
0000
0010
0000
0200
0300
0200
0300
0001
0000
,
1000
0001
0010
1000
0001
0100
1000
0001
,
1000
0000
0100
0000
0001
0000
0100
0000
1000
0000
0020
0030
0020
0030
0001
0000
,
1000
0000
0001
0000
1001
0000
0100
0000
1000
0000
0001
0000
0100
0010
1000
0000
,
1010
0000
0001
0000
0010
0000
0100
0000
1000
0000
0200
0300
0200
0300
0001
0000
,
1000
0010
0001
0010
1000
0100
0001
0100
,
4000
3400
0300
1000
0001
0100
0101
0000
,
0004
0043
0030
0001
1000
0010
1010
0000
,
1000
0001
0100
1000
0100
0001
1000
0100
,
0010
1000
0001
0100
0010
0001
1000
0001
,
0100
0010
0001
1000
0100
0010
1000
0001
,
0100
1000
0001
0010
1000
0001
1000
0100
,
1100
1000
0100
0001
1000
0010
0001
1000
,
0001
0010
0100
0001
1000
0010
0100
1000
,
0001
0100
0010
0001
1000
0100
0010
1000
,
0001
1000
1001
0001
0100
1000
0100
0001
,
0101
0000
0000
0001
1000
0001
1000
0001
,
0000
0000
0000
0100
0010
0100
0010
0100
,
0000
0000
0000
0001
0010
0001
0010
0001
,
0000
0000
0000
0000
,
1100
0000
0000
1000
0100
1000
0100
1000
,
0000
0000
0000
0001
0100
0001
0100
0001
,
0000
0000
0000
0010
0100
0010
0400
0040
,
0000
0000
0000
0000
0000
0000
0000
0330
;

//---------------dance-single - when its time to clock off----------------
#NOTES:
     dance-single:
     X-Scale 10 (DANCERUSH Special):
     Challenge:
     7:
     0.345170,0.453190,0.164367,0.065747,0.000000,294.000000,274.000000,20.000000,8.000000,236.000000,0.000000,0.345170,0.453190,0.164367,0.065747,0.000000,294.000000,274.000000,20.000000,8.000000,236.000000,0.000000:
// measure 0
0000
0000
0000
0000
,  // measure 1
0000
0000
0000
0000
,  // measure 2
0000
0000
0000
0000
,  // measure 3
0000
0000
0000
0000
,  // measure 4
0000
0000
0000
0000
,  // measure 5
1000
0000
0001
0000
,  // measure 6
0100
0000
0001
0000
,  // measure 7
1000
0000
0001
0000
,  // measure 8
0020
0000
0000
0030
,  // measure 9
0011
0000
0000
0000
0000
0000
0000
1000
,  // measure 10
01M0
0100
0002
0000
0003
0000
0110
0000
,  // measure 11
0001
MMMM
0001
MMMM
0001
0100
0101
0000
,  // measure 12
1000
MMMM
1000
MMMM
1000
0001
1001
0000
,  // measure 13
0001
MMMM
0001
MMMM
0001
0100
0101
0000
,  // measure 14
1000
MMMM
1000
MMMM
1000
0010
1010
0000
,  // measure 15
0001
MMMM
0001
MMMM
0001
0100
0101
0000
,  // measure 16
0001
0100
00M0
0100
1000
0010
1000
0001
,  // measure 17
0000
1000
MMMM
1000
,  // measure 18
MMMM
1000
MMMM
1000
,  // measure 19
MMMM
1000
MMMM
1000
,  // measure 20
MMMM
0000
1000
0100
0001
1000
0010
0001
,  // measure 21
0100
0010
0M00
0010
0001
1000
0010
0100
,  // measure 22
0001
0010
0M00
0010
1000
0001
0100
0010
,  // measure 23
1000
0100
00M0
0100
0001
1000
0010
0100
,  // measure 24
0M00
0100
0M00
0100
0010
1000
0001
0010
,  // measure 25
0001
MMMM
0001
MMMM
,  // measure 26
0001
MMMM
0001
MMMM
,  // measure 27
0001
MMMM
0001
MMMM
,  // measure 28
0001
0000
0000
0001
0100
0010
1000
0100
,  // measure 29
0001
0100
1000
0100
0001
0100
1000
0100
,  // measure 30
0010
0001
0100
1000
0100
0001
0100
1000
,  // measure 31
0100
0001
0010
0100
1000
0010
0100
0002
,  // measure 32
2000
0000
0000
0000
0000
3003
L00L
0000
,  // measure 33
0110
0000
0000
0000
,  // measure 34
0000
0000
0000
1001
,  // measure 35
1000
MMMM
1000
MMMM
1000
0100
1100
0000
,  // measure 36
0001
MMMM
0001
MMMM
0001
0010
0M10
1000
,  // measure 37
0001
MMMM
0001
MMMM
0001
0100
0101
0000
,  // measure 38
1000
MMMM
1000
MMMM
1000
0100
01M0
0001
,  // measure 39
1000
0100
00M0
0100
0001
0010
1000
0010
,  // measure 40
0001
0100
00M0
0100
1000
0001
1001
0000
,  // measure 41
0001
MMMM
0001
MMMM
0001
0010
0011
0000
,  // measure 42
1000
MMMM
1000
MMMM
1000
0010
0M10
0001
,  // measure 43
1000
MMMM
1000
MMMM
1000
0010
1010
0000
,  // measure 44
0001
MMMM
0001
MMMM
0001
0100
01M0
1000
,  // measure 45
0001
MMMM
0001
MMMM
0001
0010
0011
0000
,  // measure 46
1000
MMMM
1000
MMMM
1000
0010
0M10
0001
,  // measure 47
1000
0010
M0M0
0001
0010
0M10
0100
01M0
,  // measure 48
1000
0100
MM00
0001
0100
01M0
0010
0M10
,  // measure 49
1000
0100
00M0
0100
0001
1000
0010
0100
,  // measure 50
0001
0010
0M00
0010
1000
0001
0100
0001
,  // measure 51
1000
0100
00M0
0100
0001
1000
0001
0100
,  // measure 52
0010
0100
0M00
0100
1000
0010
0001
0010
,  // measure 53
1000
0100
00M0
0100
0001
1000
0010
1000
,  // measure 54
0001
0010
0M00
0010
1000
0001
0010
0001
,  // measure 55
1000
0100
00M0
0100
0001
1000
0001
0100
,  // measure 56
0010
0100
0220
0000
0000
0330
0LL0
0000
,  // measure 57
0000
1000
MMMM
1000
,  // measure 58
MMMM
1000
MMMM
0100
,  // measure 59
MMMM
0001
MMMM
0001
,  // measure 60
MMMM
0001
0000
0000
,  // measure 61
1000
0010
0000
M000
000M
000M
0M00
0M00
,  // measure 62
0001
0100
0000
000M
M000
M000
00M0
00M0
,  // measure 63
1000
0010
0000
000M
0M00
0M00
00M0
20M2
,  // measure 64
0000
0000
0000
0000
0000
0000
3003
L00L
;

//---------------dance-single - easy payday, baby \:)----------------
#NOTES:
     dance-single:
     X-Scale 2:
     Beginner:
     1:
     0.093924,0.129439,0.016437,0.000000,0.000000,80.000000,78.000000,2.000000,0.000000,0.000000,0.000000,0.093924,0.129439,0.016437,0.000000,0.000000,80.000000,78.000000,2.000000,0.000000,0.000000,0.000000:
0000
0000
0000
0000
,
0000
0000
0000
0000
,
0000
0000
0000
0000
,
0000
0000
0000
0000
,
0000
0000
0000
0000
,
0001
0000
0000
0000
,
0000
0000
0000
0000
,
1000
0000
0000
0000
,
0000
0000
0000
0000
,
1001
0000
0000
0000
,
0000
0000
0000
0000
,
1000
0000
0100
0000
,
0010
0000
0001
0000
,
0100
0000
0010
0000
,
1000
0000
0001
0000
,
0010
0000
0100
0000
,
1000
0000
0000
0000
,
0001
0000
0000
0000
,
1000
0000
0000
0000
,
0001
0000
0000
0000
,
1000
0000
0000
0000
,
0100
0000
0000
0000
,
0010
0000
0000
0000
,
0100
0000
0000
0000
,
0010
0000
0000
0000
,
0001
0000
0000
0000
,
0100
0000
0000
0000
,
0001
0000
0000
0000
,
0100
0000
0000
0000
,
0010
0000
0000
0000
,
1000
0000
0000
0000
,
0010
0000
0000
0000
,
1000
0000
0000
0000
,
1001
0000
0000
0000
,
0000
0000
0000
0000
,
0001
0000
0010
0000
,
0001
0000
1000
0000
,
0001
0000
0010
0000
,
0001
0000
1000
0000
,
0010
0000
1000
0000
,
0001
0000
0000
0000
,
1000
0000
0100
0000
,
0010
0000
0100
0000
,
1000
0000
0100
0000
,
0010
0000
0100
0000
,
1000
0000
0001
0000
,
0100
0000
0010
0000
,
1000
0000
0000
0000
,
0001
0000
0000
0000
,
1000
0000
0001
0000
,
0100
0000
0001
0000
,
1000
0000
0001
0000
,
0100
0000
0001
0000
,
1000
0000
0100
0000
,
0010
0000
0100
0000
,
1000
0000
0100
0000
,
1000
0000
0000
0000
,
0001
0000
0000
0000
,
0010
0000
0000
0000
,
0100
0000
0000
0000
,
1000
0000
0000
0000
,
0010
0000
0000
0000
,
0100
0000
0000
0000
,
0001
0000
0000
0000
;
