#TITLE:Twitter for Android;
#SUBTITLE:;
#ARTIST:jacksfilms;
#TITLETRANSLIT:;
#SUBTITLETRANSLIT:;
#ARTISTTRANSLIT:;
#GENRE:Piano Pop;
#CREDIT:;
#BANNER:Twitter for Android-bn.png;
#BACKGROUND:Twitter for Android-bg.png;
#LYRICSPATH:;
#CDTITLE:cdtitle.png;
#MUSIC:Twitter for Android.ogg;
#OFFSET:-0.004000;
#SAMPLESTART:42.491001;
#SAMPLELENGTH:22.513000;
#SELECTABLE:YES;
#BPMS:0.000000=96.000000
;
#STOPS:
;
#BGCHANGES:
;
#KEYSOUNDS:;
#ATTACKS:;

//---------------dance-single - ----------------
#NOTES:
     dance-single:
     X-Scale 12:
     Hard:
     8:
     0.502909,0.629478,0.248650,0.170129,0.307541,538.000000,500.000000,38.000000,26.000000,34.000000,0.000000,0.502909,0.629478,0.248650,0.170129,0.307541,538.000000,500.000000,38.000000,26.000000,34.000000,0.000000:
// measure 0
0000
0000
0000
0000
,  // measure 1
0000
0000
0000
0000
,  // measure 2
0000
0000
0000
0000
,  // measure 3
0000
0000
0000
0000
,  // measure 4
1100
0000
0002
0000
0103
0100
0001
0100
,  // measure 5
0000
0000
1010
1000
0001
0001
0100
0001
,  // measure 6
0000
0000
0110
0010
1000
1000
1000
0001
,  // measure 7
0000
0001
0100
0001
1000
0000
0100
0010
0000
0100
1000
0100
1000
0000
0001
1000
,  // measure 8
0002
0000
0000
0000
0013
0100
0010
0100
0010
0001
0010
0001
0010
0100
0010
0100
,  // measure 9
0110
0000
0000
0010
0001
0000
1000
0001
0000
0000
0100
0000
0100
0000
0010
0000
,  // measure 10
0000
0000
1000
0000
0001
0000
1000
0100
M010
000M
0010
0000
0100
0000
0010
0000
,  // measure 11
0000
0000
0001
0000
1000
0000
0100
0000
1000
0000
0010
0000
0100
0000
0001
0100
0000
0000
0100
0000
0000
0001
0000
0000
,  // measure 12
0010
0000
0100
0000
0010
0000
0001
0000
0100
0000
0010
0000
1000
0000
0000
1000
0000
0000
0100
0000
0000
01M0
0000
0000
,  // measure 13
0001
0100
0010
0100
0001
1000
0100
1000
,  // measure 14
0001
0010
1000
0010
0001
1000
0100
0010
,  // measure 15
0101
0101
1000
0100
0001
0100
0010
0001
,  // measure 16
0011
0000
0011
0000
0001
0010
0100
1000
0001
0010
0100
1000
0001
0010
0100
1000
,  // measure 17
1100
1100
0001
1000
1001
1001
0001
0020
,  // measure 18
0030
0200
0310
0100
0110
0110
0001
1000
,  // measure 19
0100
0010
0001
0100
0010
1000
0001
0010
,  // measure 20
1000
0010
0001
1000
0100
0001
0100
1000
,  // measure 21
1100
1100
0001
0100
0101
0101
0001
2000
,  // measure 22
3000
0020
1030
0001
1001
1001
1000
0100
,  // measure 23
0010
0001
0100
0010
1000
0001
0100
0001
,  // measure 24
MM1M
0000
0010
0000
1MMM
0000
0100
0010
M1MM
0000
1000
0000
0001
0000
0100
0000
,  // measure 25
0010
0001
0010
1000
0010
0100
0010
1000
,  // measure 26
1010
0000
1010
1000
0001
0000
0010
0001
0000
1000
0010
0001
0010
1000
0010
0100
,  // measure 27
0010
0100
0010
0200
0300
0100
0010
0200
,  // measure 28
0300
0100
0010
1000
0001
0100
1000
0001
,  // measure 29
0010
1000
0100
0020
0030
0100
0010
0002
,  // measure 30
0003
1000
0001
0100
0010
1000
0001
1000
,  // measure 31
0100
0010
0100
0010
0001
0010
0001
0100
,  // measure 32
0010
0000
0100
0000
0010
0000
0100
0000
0001
0000
0100
0000
0001
0000
1000
0100
,  // measure 33
1000
0000
1000
0000
1100
0000
0100
0000
0010
0000
0100
0000
1000
0100
0010
0000
,  // measure 34
0100
0200
1000
1000
1300
2000
0001
0001
,  // measure 35
3001
0000
0002
0000
0010
0000
0010
0000
0013
0001
0010
0001
0010
0100
0010
0100
,  // measure 36
1000
0010
0100
0010
1000
0100
0010
0001
0000
0010
0001
0000
1000
0010
0000
0000
,  // measure 37
1000
0000
0100
0000
0001
0000
0010
0000
1000
0010
1000
0000
0010
0100
0000
0000
,  // measure 38
0110
0000
0001
0010
0100
0010
0001
1000
0010
0100
0010
1000
0001
0100
0010
1000
,  // measure 39
0001
0010
0000
0100
0010
0001
1000
0001
0100
0010
0100
0001
0100
1000
0100
0010
,  // measure 40
0200
0000
0000
0000
0001
0000
0010
0000
0301
0000
0002
0000
0003
2000
0000
3000
,  // measure 41
0200
0000
0300
0020
0000
0030
0002
0000
0003
0000
1000
0000
2000
0000
0010
0000
,  // measure 42
3010
0000
0100
0010
0001
0010
0100
0010
0000
1000
0001
0010
0100
0010
0001
1000
,  // measure 43
0000
0100
0010
0001
1000
0001
0010
0100
1000
0001
1000
0010
0100
0001
0100
0010
,  // measure 44
1000
0100
0010
0001
1000
0010
0100
0001
,  // measure 45
1000
0100
0010
0001
1000
0010
0100
0001
,  // measure 46
1000
0100
0010
0001
1000
0001
0100
0010
,  // measure 47
0001
0010
0100
0010
2000
3000
0002
0003
,  // measure 48
0000
0000
0000
1000
0100
0000
1000
0100
0000
1000
0100
0001
0100
0010
0001
1000
,  // measure 49
1001
1001
M11M
0100
1100
1100
1000
0002
,  // measure 50
0003
0020
0130
1000
1010
1010
0001
0010
,  // measure 51
0100
1000
0010
0001
0010
0100
0010
1000
,  // measure 52
0100
0001
0100
1000
0010
0100
0010
1000
,  // measure 53
1010
1010
M1M1
0001
1001
1001
0010
2000
,  // measure 54
3000
0002
1003
0100
0001
0100
1000
0001
,  // measure 55
0100
0000
0000
0010
0000
0100
0001
0000
0000
0100
0000
0000
1000
0000
0000
0100
0000
0000
0001
0000
0000
0010
0000
0000
,  // measure 56
MM1M
0000
1000
0000
MM1M
0000
0100
0001
1MMM
0000
0100
0000
0001
0000
0100
0000
,  // measure 57
1000
0000
0000
0001
0000
0100
0010
0000
0000
0100
0000
0000
1000
0000
0000
0100
0000
0000
0001
0000
0000
1000
0000
0000
,  // measure 58
MM1M
0000
0010
0000
MMM1
0000
0100
0010
1MMM
0000
0100
0000
1000
0000
0001
0000
,  // measure 59
0010
1000
0010
0001
0010
0100
1000
0001
,  // measure 60
1001
1001
0000
0000
0000
0000
0000
0000
;

//---------------dance-single - ----------------
#NOTES:
     dance-single:
     X-Scale 9:
     Medium:
     6:
     0.401019,0.432766,0.170129,0.130869,0.071978,429.000000,403.000000,26.000000,20.000000,0.000000,0.000000,0.401019,0.432766,0.170129,0.130869,0.071978,429.000000,403.000000,26.000000,20.000000,0.000000,0.000000:
// measure 0
0000
0000
0000
0000
,  // measure 1
0000
0000
0000
0000
,  // measure 2
0000
0000
0000
0000
,  // measure 3
0000
0000
0000
0000
,  // measure 4
1100
0000
0002
0000
0013
0100
0010
0100
,  // measure 5
0000
0000
1000
0000
0001
1000
0001
1000
,  // measure 6
0000
0000
0100
0000
0010
0100
0010
0100
,  // measure 7
0000
0000
1000
0000
0001
0000
0010
0100
0000
0010
0100
0000
1000
0000
0001
0000
,  // measure 8
1000
0000
0001
0100
0010
0100
0001
0100
,  // measure 9
0110
0000
1000
0001
0010
0100
1000
0001
,  // measure 10
0000
1000
0100
0001
0100
0010
0001
1000
,  // measure 11
0000
0000
0100
1000
0001
0100
0010
0100
,  // measure 12
0000
0000
0001
0010
0100
0010
0001
1000
,  // measure 13
0001
0100
0010
1000
0001
0100
0010
1000
,  // measure 14
0001
0010
0100
1000
0001
0010
0100
1000
,  // measure 15
0001
0000
1000
0000
0010
0000
1000
0000
0000
0100
0000
1000
0000
0002
0000
0000
0000
0000
0100
0000
0000
0103
0000
0000
,  // measure 16
0001
0000
0010
0000
0100
0000
1000
0000
0000
1000
0000
0010
0000
0200
0000
0000
0000
0000
0000
0000
0000
0000
0000
0000
,  // measure 17
0310
0100
0001
0000
0001
0100
0010
0200
,  // measure 18
0000
0302
1000
0003
0001
0100
0010
2000
,  // measure 19
0000
3001
0010
1000
0010
0100
0010
0001
,  // measure 20
0010
0100
0010
1000
0010
0100
0010
0001
,  // measure 21
1000
0010
1000
0000
0001
0010
0100
2000
,  // measure 22
0000
3002
0100
0003
0001
0010
0100
2000
,  // measure 23
0000
3010
0100
1000
0100
0001
0100
0010
,  // measure 24
0110
0000
1001
0000
0110
0000
0010
0001
,  // measure 25
1000
0001
0100
1000
0100
0001
0010
0100
,  // measure 26
0110
0000
0110
0000
1000
0000
0000
0001
0000
0000
1000
0000
0100
0000
0010
0000
,  // measure 27
0000
0100
0010
0001
0000
1000
0100
0010
,  // measure 28
0000
0100
0010
0001
1000
0010
0100
0001
,  // measure 29
0000
1000
0010
0100
0000
0010
0100
0001
,  // measure 30
0000
1000
0010
0100
0001
0010
0100
1000
,  // measure 31
0001
0100
0001
1000
0001
0100
0001
0010
,  // measure 32
0100
0000
0010
0000
0001
0000
0010
0000
0100
0000
0010
0000
0001
0000
1000
0001
,  // measure 33
1000
0000
0200
0000
0300
1000
0001
0100
0000
0000
0010
0000
0100
0010
0100
0000
,  // measure 34
0001
0020
0001
0000
0100
0230
0010
0000
,  // measure 35
1000
2300
0001
0000
0010
3000
0002
0003
,  // measure 36
1001
1000
0100
1000
0001
1000
0100
1000
,  // measure 37
0001
0010
0100
0010
0001
0010
0100
0010
,  // measure 38
0001
1000
0010
0100
0010
1000
0010
0100
,  // measure 39
0010
0001
0010
0100
0010
0001
0010
0100
,  // measure 40
0001
0000
1100
0100
0100
0100
1010
0100
,  // measure 41
0000
0000
0101
0001
0001
0001
1001
1000
,  // measure 42
1000
0000
0110
0010
0010
0010
0101
0001
,  // measure 43
0000
0000
1001
1000
1000
1000
1010
0010
,  // measure 44
0100
0001
0100
0001
0100
0010
0100
0010
,  // measure 45
0100
1000
0100
1000
0100
0001
0100
0001
,  // measure 46
0010
0100
0010
0100
1000
0100
1000
0100
,  // measure 47
0001
0100
0001
0100
2000
3000
0002
0003
,  // measure 48
0000
0000
0000
0000
1100
0000
0000
1001
0000
0001
0010
0001
0010
0100
1000
0100
,  // measure 49
1000
0001
1001
0000
1000
0100
0010
0002
,  // measure 50
0003
2000
3010
1000
0001
0010
0100
1000
,  // measure 51
0000
0001
0010
1000
0010
0001
0010
1000
,  // measure 52
0010
0100
0010
0001
0010
0100
1000
0001
,  // measure 53
1000
0010
0101
0000
1000
0001
0100
0020
,  // measure 54
0030
2000
3001
1000
0100
0001
0100
1000
,  // measure 55
0000
0001
0100
0010
0100
1000
0100
0001
,  // measure 56
0101
0000
0010
0000
0101
0000
0001
1000
1001
0000
0001
0000
0100
0000
0010
0000
,  // measure 57
1000
0100
0001
0100
1000
0010
0100
0010
,  // measure 58
1010
0000
0100
0000
1010
0000
1000
0001
1001
0000
0010
0000
0001
0000
1000
0000
,  // measure 59
0100
0001
0100
1000
0010
0100
0001
0010
,  // measure 60
0100
0100
0000
0000
0000
0000
0000
0000
;

//---------------dance-single - ----------------
#NOTES:
     dance-single:
     X-Scale 6:
     Easy:
     4:
     0.315020,0.372976,0.117782,0.111238,0.000000,337.000000,319.000000,18.000000,17.000000,0.000000,0.000000,0.315020,0.372976,0.117782,0.111238,0.000000,337.000000,319.000000,18.000000,17.000000,0.000000,0.000000:
// measure 0
0000
0000
0000
0000
,  // measure 1
0000
0000
0000
0000
,  // measure 2
0000
0000
0000
0000
,  // measure 3
0000
0000
0000
0000
,  // measure 4
0011
0000
1000
0000
0010
0000
0100
0010
,  // measure 5
0000
0000
1000
0000
0001
0000
0010
0001
,  // measure 6
0000
0000
0100
0000
0010
0000
1000
0020
,  // measure 7
0000
0001
0000
1030
,  // measure 8
0001
0000
1000
0100
0010
0001
0100
0010
,  // measure 9
1000
0000
0001
0100
0001
1000
1000
0010
,  // measure 10
0000
0100
0010
1000
0001
0001
0010
0100
,  // measure 11
0000
1000
0001
0100
0010
1000
1000
0100
,  // measure 12
0000
0010
0001
1000
0001
0001
0010
0100
,  // measure 13
1000
0001
1000
0001
0010
0100
0010
0100
,  // measure 14
1000
0010
1000
0010
0100
0001
0100
0001
,  // measure 15
1000
1000
0001
0000
1000
0000
0001
0000
,  // measure 16
0010
0010
0100
0000
0100
1000
0100
1000
,  // measure 17
1100
0000
0001
1000
0001
0000
0010
0200
,  // measure 18
0000
2300
0001
3000
1000
0000
0100
0020
,  // measure 19
0000
0031
0010
0001
0010
0100
0010
0100
,  // measure 20
0010
0001
1000
0001
1000
0100
0010
0100
,  // measure 21
0010
0000
0001
0000
1000
0010
1000
0002
,  // measure 22
0000
0203
0010
0300
0100
0010
0100
0002
,  // measure 23
0000
1003
0100
1000
0100
0010
0100
0010
,  // measure 24
0100
1000
0100
1000
0001
0100
0001
0100
,  // measure 25
0010
0100
0010
1000
0010
1000
0100
0010
,  // measure 26
0001
0000
1001
0000
0000
1001
0000
0000
,  // measure 27
1100
0000
1000
0100
1000
0000
1000
0100
,  // measure 28
1000
0001
0010
0100
,  // measure 29
1000
0000
0100
0010
0100
0000
0100
0010
,  // measure 30
0100
0000
0100
0010
0100
0000
1000
0000
,  // measure 31
0001
0000
0010
0100
0010
0000
0001
0100
,  // measure 32
0001
0000
0010
0100
0010
0000
0001
0100
,  // measure 33
0001
0001
1000
0000
0100
0000
1000
0000
,  // measure 34
0100
0020
0000
0000
0000
0032
0000
0000
,  // measure 35
0000
2003
0000
0000
0000
0000
3010
0000
,  // measure 36
1010
1000
0001
1000
,  // measure 37
0010
0100
0010
1000
0000
1000
0001
0000
,  // measure 38
0010
0100
0010
0100
,  // measure 39
1000
0000
0001
0000
1000
0001
1000
0001
,  // measure 40
2000
0000
0100
0000
3010
1000
0001
0000
,  // measure 41
0010
0000
0100
0010
0001
1000
0100
1000
,  // measure 42
0100
0000
0010
0100
1000
0000
0001
1000
,  // measure 43
0010
0000
0100
0010
1000
0000
0100
0010
,  // measure 44
0001
1000
0001
1000
,  // measure 45
0100
0010
0100
0010
,  // measure 46
0001
0100
0001
0100
,  // measure 47
0010
1000
0010
1000
,  // measure 48
0000
0001
0000
0000
,  // measure 49
1001
0000
1000
0100
1000
0001
0010
0200
,  // measure 50
0000
2300
0001
3000
1000
0100
0010
0002
,  // measure 51
0000
1003
0100
1000
0100
0010
0100
0010
,  // measure 52
0001
0100
0001
0100
0001
1000
0001
1000
,  // measure 53
1001
0000
0001
1000
0010
0100
0010
2000
,  // measure 54
0000
3002
0100
0003
0001
0010
0100
2000
,  // measure 55
0000
3010
0100
0010
0100
0001
0100
0001
,  // measure 56
0101
0110
1010
0110
,  // measure 57
0101
0100
0010
0100
0010
1000
0001
1000
,  // measure 58
1001
0110
1001
0110
,  // measure 59
1001
1000
0100
0010
0001
1000
0010
0100
,  // measure 60
0001
0000
0000
0000
;
