#TITLE:Twinkle;
#SUBTITLE:;
#ARTIST:Aiobahn;
#TITLETRANSLIT:;
#SUBTITLETRANSLIT:;
#ARTISTTRANSLIT:;
#GENRE:Future House;
#CREDIT:;
#BANNER:Twinkle-bn.png;
#BACKGROUND:Twinkle-bg.png;
#LYRICSPATH:;
#CDTITLE:cdtitle.png;
#MUSIC:Twinkle.ogg;
#OFFSET:-0.003000;
#SAMPLESTART:16.618000;
#SAMPLELENGTH:14.769000;
#SELECTABLE:YES;
#BPMS:0.000000=130.000000
;
#STOPS:
;
#BGCHANGES:;
#KEYSOUNDS:;
#ATTACKS:;

//---------------dance-single - ----------------
#NOTES:
     dance-single:
     X-Scale 13:
     Hard:
     9:
     0.662708,0.599156,0.300580,0.080155,0.475919,463.000000,433.000000,30.000000,8.000000,12.000000,0.000000,0.662708,0.599156,0.300580,0.080155,0.475919,463.000000,433.000000,30.000000,8.000000,12.000000,0.000000:
0000
0000
0000
0000
,
1100
0000
0000
0000
1000
0000
0001
1000
0010
0000
0000
0000
1000
0000
0001
0100
,
0010
0000
0000
0000
1000
0000
0100
0000
0010
0000
0001
0100
0000
0010
0100
0010
,
1000
0000
0000
0000
1000
0000
0001
1000
0010
0000
0000
0000
1000
0000
0001
0100
,
0010
0000
1000
0100
1000
0000
0001
0000
,
1001
1000
1100
0000
0101
0001
0011
0000
,
0110
0100
1010
0000
1001
0001
0011
0000
,
1000
0000
0001
0000
1000
0000
0001
0000
1000
0001
1000
0001
1000
0001
1000
0001
,
4000
0004
0000
0000
0000
0000
0000
0000
3003
0000
1000
0000
1100
0000
0100
0000
,
1010
0000
0000
0000
1000
0000
0001
0100
0001
0000
0000
0000
1000
0000
0001
0010
,
0001
0000
0100
0000
0010
0000
0100
0001
0000
1000
0000
0001
0010
0000
0100
0000
,
1100
0000
0000
0000
1000
0000
0001
0100
0001
0000
0000
0000
1000
0000
0001
0010
,
0001
0000
1000
0000
1000
0000
0010
0100
0000
0010
0000
1000
0001
0000
0010
0000
,
MMMM
0000
0010
0000
0110
0000
0100
0010
1000
0000
0000
0000
0001
0000
0100
0010
,
1000
0000
0100
0000
0100
0000
0010
0001
0000
1000
0000
0001
0100
0000
0010
0000
,
0110
0000
0000
0000
1000
0000
0001
0100
0010
0000
0100
0001
1000
0000
0001
0100
,
0010
0000
1000
0001
0010
0000
0100
1000
0000
0001
0000
0000
0100
0000
0010
0000
,
0210
0000
0000
0000
0000
0000
0000
0000
0000
0000
0000
0000
0000
0000
0000
0310
0100
0010
0100
0000
0000
0001
0000
0000
,
0101
0100
0001
0100
0010
0100
0001
0010
,
0100
0010
0001
1000
0001
0010
0100
1000
,
0001
0100
1000
0100
0001
0100
0010
0100
,
0001
1000
0001
0100
0001
1000
0100
0001
,
0100
0000
1000
0000
0001
0000
0010
0100
0010
0000
0001
0000
1000
0000
0010
0100
,
0010
1000
0001
0010
1000
0001
0100
1000
,
0001
0000
1000
0000
0100
0000
0010
0100
0010
0000
0001
0000
1000
0000
0010
0100
,
0010
0001
0010
0100
0010
1000
0001
0000
,
1001
0000
0000
0000
1000
0000
0010
1000
0001
0000
0000
0000
1000
0000
0100
1000
,
0001
0010
1000
0001
0100
1000
0001
0100
,
0010
0000
0100
0000
0001
0000
1000
0001
0100
0000
0000
0000
0001
0000
1000
0001
,
0010
0100
0010
0001
1000
0010
0001
0010
,
1000
0001
1001
0000
0001
0010
0011
0000
,
0100
0010
0110
0000
0001
0100
1001
0000
,
1000
0000
0001
0000
1000
0000
0001
0000
0010
0100
0010
0100
0010
0100
0010
0100
,
0040
0004
0000
0000
0000
0000
0000
0000
0033
0000
1000
0000
1001
0000
0001
0000
,
0022
0000
0033
0000
0010
0000
0100
0010
0001
0000
0000
0000
0010
0000
0100
0010
,
0001
0000
1000
0000
0001
0000
0010
0100
0000
0010
0000
0100
1000
0000
0001
0000
,
2002
0000
3003
0000
1000
0000
0010
0100
0001
0000
0000
0000
1000
0000
0010
1000
,
0001
0000
0010
0100
0010
0000
0001
1000
0000
0100
0010
0000
0001
0000
0100
0000
,
MMMM
0000
0100
0000
1010
0000
1000
0001
1000
0000
0000
0000
0010
0000
0100
0010
,
1000
0000
0100
0000
0010
0000
0001
1000
0000
0010
0100
0000
0001
0000
1000
0000
,
2002
0000
3003
0000
0100
0000
0001
0010
0100
0000
0010
0001
1000
0000
0001
0010
,
0100
0000
1000
0010
0100
0000
0010
0100
0000
0001
0000
1000
0001
0000
0010
0000
,
0100
0010
0000
0010
0001
0000
1000
0001
0100
0000
0010
0000
0100
0000
0001
0010
,
0100
0000
1000
0000
0001
0000
0100
0010
0000
1000
0001
0000
0010
0000
0100
0000
,
0110
0000
0001
0000
1000
0000
0100
1000
0001
0000
0100
0000
0010
0000
0100
0001
,
1000
0000
0100
1000
0001
0000
0010
0100
0000
0010
0001
0000
1000
0000
0010
0000
,
MMMM
0000
0010
0000
0101
0000
0001
1000
0100
0000
0010
0000
0100
0000
1000
0001
,
0100
0000
0010
0000
0010
0000
0100
0010
0000
1000
0001
0000
0010
0000
1000
0000
,
0010
0000
0001
0000
0100
0000
0010
0100
0001
0000
0010
0000
0100
0000
1000
0001
,
0100
0000
0010
0100
0010
0000
1000
0001
0000
0010
0000
0000
1000
0000
0010
0000
,
0011
0000
0001
0000
0010
0000
1000
0000
0010
0000
0001
0000
0010
0000
0100
1000
,
0100
0000
0000
0000
0000
0000
1000
0000
0000
0001
0000
0000
0000
0000
0000
0000
0000
0000
0100
0000
0000
0001
0000
0000
1000
0000
0000
0000
0010
0000
0000
0000
0100
0000
0000
0000
0001
0000
0000
0200
0000
0000
0000
0000
0000
0300
0000
0000
,
0101
0000
0000
0000
;

//---------------dance-single - ----------------
#NOTES:
     dance-single:
     X-Scale 11:
     Medium:
     7:
     0.543907,0.547056,0.120232,0.090174,0.255493,380.000000,368.000000,12.000000,9.000000,0.000000,0.000000,0.543907,0.547056,0.120232,0.090174,0.255493,380.000000,368.000000,12.000000,9.000000,0.000000,0.000000:
0000
0000
0000
0000
,
0101
0000
0100
0010
0100
0000
0010
0100
,
0010
1000
0001
1000
,
0001
0000
0100
0010
0100
0000
0010
0100
,
0010
1000
0001
1000
,
1001
1000
0001
1000
0001
0010
0100
0010
,
0100
1000
0010
1000
0010
0100
0001
0100
,
0001
0000
0001
0000
0010
0000
0010
0000
0100
1000
0100
1000
0100
1000
0100
1000
,
0200
0000
0000
0000
0300
1000
1100
0000
,
0101
0000
1000
0100
0010
0000
0100
0010
,
0001
0000
0100
0000
0100
0000
0000
0010
0000
0010
0000
0000
1000
0000
0001
0000
,
1001
0000
0001
0100
0010
0000
0100
0010
,
1000
0000
0001
0000
1000
0000
0001
0100
0000
0100
0000
0000
0010
0000
0100
0000
,
0020
0030
0200
0301
0201
0300
0001
0100
,
0001
0000
1000
0000
1000
0000
0000
0100
0000
0100
0000
0000
0010
0000
0100
0000
,
1100
0000
0001
1000
0100
0000
0010
0100
,
1000
0000
0001
0000
1000
0000
0001
0010
0000
0010
0000
0000
0100
0000
0010
0000
,
0001
0000
0000
0000
0000
0000
1000
0001
,
1001
0000
1000
0100
0010
0100
1000
0100
,
0010
0100
1000
0001
0100
0010
0100
0001
,
1000
0000
0001
0010
0100
0010
0001
0010
,
0100
1000
0001
1000
0100
1000
0001
1000
,
0100
0000
0010
0100
1000
0100
0010
0100
,
1000
0001
0100
0001
1000
0001
0100
0001
,
1000
0000
0100
0010
0001
0010
0100
0010
,
0001
0000
1000
0000
0000
1000
0020
0000
,
0130
0000
0010
0100
0010
0000
0100
0010
,
0100
0001
1000
0001
,
1000
0000
0010
0100
0010
0000
0100
0010
,
0100
0000
0001
0000
1000
0001
0001
0000
,
1001
1000
0100
0001
0100
0010
0001
0010
,
1000
0010
0100
1000
0001
1000
0100
0010
,
0001
0000
0100
0000
0001
0000
0100
0000
0010
1000
0010
1000
0010
1000
0010
1000
,
0002
0000
0000
0000
2003
0010
0010
0010
,
3010
0000
0000
0000
1000
0000
0010
1000
0010
0000
0000
0000
1000
0000
0010
1000
,
0010
0000
0100
0000
0100
0000
0000
0001
0000
0001
0000
0000
1000
0000
0100
0000
,
0010
0000
0000
0000
0001
0000
0010
0001
0010
0000
0000
0000
0001
0000
0010
0001
,
0010
0000
0100
0000
1000
0000
0100
0010
0000
0010
0000
0000
0001
0000
1000
0000
,
0100
0000
0100
0000
0110
0000
0010
0001
0010
0000
0000
0000
0100
0000
0010
0001
,
0010
0000
0100
0000
0100
0000
0000
1000
0000
1000
0000
0000
0001
0000
0010
0000
,
0100
0000
0000
0000
1000
0000
0010
1000
0010
0000
0000
0000
1000
0000
0010
1000
,
0010
0000
0100
0000
0001
0000
0100
0010
0000
0010
0000
0000
1000
0000
0001
0000
,
0010
0100
0000
0000
0110
0000
0010
0000
0001
0000
1000
0000
0001
0000
0010
0000
,
0100
0000
0010
0000
0001
0000
1000
0010
0000
0010
0000
0000
0100
0000
0010
0000
,
1000
0001
0010
1000
0010
0001
0100
0010
,
0100
0000
0010
0100
0010
0000
1000
0001
0000
0001
0000
0000
0010
0000
0100
0000
,
1000
0000
1000
0000
1001
0000
0001
1000
0001
0000
0000
0000
1000
0000
0001
1000
,
0001
0000
0010
0000
0100
0000
0010
0001
0000
0001
0000
0000
1000
0000
0010
0000
,
0100
0000
0001
0000
0100
0000
0010
0100
0010
0000
0100
0000
0010
0100
0010
0000
,
1000
0000
0001
0010
0001
0000
1000
0010
0000
0010
0000
0000
0100
0000
0010
0000
,
1000
0100
0001
0100
0010
0001
1000
0001
,
0100
0000
0000
0000
0000
0000
0010
0000
0000
2000
0000
0000
0000
0000
0000
0000
0000
0000
3001
0000
0000
0000
0000
0000
1000
0000
0000
0000
0100
0000
0000
0000
0010
0000
0000
0000
0001
0000
0000
0020
0000
0000
0000
0000
0000
0000
0000
0000
,
0130
0000
0000
0000
;

//---------------dance-single - ----------------
#NOTES:
     dance-single:
     X-Scale 6:
     Easy:
     4:
     0.340657,0.416804,0.050097,0.260503,0.000000,238.000000,233.000000,5.000000,26.000000,0.000000,0.000000,0.340657,0.416804,0.050097,0.260503,0.000000,238.000000,233.000000,5.000000,26.000000,0.000000,0.000000:
// measure 0
0000
0000
0000
0000
,  // measure 1
1001
1000
0001
1000
,  // measure 2
0001
0100
0020
0000
,  // measure 3
2030
0001
3010
1000
,  // measure 4
0010
1000
0002
0000
,  // measure 5
0013
0100
0010
0000
0100
0010
0100
0000
,  // measure 6
1000
0100
1000
0000
0100
1000
0100
0010
,  // measure 7
0001
1000
0001
1000
0001
1000
0001
1000
,  // measure 8
0200
0000
0300
0100
,  // measure 9
1001
0010
0001
1000
,  // measure 10
0001
0010
0100
0010
,  // measure 11
0001
1000
0001
0100
,  // measure 12
0010
0100
0001
1000
,  // measure 13
0100
0010
0100
0000
0100
0000
1000
0000
,  // measure 14
0001
0010
0100
0010
,  // measure 15
0001
1000
0001
0100
,  // measure 16
0010
0000
0100
0000
0001
0000
0010
0100
,  // measure 17
1000
0000
0000
0000
,  // measure 18
1200
0000
0310
0100
2000
0000
3001
1000
,  // measure 19
0020
0100
0230
0001
,  // measure 20
0302
0000
0013
0001
2000
0000
3010
1000
,  // measure 21
0002
0010
0023
0100
,  // measure 22
0230
0000
1300
0100
0020
0000
0130
0010
,  // measure 23
0002
1000
2003
0100
,  // measure 24
3200
0000
0310
0100
2000
0000
3001
1000
,  // measure 25
0020
0000
0130
0000
0010
1000
1000
0000
,  // measure 26
1010
1000
0001
1000
,  // measure 27
0010
0100
0002
0000
,  // measure 28
2003
0100
3100
1000
,  // measure 29
0001
0100
0020
0000
,  // measure 30
1030
0010
1000
0000
0010
1000
0010
0000
,  // measure 31
0100
0010
0100
0000
0010
0100
0010
1000
,  // measure 32
0001
0010
0001
0010
0001
0010
0001
0010
,  // measure 33
0200
0000
2300
0000
,  // measure 34
3002
0100
1000
0100
,  // measure 35
1003
0001
1000
0000
0100
0000
0010
0100
,  // measure 36
0010
0001
1000
0001
,  // measure 37
0010
0100
0010
0001
,  // measure 38
1000
0010
1000
0000
1000
0000
0100
0000
,  // measure 39
0010
0100
0010
0000
0001
0000
1000
0001
,  // measure 40
1000
0010
1000
0001
,  // measure 41
1000
0000
0010
0000
0100
0000
0001
0010
,  // measure 42
0100
1010
1000
0100
,  // measure 43
1000
0001
0100
0000
0010
0000
0100
0010
,  // measure 44
1000
0001
1000
0010
,  // measure 45
1000
0000
0100
0000
0010
0000
0100
0010
,  // measure 46
0001
1000
0010
0000
0010
0000
0100
0000
,  // measure 47
0010
1000
0001
0000
0010
0000
0001
1000
,  // measure 48
0100
0010
0100
1000
,  // measure 49
0001
0000
0100
0000
0010
0000
1000
0001
,  // measure 50
0020
0100
0000
0001
,  // measure 51
0000
0100
0000
0001
,  // measure 52
0031
0000
0000
0000
;

//---------------dance-single - ----------------
#NOTES:
     dance-single:
     X-Scale 2:
     Beginner:
     2:
     0.156015,0.155550,0.000000,0.000000,0.000000,109.000000,109.000000,0.000000,0.000000,0.000000,0.000000,0.156015,0.155550,0.000000,0.000000,0.000000,109.000000,109.000000,0.000000,0.000000,0.000000,0.000000:
// measure 0
0000
0000
0000
0000
,  // measure 1
0001
0000
0010
0000
,  // measure 2
0100
0000
1000
0000
,  // measure 3
0001
0000
0010
0000
,  // measure 4
0100
0000
1000
0000
,  // measure 5
0001
0000
0100
0000
,  // measure 6
0010
0000
1000
0000
,  // measure 7
0001
0000
0100
0000
,  // measure 8
0010
0000
1000
0000
,  // measure 9
0001
0000
1000
0000
,  // measure 10
0001
0000
0010
0000
,  // measure 11
0100
0000
1000
0000
,  // measure 12
0100
0000
0010
0000
,  // measure 13
0001
0100
0001
0000
,  // measure 14
0010
0000
0100
0000
,  // measure 15
1000
0000
0001
0000
,  // measure 16
1000
0000
0010
0000
,  // measure 17
0100
0000
0000
0000
,  // measure 18
0001
0000
0010
0000
,  // measure 19
0100
0000
1000
0001
,  // measure 20
1000
0000
0010
0000
,  // measure 21
0100
0000
0001
1000
,  // measure 22
0001
0000
0100
0000
,  // measure 23
0010
0000
1000
0001
,  // measure 24
1000
0000
0010
0000
,  // measure 25
1000
0001
0000
0001
,  // measure 26
0010
0000
0100
0000
,  // measure 27
1000
0000
0001
0000
,  // measure 28
1000
0000
0100
0000
,  // measure 29
0010
0000
0001
0000
,  // measure 30
1000
0000
0010
0000
,  // measure 31
0100
0000
0001
0000
,  // measure 32
1000
0000
0010
0000
,  // measure 33
0100
0000
0001
0000
,  // measure 34
1000
0000
0001
0000
,  // measure 35
1000
0000
0010
0000
,  // measure 36
0100
0000
0001
0000
,  // measure 37
0100
0000
0010
0000
,  // measure 38
1000
0001
1000
0000
,  // measure 39
0100
0000
0010
0000
,  // measure 40
0001
0000
1000
0000
,  // measure 41
0001
0000
0010
0000
,  // measure 42
0100
1000
0100
0000
,  // measure 43
1000
0000
0001
0000
,  // measure 44
1000
0000
0100
0000
,  // measure 45
0010
0000
0001
0000
,  // measure 46
1000
0010
1000
0000
,  // measure 47
0001
0000
0010
0000
,  // measure 48
0001
0000
0100
0000
,  // measure 49
0010
0000
1000
0000
,  // measure 50
0000
0001
0000
0001
,  // measure 51
0000
1000
0000
1000
;
