#VERSION:0.83;
#TITLE:Twinheart;
#SUBTITLE:;
#ARTIST:Edward Maya;
#TITLETRANSLIT:;
#SUBTITLETRANSLIT:;
#ARTISTTRANSLIT:;
#GENRE:Progressive House;
#ORIGIN:;
#CREDIT:;
#BANNER:Twinheart-bn.png;
#BACKGROUND:Twinheart-bg.png;
#PREVIEWVID:;
#JACKET:Twinheart-jacket.png;
#CDIMAGE:;
#DISCIMAGE:;
#LYRICSPATH:;
#CDTITLE:cdtitle.png;
#MUSIC:twinheart.ogg;
#OFFSET:-0.355000;
#SAMPLESTART:65.042999;
#SAMPLELENGTH:15.000000;
#SELECTABLE:YES;
#BPMS:0.000=64.000,
19.000=128.000,
115.000=64.000,
117.000=128.000;
#STOPS:;
#DELAYS:;
#WARPS:;
#TIMESIGNATURES:0.000=4=4;
#TICKCOUNTS:0.000=4;
#COMBOS:0.000=1;
#SPEEDS:0.000=1.000=0.000=0;
#SCROLLS:0.000=1.000;
#FAKES:;
#LABELS:0.000=Song Start;
#BGCHANGES:;
#KEYSOUNDS:;
#ATTACKS:
;

//---------------dance-single - ----------------
#NOTEDATA:;
#CHARTNAME:X-Scale 11;
#STEPSTYPE:dance-single;
#DESCRIPTION:;
#CHARTSTYLE:;
#DIFFICULTY:Hard;
#METER:7;
#RADARVALUES:0.475048,0.489149,0.030885,0.391216,0.792727,323.000000,320.000000,3.000000,38.000000,0.000000,0.000000,0.000000,0.000000,0.000000,0.475048,0.489149,0.030885,0.391216,0.792727,323.000000,320.000000,3.000000,38.000000,0.000000,0.000000,0.000000,0.000000,0.000000;
#CREDIT:;
#NOTES:
// measure 0
0000
0000
0000
0000
,  // measure 1
0000
0000
0000
0000
,  // measure 2
0000
0000
0000
0000
0000
0000
0000
0000
0001
0000
0000
0010
0000
0000
1000
0000
0000
0000
1000
0000
0000
0010
0000
0000
0001
0000
0000
1000
0000
0000
0100
0000
,  // measure 3
0000
0000
0010
0000
0000
0001
0000
0000
1000
0000
0000
0010
0000
0000
0100
0000
0000
0000
0001
0000
0000
0100
0000
0000
1000
0000
0000
0100
0000
0000
0001
0000
,  // measure 4
0000
0000
0010
0000
0000
0001
0000
0000
2000
0000
0000
0000
0000
0000
0000
0000
0000
0000
0000
0000
0000
0000
3001
0000
1001
0000
0000
0000
0000
0000
1000
0000
,  // measure 5
0000
0100
0000
1000
0000
0000
0000
0001
0100
0000
0100
0000
0010
0000
0000
1000
,  // measure 6
0000
0001
0000
0100
0000
0010
0000
0010
0001
0000
1000
0000
0001
0000
0000
0010
,  // measure 7
0000
0100
0000
1000
0000
0000
0000
0001
0100
0000
0100
0000
0010
0000
0000
1000
,  // measure 8
0000
0001
0000
1000
0000
0100
0000
0100
0001
0000
1000
0000
0001
0000
0000
0010
,  // measure 9
0000
0001
0000
1000
0000
0000
0000
0100
1000
0000
1000
0000
0001
0000
0000
0100
,  // measure 10
0000
0010
0000
1000
0000
0100
0000
0100
0001
0000
1000
0000
0001
0000
0000
0100
,  // measure 11
0000
0010
0000
0100
0000
0000
0000
0001
0010
0000
0010
0000
0100
0000
0000
1000
,  // measure 12
0000
0001
0000
0100
0000
0010
0000
0010
0001
0000
0010
0000
0001
0000
0000
0000
,  // measure 13
1000
0000
0100
0000
0020
0000
0030
0200
0000
0300
2000
0000
3002
0000
0003
0200
,  // measure 14
0000
0300
0002
0000
2003
0000
3000
0200
0000
0300
1000
0100
1000
0000
0000
0000
,  // measure 15
0001
0000
0100
0000
0020
0000
0030
2000
0000
3000
0200
0000
0320
0000
0030
0002
,  // measure 16
0000
0003
2000
0000
0000
3000
0200
0000
0000
0300
1000
0100
1000
0000
0000
0000
,  // measure 17
0001
0000
0100
0000
0020
0000
0030
2000
0000
3000
0002
0000
0023
0000
0030
0002
,  // measure 18
0000
0003
2000
0000
3020
0000
0030
0200
0000
0300
0001
0100
0001
0000
0000
0000
,  // measure 19
0010
0000
0100
0000
2000
0000
3000
0002
0000
0003
0200
0000
0320
0000
0030
2000
,  // measure 20
0000
3000
0002
0000
0000
0003
0200
0000
0000
0300
0001
0100
0001
0000
0100
0000
,  // measure 21
0010
0000
1000
0000
0000
0000
0000
0000
0001
0000
0100
0000
0010
0000
1000
0010
,  // measure 22
0000
1000
0000
0001
0000
0000
0010
0000
0001
0000
1000
0001
1000
0000
0000
0100
,  // measure 23
0000
1000
0000
0001
0000
0000
1000
0000
0100
0000
0010
0000
0001
0000
0000
1000
,  // measure 24
0100
0000
1000
0000
0000
0000
0001
0000
1000
0000
0001
0010
0001
0000
0100
0000
,  // measure 25
0010
0000
1000
0000
0000
0000
0000
0000
0001
0000
0100
0000
0010
0000
1000
0010
,  // measure 26
0000
1000
0000
0001
0000
0000
0010
0000
0001
0000
0100
0001
0100
0000
0000
0010
,  // measure 27
0000
1000
0000
0001
0000
0000
1000
0000
0100
0000
0010
0000
0001
0000
0000
1000
,  // measure 28
0100
0000
1000
0000
0000
0000
0001
0000
0010
0000
0100
1000
0200
0000
0000
0000
,  // measure 29
0000
0000
0000
1300
1100
0000
0100
0000
0010
0001
0000
1000
0000
0001
0000
0020
,  // measure 30
0000
0000
0100
0000
0130
0000
1000
0000
0001
1000
0000
0010
0000
0100
0000
0002
,  // measure 31
0000
0000
1000
0000
1003
0000
0100
0000
0010
0001
0000
1000
0000
0001
0000
0200
,  // measure 32
0000
0000
0000
0000
0301
0000
1000
0000
0100
1000
0000
0001
0000
0100
0000
0001
,  // measure 33
0100
0000
0010
0000
1000
0000
0001
0000
0100
0001
0000
1000
0000
0001
0000
0200
,  // measure 34
0000
0000
1000
0000
0301
0000
0100
0000
0010
0100
0000
0001
0000
0010
0000
0200
,  // measure 35
0000
0000
1000
0000
1300
0000
0100
0000
0010
0001
0000
1000
0000
0001
0000
0200
,  // measure 36
0001
0000
0000
0000
0310
0000
0100
0000
0001
0010
0000
0001
0000
1000
0000
0010
,  // measure 37
1000
0000
0001
0000
1001
0000
0000
1000
0000
0001
0000
1000
0000
0000
0000
0100
,  // measure 38
0010
0000
0001
0000
1000
0000
0000
0010
0000
0100
0000
0001
0000
1000
0000
0100
,  // measure 39
1000
0000
0001
0000
0010
0000
0000
0001
0000
1000
0000
0001
0000
0000
0000
0100
,  // measure 40
0010
0000
1000
0000
0001
0000
0000
0010
0000
0100
0000
1000
0000
0001
0000
0001
,  // measure 41
0010
0000
0001
0000
1000
0000
0000
0010
0000
0100
0000
0001
0000
0000
0000
0100
,  // measure 42
0001
0000
1000
0000
0010
0000
0000
0100
0000
0001
0000
1000
0000
0100
0000
1000
,  // measure 43
0100
0000
0010
0000
0001
0000
0000
0100
0000
0001
0000
1000
0000
0000
0000
0001
,  // measure 44
0010
0000
0001
0000
1000
0000
0000
0010
0000
0100
0000
0001
0000
1000
0000
0100
,  // measure 45
0010
0100
1000
0000
0000
0000
0000
0000
;

//---------------dance-single - ----------------
#NOTEDATA:;
#CHARTNAME:X-Scale 9;
#STEPSTYPE:dance-single;
#DESCRIPTION:;
#CHARTSTYLE:;
#DIFFICULTY:Medium;
#METER:6;
#RADARVALUES:0.420631,0.395978,0.030885,0.061771,0.566234,286.000000,283.000000,3.000000,6.000000,0.000000,0.000000,0.000000,0.000000,0.000000,0.420631,0.395978,0.030885,0.061771,0.566234,286.000000,283.000000,3.000000,6.000000,0.000000,0.000000,0.000000,0.000000,0.000000;
#CREDIT:;
#NOTES:
// measure 0
0000
0000
0000
0000
,  // measure 1
0000
0000
0000
0000
,  // measure 2
0000
0000
0000
0000
1000
0000
0000
0100
0000
1000
0000
0000
0001
0000
0000
0010
,  // measure 3
0000
0001
0000
0000
1000
0000
0000
0010
0000
1000
0000
0000
0001
0000
0000
0010
,  // measure 4
0000
0001
0000
0000
2000
0000
0000
0000
0000
0000
0000
3000
1100
0000
0000
1000
,  // measure 5
0000
0100
0000
1000
0000
0000
0000
0000
0001
0000
0010
0000
0001
0000
0000
1000
,  // measure 6
0000
0010
0000
0100
0000
0001
0000
0100
0001
0000
1000
0000
0100
0000
0000
1000
,  // measure 7
0000
0001
0000
1000
0000
0000
0000
0000
0010
0000
0100
0000
0010
0000
0000
1000
,  // measure 8
0000
0010
0000
0100
0000
0001
0000
0100
0001
0000
1000
0000
0001
0000
0000
0010
,  // measure 9
0000
0100
0000
1000
0000
0000
0000
0000
0001
0000
0100
0000
0001
0000
0000
1000
,  // measure 10
0000
0010
0000
0100
0000
0001
0000
0100
0001
0000
1000
0000
0100
0000
0000
0010
,  // measure 11
0000
0001
0000
1000
0000
0000
0000
0000
0001
0000
0100
0000
0001
0000
0000
1000
,  // measure 12
0000
0010
0000
0100
0000
0001
0000
0100
0001
0000
1000
0000
0001
0000
0000
1000
,  // measure 13
0000
0000
0010
0000
0000
0000
1000
0000
0001
0000
0000
0000
1000
0000
0100
1000
,  // measure 14
0000
0000
0001
0000
0100
0000
0001
0000
1000
0000
0001
0000
0010
0000
0000
0100
,  // measure 15
0000
0000
1000
0000
0000
0000
0001
0000
0100
0000
0000
0000
0001
0000
0010
0001
,  // measure 16
0000
0000
1000
0001
0000
1000
0001
0000
0010
0000
0100
0000
1000
0000
0000
0001
,  // measure 17
0000
0000
1000
0000
0000
0000
0100
0000
1000
0000
0000
0000
0001
0000
0010
0001
,  // measure 18
0000
0000
1000
0000
0001
0000
0010
0000
0001
0000
0100
0000
0001
0000
0000
1000
,  // measure 19
0100
0000
1000
0000
0000
0000
0001
0000
0010
0000
0000
0000
0100
0000
1000
0100
,  // measure 20
0000
0000
0010
0001
0000
1000
0001
0000
0100
0000
0010
0100
0001
0000
0010
0000
,  // measure 21
0100
1000
0000
0000
0001
0010
0100
1000
,  // measure 22
0000
0000
0000
0000
0001
0000
1000
0000
0100
0000
1000
0000
0010
0000
0000
0100
,  // measure 23
0000
0001
0000
0100
0000
0000
0001
0000
0010
0000
0100
0000
1000
0000
0000
0001
,  // measure 24
0000
0000
1000
0000
0000
0000
0010
0000
0100
0000
0001
0100
0001
0000
0010
0000
,  // measure 25
0100
1000
0000
0000
0001
0010
0100
1000
,  // measure 26
0000
0000
0000
0000
0001
0000
0010
0000
1000
0000
0010
0000
0001
0000
0000
1000
,  // measure 27
0000
0010
0000
1000
0000
0000
0001
0000
0010
0000
0100
0000
1000
0000
0000
0001
,  // measure 28
0000
0000
1000
0000
0000
0000
0010
0000
0100
0000
0001
0100
0002
0000
0000
0000
,  // measure 29
0000
0000
0000
0003
1001
0000
0000
0001
0000
0000
1000
0000
0000
0000
1000
0002
,  // measure 30
0000
0000
0010
0003
0010
0000
0000
0001
0000
0000
1000
0000
0000
0000
1000
0002
,  // measure 31
0000
0000
1000
0003
1000
0000
0000
0100
0000
0000
1000
0000
0000
0000
0001
0000
,  // measure 32
0100
0000
0000
0000
0001
0000
0000
1000
0000
0000
0100
0000
0000
0000
1000
0000
,  // measure 33
0100
0000
0000
0000
0010
0000
0000
0001
0000
0000
1000
0000
0000
0000
1000
0002
,  // measure 34
0000
0000
1000
0003
1000
0000
0000
0001
0000
0000
0100
0000
0000
0000
0100
0020
,  // measure 35
0000
0000
1000
0030
1000
0000
0000
0001
0000
0000
1000
0000
0000
0000
0100
0000
,  // measure 36
0010
0000
0000
0000
0001
0000
0000
0100
0000
0000
0010
0000
0000
0000
0100
0000
,  // measure 37
0010
0000
1000
0000
1001
0000
0000
0001
0000
0010
0000
0001
0000
0000
0000
0000
,  // measure 38
1000
0000
0010
0000
1000
0000
0000
0010
0000
0100
0000
0001
0000
1000
0000
0100
,  // measure 39
1000
0000
0001
0000
1000
0000
0000
0100
0000
0010
0000
0100
0000
0000
0000
0010
,  // measure 40
0001
0000
0001
0000
1000
0000
0000
0010
0000
0100
0000
0001
0000
0010
0000
0100
,  // measure 41
1000
0000
0001
0000
0100
0000
0000
0010
0000
0100
0000
0010
0000
0000
0000
1000
,  // measure 42
0001
0000
0100
0000
0001
0000
0000
0010
0000
0100
0000
1000
0000
0001
0000
1000
,  // measure 43
0100
0000
1000
0000
0010
0000
0000
0100
0000
0001
0000
0100
0000
0000
0000
0010
,  // measure 44
0100
0000
0100
0000
0001
0000
0000
0010
0000
1000
0000
0010
0000
0001
0000
0100
,  // measure 45
0001
1000
0001
0000
0000
0000
0000
0000
;

//---------------dance-single - ----------------
#NOTEDATA:;
#CHARTNAME:X-Scale 5;
#STEPSTYPE:dance-single;
#DESCRIPTION:;
#CHARTSTYLE:;
#DIFFICULTY:Easy;
#METER:3;
#RADARVALUES:0.276499,0.302806,0.102952,0.020590,0.020590,188.000000,178.000000,10.000000,2.000000,0.000000,0.000000,0.000000,0.000000,0.000000,0.276499,0.302806,0.102952,0.020590,0.020590,188.000000,178.000000,10.000000,2.000000,0.000000,0.000000,0.000000,0.000000,0.000000;
#CREDIT:;
#NOTES:
// measure 0
0000
0000
0000
0000
,  // measure 1
0000
0000
0000
0000
,  // measure 2
0000
0001
0000
0010
,  // measure 3
0000
0100
0000
1000
,  // measure 4
0000
0000
0000
0000
0002
0000
0000
0000
0000
0000
0000
0003
1001
0000
1000
0000
,  // measure 5
0000
0100
0000
1000
0000
0001
0010
0001
,  // measure 6
0000
0100
0000
0010
0000
1000
0001
1000
,  // measure 7
0000
0100
0000
0010
0000
0001
0100
0001
,  // measure 8
0000
0010
0000
0100
0000
1000
0100
1000
,  // measure 9
0000
0001
0000
0100
0000
0001
0010
0001
,  // measure 10
0000
0100
0000
0010
0000
1000
0001
1000
,  // measure 11
0000
0100
0000
0010
0000
0001
0010
0001
,  // measure 12
0000
1000
0000
0010
0000
1000
0000
0000
,  // measure 13
1100
1000
0100
1000
,  // measure 14
0001
0010
0100
0010
,  // measure 15
0001
1000
0010
0100
,  // measure 16
0010
1000
0100
0010
,  // measure 17
0001
0010
0100
1000
,  // measure 18
0001
0100
0010
0100
,  // measure 19
0001
0010
0100
1000
,  // measure 20
0001
1000
0010
0100
,  // measure 21
0101
0001
1001
1000
,  // measure 22
1100
0000
0000
0000
0100
0000
0000
0000
0110
0000
0000
0000
0010
0000
0000
0001
,  // measure 23
0000
0000
0010
0000
0000
0000
0001
0000
1000
0000
0000
0000
0010
0000
0000
0100
,  // measure 24
0000
0010
0000
1000
0100
0000
0010
0000
,  // measure 25
0011
0001
1001
1000
,  // measure 26
1010
0000
0000
0000
0010
0000
0000
0000
0110
0000
0000
0000
0100
0000
0000
0001
,  // measure 27
0000
0000
1000
0000
0000
0000
0001
0000
0010
0000
0000
0000
0100
0000
0000
1000
,  // measure 28
0000
0010
0000
1000
0001
0000
0002
0000
,  // measure 29
0000
1003
0100
0010
,  // measure 30
0001
0100
0010
1000
,  // measure 31
0001
0010
0100
1000
,  // measure 32
0010
0100
0001
1000
,  // measure 33
0010
0100
0010
1000
,  // measure 34
0100
0010
0100
1000
,  // measure 35
0001
0010
0100
0010
,  // measure 36
0001
0100
0010
0100
,  // measure 37
0001
1000
0010
0100
,  // measure 38
0001
1000
0100
0010
,  // measure 39
0001
1000
0010
0100
,  // measure 40
0001
1000
0100
0010
,  // measure 41
0001
1000
0010
0100
,  // measure 42
0010
1000
0001
0010
,  // measure 43
0100
0010
0001
1000
,  // measure 44
0001
0010
0001
1000
,  // measure 45
0100
1000
0000
0000
;

//---------------dance-single - ----------------
#NOTEDATA:;
#CHARTNAME:X-Scale 1;
#STEPSTYPE:dance-single;
#DESCRIPTION:;
#CHARTSTYLE:;
#DIFFICULTY:Beginner;
#METER:1;
#RADARVALUES:0.123542,0.139757,0.020590,0.000000,0.000000,84.000000,82.000000,2.000000,0.000000,0.000000,0.000000,0.000000,0.000000,0.000000,0.123542,0.139757,0.020590,0.000000,0.000000,84.000000,82.000000,2.000000,0.000000,0.000000,0.000000,0.000000,0.000000,0.000000;
#CREDIT:;
#NOTES:
0000
0000
0000
0000
,
0000
0000
0000
0000
,
0000
1000
0000
0001
,
0000
1000
0000
0001
,
0000
0000
0000
1001
,
0000
1000
0000
0100
,
0000
0010
0000
0001
,
0000
1000
0000
0010
,
0000
0100
0000
0001
,
0000
1000
0000
0100
,
0000
0010
0000
0001
,
0000
1000
0000
0010
,
0000
0100
0000
0001
,
0000
1000
0000
0001
,
0000
1000
0000
0001
,
0000
0010
0000
0100
,
0000
0010
0000
0100
,
0000
1000
0000
0010
,
0000
1000
0000
0010
,
0000
0100
0000
0001
,
0000
0100
0000
0001
,
0000
0000
1000
0000
,
0000
0100
0000
1000
,
0000
0000
0001
0000
,
0000
0100
0000
0010
,
0000
0000
1000
0000
,
0000
0001
0000
1000
,
0000
0000
0100
0000
,
0000
1000
0000
0001
,
0000
1001
0000
1000
,
0000
0100
0000
1000
,
0000
0100
0000
0010
,
0000
0001
0000
0010
,
0000
0001
0000
0100
,
0000
0010
0000
0100
,
0000
0010
0000
1000
,
0000
0001
0000
1000
,
0000
0001
0000
0100
,
0000
0010
0000
0100
,
0000
0010
0000
1000
,
0000
0010
0000
1000
,
0000
0010
0000
0100
,
0000
0001
0000
0100
,
0000
0001
0000
0010
,
0000
0100
0000
1000
,
0000
0001
0000
0000
;
