#TITLE:Turn Around;
#SUBTITLE:;
#ARTIST:Grabbitz;
#TITLETRANSLIT:;
#SUBTITLETRANSLIT:;
#ARTISTTRANSLIT:;
#GENRE:Dubstep;
#CREDIT:;
#BANNER:Turn Around-bn.png;
#BACKGROUND:Turn Around-bg.png;
#LYRICSPATH:;
#CDTITLE:cdtitle.png;
#MUSIC:Turn Around.ogg;
#OFFSET:-1.677031;
#SAMPLESTART:44.442001;
#SAMPLELENGTH:13.150000;
#SELECTABLE:YES;
#BPMS:0.000000=73.000000
,20.000000=146.000000
,52.000000=73.000000
,60.000000=146.000000
,72.000000=73.000000
,74.000000=146.000000
,152.000000=73.000000
,153.000000=146.000000
,167.000000=73.000000
,168.000000=146.000000
,182.000000=73.000000
,183.000000=146.000000
,197.000000=73.000000
,198.000000=146.000000
,212.000000=73.000000
,213.000000=146.000000
,243.000000=73.000000
,244.000000=146.000000
,260.000000=73.000000
;
#STOPS:
;
#BGCHANGES:;
#KEYSOUNDS:;
#ATTACKS:;

//---------------dance-single - ----------------
#NOTES:
     dance-single:
     :
     Hard:
     9:
     0.628881,0.605016,0.105351,0.248328,0.447742,585.000000,571.000000,14.000000,33.000000,0.000000,0.000000,0.628881,0.605016,0.105351,0.248328,0.447742,585.000000,571.000000,14.000000,33.000000,0.000000,0.000000:
0000
0000
0000
0000
,
1100
0000
1000
0000
0001
0000
0010
0000
0001
0000
1000
0000
0100
1000
0100
1000
,
0100
0000
1000
0000
0001
0000
0100
0000
0001
0000
0001
0000
0100
0010
0001
0010
,
0200
0000
0302
0023
0032
0000
1003
0000
0100
0000
1000
0000
0001
0000
0100
0001
,
0010
0100
0010
0001
0000
1000
0000
0000
0010
0001
0010
1000
0010
0000
1000
0100
,
1100
0000
0000
1000
0010
0000
1000
0010
0000
1000
0010
0000
1000
0000
0100
0000
,
0010
0000
0000
0001
0010
0000
0001
0010
0000
0001
0010
0000
0001
0000
0100
0000
,
0010
0000
0000
0010
1000
0000
0010
1000
0000
0010
1000
0000
0001
0000
0100
0000
,
0001
0000
0000
0100
0010
0000
0100
0010
0000
0100
0010
0000
0100
0000
0001
0000
,
1000
0000
0000
0001
1000
0000
0001
1000
0000
0001
1000
0000
0001
0000
0100
0000
,
0001
0000
0000
1000
0010
0000
1000
0010
0000
1000
0010
0000
1000
0000
0001
0000
,
0100
1000
0100
0001
0000
0001
0000
0000
,
0001
1000
0001
0010
0100
0000
0100
0010
,
0011
0000
0001
0010
0001
0000
1000
0100
1000
0000
0010
0100
0010
0000
1000
0001
,
1000
0000
0010
1000
0000
0000
0040
0000
0000
0000
0000
0000
0000
0000
0000
0000
1030
0000
0001
0010
0000
0004
0000
0000
0000
0000
0000
0000
0000
0000
0000
0000
,
0013
1000
0010
0001
,
0010
1000
0010
0001
,
1000
0100
1000
0100
0010
0001
0010
0001
,
0020
0000
0000
0000
0000
0000
0000
0000
0031
0000
0000
0100
0000
0000
0001
0010
0011
0000
0000
0000
0000
0000
0000
0000
0001
0000
0000
0000
1000
0000
0001
0000
,
1000
0000
0010
0000
0100
0010
0100
0000
0010
0000
1000
0000
0000
0001
0100
0001
,
0100
0000
0010
0000
0100
0000
0010
0000
0110
0000
0000
0000
0010
0000
1000
0010
,
1000
0000
0001
0000
0100
0001
1000
0000
1000
0000
0010
0000
0000
0010
0100
0010
,
0100
0000
0001
0000
0200
0000
0000
0000
0301
0000
0000
0000
0001
0000
1000
0001
,
0000
0000
1000
0000
0001
0100
0001
0000
1000
0000
0100
0000
0000
1000
0100
1000
,
0100
0000
1000
0000
0001
0000
0100
0000
0001
0000
0000
0000
1000
0000
0010
1000
,
0010
0000
0100
0000
0001
0000
1000
0100
1000
0000
0001
0000
0010
0000
0100
0000
,
1000
0000
0000
0000
0001
0000
1000
0000
1001
0000
0000
0000
0001
0000
0100
0001
,
0100
0000
0010
0000
0100
0010
0100
0000
0100
0000
0001
0000
0000
0001
1000
0001
,
1000
0000
0010
0000
1000
0000
0010
0000
1010
0000
0000
0000
1000
0000
0010
0100
,
0010
0000
1000
0000
0001
0010
0001
0000
0100
0000
0001
0000
0000
0001
0010
0001
,
1000
0000
0100
1000
0100
0000
1000
0000
1100
0000
0000
0000
1000
0000
0001
0100
,
0001
0000
0100
0010
0000
0100
0010
0000
0100
0000
0001
0000
0000
0100
0001
0100
,
0010
0000
1000
0000
0100
0000
1000
0000
0001
0000
0000
0000
0100
0000
0001
0010
,
0001
0000
1000
0000
0100
0000
1000
0100
1000
0000
0100
0000
0010
0000
0001
0000
,
1000
0000
0001
0100
0101
0001
0100
0001
,
1000
0100
1000
0100
1000
0001
0100
0001
,
0010
0100
0010
0100
0010
0001
1000
0100
,
0010
0001
0010
0001
0010
0100
1000
0001
,
0100
0010
0100
0010
0110
0000
0010
0000
1000
0100
1000
0100
1000
0000
0001
0000
,
0100
0000
0001
0000
0010
0000
0100
0000
0010
0001
0010
0001
0010
0000
0001
0000
,
2000
0000
3000
0000
1001
0000
0001
0000
1000
0010
1000
0010
1000
0000
0001
0000
,
0010
0000
0100
0000
0010
0000
0001
0000
1000
0001
1000
0001
4000
0000
3010
0100
,
0110
0100
0001
1000
0001
0010
0001
0010
,
0001
1000
0100
1000
0010
0100
0010
0100
,
0010
1000
0001
0010
0100
1000
0100
1000
,
0100
0000
0010
0000
0100
0000
1000
0000
0001
0010
0004
0000
1003
0000
0100
0000
,
0010
0100
0010
0001
0010
0000
0100
0000
0010
0000
0001
0000
1000
0000
0010
0000
,
0100
0010
1000
0010
0100
0000
0001
0000
0020
0000
0030
0000
0011
0000
0001
0000
,
1000
0010
0100
0010
1000
0000
0001
0000
0100
0000
0010
0000
0100
0000
0001
0000
,
0010
0100
1000
0100
0020
0000
0032
0000
0013
0000
0001
0000
1000
0010
1000
0010
,
1000
0000
0100
0000
1000
0000
0010
0000
0100
0000
0001
0000
0010
0001
0010
0001
,
0010
0000
0001
0000
1000
0000
0010
0000
1000
0000
0001
0000
0100
0010
0100
0010
,
0100
0000
0001
0000
1000
0000
0010
0000
1000
0000
0100
0000
0010
0100
0010
0100
,
0010
0100
1000
0100
0020
0000
0000
0000
0230
0000
0000
0000
2300
0000
0000
0000
,
3002
0000
0000
0000
0203
0000
0301
0100
0002
0000
0010
0000
0023
0000
0100
0000
,
0230
0000
0310
0100
1000
0100
2000
0000
,
3002
0000
0103
0400
0000
0310
0100
0000
,
0010
0000
0000
0000
1000
0000
0000
0000
0010
0000
0000
0000
1000
0000
0000
0000
0000
0000
0100
0000
0000
0000
0000
0000
0010
0000
0000
0001
0000
0000
0010
0000
0000
0001
0000
0000
0010
0000
0000
0000
0000
0000
0100
0000
0000
0000
0000
0000
,
1000
0000
0001
0000
1000
0000
0010
0000
1000
0100
1000
0100
1000
0000
0001
0000
,
0010
0001
0100
1000
0100
0001
0000
0001
,
1000
0000
0000
0000
1000
0000
0001
0000
1000
0000
0100
0000
0010
0100
0010
0100
,
2000
0000
3002
0000
0203
0001
0302
0000
,
2003
0000
3010
1000
0020
0000
0100
0000
0230
0000
0001
0000
0302
0000
0000
0000
,
0023
0000
0031
0100
0002
0000
2003
0000
,
3010
0000
1000
0010
1000
0000
0010
0000
0100
0000
0000
0000
0100
0000
0010
0000
,
0110
0000
0100
0001
0100
0000
0001
1000
0001
0000
1000
0010
1000
0000
0010
0100
,
0020
0000
0000
0130
0020
0000
0000
0000
0100
0000
0001
0000
0100
0000
1000
0000
,
0130
0000
0000
0000
;

//---------------dance-single - ----------------
#NOTES:
     dance-single:
     :
     Medium:
     7:
     0.489130,0.554598,0.067726,0.316053,0.154264,455.000000,446.000000,9.000000,42.000000,0.000000,0.000000,0.489130,0.554598,0.067726,0.316053,0.154264,455.000000,446.000000,9.000000,42.000000,0.000000,0.000000:
// measure 0
0000
0000
0000
0000
,  // measure 1
0011
0000
0010
0000
0001
0000
0010
0000
0001
0000
0010
0000
0001
1000
0100
1000
,  // measure 2
0001
0000
1000
0000
0100
0000
1000
0000
0100
0000
1000
0000
0100
0010
0100
0010
,  // measure 3
0100
1000
0001
0010
0100
0010
0001
0100
,  // measure 4
0001
0000
0010
0000
0001
0000
1000
0000
0001
0010
0100
0010
0001
0000
0010
0001
,  // measure 5
0011
0000
0010
0001
0010
0000
0001
0000
,  // measure 6
1000
0000
0001
0010
0100
0000
0010
0001
,  // measure 7
0010
0000
0001
1000
0100
0000
1000
0000
,  // measure 8
0001
0100
0001
0100
0001
0000
0010
0000
,  // measure 9
1000
0000
0100
0001
0100
0000
0001
0000
,  // measure 10
1000
0000
0010
1000
0100
0000
1000
0100
,  // measure 11
0010
0100
1000
0001
0100
0001
0000
0000
,  // measure 12
0001
1000
0001
1000
0001
0000
0001
0100
,  // measure 13
0101
0001
0001
1000
1000
0010
0010
1000
,  // measure 14
1000
0100
0100
1000
2000
0000
0000
0000
,  // measure 15
3010
1000
0001
0010
,  // measure 16
0001
1000
0010
1000
,  // measure 17
0001
0100
0001
0100
0010
0100
0010
0100
,  // measure 18
0020
0000
0000
0000
0000
0000
0000
0000
1030
0000
0000
0100
0000
0000
1000
0000
1100
0000
0000
0000
0000
0000
0000
0000
0001
0000
0000
0000
1000
0000
0001
0000
,  // measure 19
1000
0000
0010
0000
0100
0000
0000
0000
0100
0000
0000
0001
0000
0000
1000
0001
,  // measure 20
1000
0000
0001
0000
1000
0000
0001
0000
0001
0000
0000
0000
0010
0000
0001
0100
,  // measure 21
0001
0000
0010
0000
0100
0000
0000
0000
0100
0000
0000
0010
0000
0000
0001
0010
,  // measure 22
0001
0000
1000
0000
2000
0000
0000
0000
3001
0000
0000
0000
0001
0000
1000
0001
,  // measure 23
1000
0000
0001
0000
0010
0001
0010
0000
0001
0000
0000
1000
0000
0000
0100
1000
,  // measure 24
0100
1000
0010
0001
0020
0000
1000
0000
,  // measure 25
2030
3020
2030
0000
3010
1000
0100
0010
,  // measure 26
0001
0000
0000
0000
0010
0000
0001
0000
0011
0000
0000
0000
0001
0000
0100
0001
,  // measure 27
0100
0000
0010
0000
0100
0010
0100
0000
0001
0000
0000
1000
0000
0000
1000
0100
,  // measure 28
1000
0000
0010
0000
1000
0000
0010
0000
1000
0000
0000
0000
0001
0000
0010
0001
,  // measure 29
0010
0000
0001
0000
1000
0100
1000
0000
0001
0000
0000
1000
0000
0000
0010
1000
,  // measure 30
0100
0000
1000
0000
0001
0000
0100
0000
0101
0000
0000
0000
0001
0000
1000
0100
,  // measure 31
1000
0000
0001
0000
0100
0010
0100
0000
0001
0000
0000
1000
0000
0000
0001
0100
,  // measure 32
0001
1000
0010
1000
0020
0000
0100
0000
,  // measure 33
2030
3002
2003
0000
3001
0000
1000
0000
,  // measure 34
0001
0000
1000
0100
1100
0000
0100
1000
,  // measure 35
0001
0000
1000
0100
0010
0100
1000
0100
,  // measure 36
0010
0000
0010
0100
0010
0001
0010
0100
,  // measure 37
0010
0000
0001
1000
0001
0010
0100
1000
,  // measure 38
0100
1000
0100
1000
0100
0000
1000
0000
0004
0000
0000
0000
1003
0000
0001
0000
,  // measure 39
0100
0001
0010
0100
0040
0000
0031
0001
,  // measure 40
2000
3000
1000
0001
0040
0000
0031
1000
,  // measure 41
0010
0000
0100
0000
0001
0000
1000
0000
0004
0000
0000
0000
0023
0000
0031
0010
,  // measure 42
0011
0000
0001
1000
0001
0000
1000
0010
,  // measure 43
0001
0100
1000
0100
0010
0000
0001
0100
,  // measure 44
0010
0100
0001
0100
0010
0000
1000
0001
,  // measure 45
1000
0000
0001
0000
0010
0000
0100
0000
1000
0010
2000
0000
3010
0000
1000
0000
,  // measure 46
0040
0000
1030
0010
0001
0010
1000
0010
,  // measure 47
0400
0000
0301
0100
0002
0003
0001
1000
,  // measure 48
0040
0000
1030
0001
0100
0010
0100
0001
,  // measure 49
4000
0000
3020
1000
1030
0001
4000
0000
,  // measure 50
3001
1000
0001
0000
0001
0100
0040
0000
,  // measure 51
1030
0010
0100
0000
0001
0100
0004
0000
,  // measure 52
0103
0001
1000
0000
1000
0100
0040
0000
,  // measure 53
0031
0100
0010
0100
0002
0000
0000
0000
0203
0000
0000
0000
0320
0000
0000
0000
,  // measure 54
0230
0000
0301
0100
0002
0000
2003
0100
,  // measure 55
3200
0000
1300
0100
0020
0000
0230
0000
,  // measure 56
2300
0000
3001
0004
0000
0003
0002
0003
,  // measure 57
2000
3000
0001
0100
0004
0000
0013
0001
,  // measure 58
1000
0000
1000
0010
4000
0000
3001
1000
,  // measure 59
0010
0000
0010
1000
0100
1000
0000
1000
,  // measure 60
0001
0000
0000
0000
0001
0000
0010
0000
0001
0000
0100
0000
0010
0100
0010
0100
,  // measure 61
0020
2030
3200
2300
,  // measure 62
3001
1000
0002
0000
0203
0001
0302
0000
,  // measure 63
0023
0000
0031
0100
0002
0000
0203
0000
,  // measure 64
0310
0100
1000
0100
0010
0000
0100
0010
,  // measure 65
0210
0000
0000
0302
0100
0000
0000
0000
1000
0000
0000
0000
0010
0000
0000
0000
,  // measure 66
2003
0000
3000
0001
2000
0000
0000
0000
0100
0000
0000
0000
0010
0000
0000
0000
,  // measure 67
3100
0000
0000
0000
;

//---------------dance-single - ----------------
#NOTES:
     dance-single:
     :
     Easy:
     4:
     0.334328,0.378135,0.067726,0.481605,0.033863,311.000000,302.000000,9.000000,64.000000,0.000000,0.000000,0.334328,0.378135,0.067726,0.481605,0.033863,311.000000,302.000000,9.000000,64.000000,0.000000,0.000000:
// measure 0
0000
0000
0000
0000
,  // measure 1
1001
0001
1000
0001
,  // measure 2
0100
0000
0001
0000
0010
0010
0001
0000
,  // measure 3
0100
0000
0001
0000
1000
0000
0001
0100
,  // measure 4
0001
0000
0000
0000
0001
0000
0010
0000
0000
0100
0000
0010
0000
0100
0000
1000
,  // measure 5
1100
1000
0010
1000
,  // measure 6
0001
0000
0100
0000
0001
0000
0010
0001
,  // measure 7
0010
0001
1000
0001
,  // measure 8
0100
0100
0002
0023
,  // measure 9
0032
0000
0103
0002
0100
0000
0003
0000
,  // measure 10
1000
0010
1000
0001
,  // measure 11
0010
0100
1000
0100
,  // measure 12
0010
0001
0000
1000
0001
1000
0000
0100
,  // measure 13
1200
2300
3002
0023
,  // measure 14
0032
0000
0000
0000
0203
0000
0000
0000
0320
0000
0000
2030
0000
0000
0000
0000
,  // measure 15
3100
0000
1000
0000
,  // measure 16
0001
0000
0010
0000
,  // measure 17
0010
0001
1000
0100
,  // measure 18
2000
0000
3200
0000
1300
0000
0001
1000
,  // measure 19
0010
0100
0001
1000
,  // measure 20
0001
0000
0010
0000
0001
0000
1000
0100
,  // measure 21
0010
0100
1000
0001
,  // measure 22
0100
0010
0200
0000
0310
0000
0010
1000
,  // measure 23
0001
0010
0001
1000
,  // measure 24
0001
0100
0002
0000
,  // measure 25
0023
0000
0032
1000
,  // measure 26
0103
0000
0100
0001
0101
0000
0001
1000
,  // measure 27
0100
1000
0001
0010
,  // measure 28
1000
0000
0100
0000
0001
0000
0100
0010
,  // measure 29
0100
0001
1000
0010
,  // measure 30
0200
0000
0310
0100
0110
0000
0001
1000
,  // measure 31
0010
0100
0001
1000
,  // measure 32
1000
0100
1000
0100
2000
0000
0000
0000
,  // measure 33
3020
2030
3002
1000
,  // measure 34
0013
0000
0001
0010
0011
0000
0001
0010
,  // measure 35
0001
0000
1000
0000
0010
0000
1000
0100
,  // measure 36
1000
0000
0010
0100
0010
0000
0001
0100
,  // measure 37
0001
0000
0001
0000
1000
0000
0100
1000
,  // measure 38
1100
0000
1000
0001
1000
0000
0000
0000
0010
0000
0000
0000
1000
0000
0001
0000
,  // measure 39
0010
0100
1000
0000
0001
0000
0100
0001
,  // measure 40
0200
0300
0100
0000
0001
0000
1000
0001
,  // measure 41
0010
0000
0100
0000
0010
0000
0000
0000
0001
0000
0000
0000
0020
0000
0130
0010
,  // measure 42
0110
0000
0001
1000
0001
0000
0010
0000
,  // measure 43
0100
0000
1000
0100
0010
0000
0001
0100
,  // measure 44
0010
0000
0010
0100
0001
0000
1000
0000
,  // measure 45
0100
0000
0010
0100
1000
2000
3001
0000
,  // measure 46
1000
0001
0100
0001
,  // measure 47
1000
0000
0001
0100
0002
0003
0001
0000
,  // measure 48
0010
0100
0010
0100
,  // measure 49
1000
0020
1030
2000
,  // measure 50
3001
1000
0001
0020
,  // measure 51
0031
0000
0001
0200
,  // measure 52
0301
1000
0100
2000
,  // measure 53
3001
1000
0002
0000
2003
0000
3020
0000
,  // measure 54
2030
0000
3002
0000
0000
0000
0103
0001
,  // measure 55
0200
0302
0023
0230
,  // measure 56
2300
0000
3001
2000
0000
3001
0002
0003
,  // measure 57
0020
0030
0002
0000
0100
0000
0103
0000
,  // measure 58
0001
1000
2000
3001
,  // measure 59
1000
0010
1000
0001
,  // measure 60
0100
0000
0001
0000
1000
0100
0010
0100
,  // measure 61
2000
3002
0203
0320
,  // measure 62
2030
0000
3020
0000
0230
0010
0320
0000
,  // measure 63
2030
3002
0023
0230
,  // measure 64
0310
0000
0100
0000
1000
0000
0001
0010
,  // measure 65
0021
0000
0000
0032
0000
0000
0000
0000
1000
0000
0000
0000
0010
0000
0000
0000
,  // measure 66
2003
0000
0000
3020
0000
0000
0000
0000
0200
0000
0000
0000
0000
0000
0000
0000
,  // measure 67
0330
0000
0000
0000
;

//---------------dance-single - ----------------
#NOTES:
     dance-single:
     :
     Beginner:
     2:
     0.207477,0.277299,0.052676,0.496655,0.018813,193.000000,186.000000,7.000000,66.000000,0.000000,0.000000,0.207477,0.277299,0.052676,0.496655,0.018813,193.000000,186.000000,7.000000,66.000000,0.000000,0.000000:
0000
0000
0000
0000
,
0110
0000
1000
0000
,
0001
0000
0000
0000
0010
0001
0000
0000
,
1000
0000
0001
0000
,
0100
0000
0000
0000
0000
0000
0000
0000
0000
0100
0000
0010
0000
0100
0000
0000
,
0110
0000
0010
0000
,
1000
0000
0001
0010
,
0100
0000
1000
0000
,
0001
0001
0002
2003
,
3002
0000
1003
0002
0000
0000
0000
0000
,
1003
0000
0001
0000
,
0010
0000
0001
0000
,
0000
0001
0000
1000
0000
0010
0000
0100
,
0200
0000
0000
0000
,
0302
0000
0000
0000
,
0103
0000
0000
0000
,
0001
0000
0000
0000
,
0001
0000
1000
0000
,
0002
0000
0013
0000
,
0001
1000
0001
0000
,
0200
0000
0301
0000
,
0010
0100
1000
0000
,
0020
0000
1030
0000
,
0001
0010
0001
0000
,
2000
0000
3002
0000
,
0203
0000
0320
0000
,
0000
0030
1010
0000
,
0100
1000
0001
0000
,
2000
0000
3001
0000
,
0100
0001
0010
0000
,
0200
0300
0110
0000
,
0010
0100
1000
0000
,
0002
0000
2003
0000
,
3020
0000
0230
0000
,
0000
0300
0110
0010
,
0000
1000
0000
0010
,
0000
0100
0000
0001
,
0000
0100
0000
0010
,
0020
1030
2000
3000
,
0010
1000
0001
0000
,
0002
0003
0001
0000
0000
0000
1000
0000
,
0010
0000
0100
0000
0000
0000
0020
0030
,
1010
1000
0000
0010
,
0000
0100
0000
0010
,
0000
1000
0001
1000
,
0001
0000
1000
0000
2000
0020
3030
0000
,
1000
0000
0100
1000
,
0001
0000
0000
0000
0002
0003
0001
0000
,
0000
0100
0010
0100
,
0000
0020
1030
2000
,
3001
1000
0001
0020
,
0031
0000
0001
0200
,
0301
1000
0100
2000
,
3002
0203
0302
0023
,
0032
0000
0203
0000
0000
0000
0301
0100
,
0200
0302
0023
0230
,
2300
0000
3001
2000
0000
3001
0002
0003
,
0020
0030
0002
0000
0100
0000
0103
0000
,
0001
1000
2000
3001
,
1000
0010
2000
3001
,
0100
0000
0001
0000
1000
0100
0020
0000
,
0230
2300
3200
0320
,
0032
0000
0000
0000
0203
0001
0302
0000
,
2003
3002
0023
0230
,
0320
0000
0032
0000
1003
0000
1000
0010
,
1020
0000
0000
2030
0000
0000
0000
0000
0000
0000
0000
0000
0000
0000
0000
0000
,
3200
0000
0000
0320
0000
0000
0000
0000
0000
0000
0000
0000
0000
0000
0000
0000
,
0030
0000
0000
0000
;
