#VERSION:0.83;
#TITLE:Tragedy;
#SUBTITLE:;
#ARTIST:MGNA Crrrta;
#TITLETRANSLIT:;
#SUBTITLETRANSLIT:;
#ARTISTTRANSLIT:;
#GENRE:Electro;
#ORIGIN:;
#CREDIT:;
#BANNER:Tragedy-bn.png;
#BACKGROUND:Tragedy-bg.png;
#PREVIEWVID:;
#JACKET:Tragedy-jacket.png;
#CDIMAGE:;
#DISCIMAGE:;
#LYRICSPATH:;
#CDTITLE:cdtitle.png;
#MUSIC:Tragedy.ogg;
#OFFSET:0.001000;
#SAMPLESTART:31.302999;
#SAMPLELENGTH:13.913000;
#SELECTABLE:YES;
#BPMS:0.000=138.000;
#STOPS:;
#DELAYS:;
#WARPS:;
#TIMESIGNATURES:0.000=4=4;
#TICKCOUNTS:0.000=4;
#COMBOS:0.000=1;
#SPEEDS:0.000=1.000=0.000=0;
#SCROLLS:0.000=1.000;
#FAKES:;
#LABELS:0.000=Song Start;
#BGCHANGES:0.000=Tragedy.avi=1.000=1=0=0=StretchNoLoop==CrossFade==,
99999=-nosongbg-=1.000=0=0=0 // don't automatically add -songbackground-
;
#KEYSOUNDS:;
#ATTACKS:
;

//---------------dance-single - ----------------
#NOTEDATA:;
#CHARTNAME:X-Scale 7;
#STEPSTYPE:dance-single;
#DESCRIPTION:;
#CHARTSTYLE:;
#DIFFICULTY:Easy;
#METER:5;
#RADARVALUES:0.386002,0.402428,0.131405,0.254597,0.000000,329.000000,313.000000,16.000000,31.000000,0.000000,0.000000,0.000000,0.000000,0.000000,0.386002,0.402428,0.131405,0.254597,0.000000,329.000000,313.000000,16.000000,31.000000,0.000000,0.000000,0.000000,0.000000,0.000000;
#CREDIT:iamthek3n;
#NOTES:
// measure 0
0000
0000
0000
0000
,  // measure 1
0000
0000
0000
0000
,  // measure 2
1100
0000
0000
0000
1000
0000
0000
0001
,  // measure 3
0000
1000
0000
0001
0000
0000
1000
0100
,  // measure 4
0020
0000
0030
0001
0000
0001
0100
0010
,  // measure 5
2000
0000
3000
0100
0000
0100
0000
0000
,  // measure 6
1000
0000
0000
0000
0001
0000
0000
0100
,  // measure 7
0000
0010
0000
0100
0000
0000
0001
0010
,  // measure 8
0200
0000
0300
1000
0000
1000
0010
0100
,  // measure 9
0002
0100
1003
0001
,  // measure 10
1000
0010
1000
0001
,  // measure 11
0010
0000
0100
0000
0010
0000
0001
1000
,  // measure 12
0200
0000
0010
0000
1300
0000
0100
0010
,  // measure 13
0002
0100
1003
0001
,  // measure 14
0100
0101
1000
1100
,  // measure 15
0001
0000
1001
0000
0100
0000
0110
0010
,  // measure 16
2000
0000
0000
0001
3000
0001
0100
0010
,  // measure 17
2000
0000
0000
0010
3000
0010
0000
0000
,  // measure 18
1001
0000
0001
0000
1000
0100
0010
0100
,  // measure 19
1000
0000
0001
0000
0100
0010
1000
0001
,  // measure 20
0010
0000
0100
0000
1000
0001
0100
0001
,  // measure 21
1000
0100
1000
0100
,  // measure 22
0010
0000
0001
0000
1000
0100
0010
0100
,  // measure 23
1000
0000
0001
0000
0100
0000
0001
0010
,  // measure 24
0100
0000
1000
0000
0001
0000
1000
0001
,  // measure 25
0100
0010
0100
0010
,  // measure 26
1001
0000
0001
0100
0020
0000
0230
0000
,  // measure 27
0302
0000
1003
0000
0100
0010
0002
0000
,  // measure 28
0103
0000
0001
1000
0200
0000
2300
0000
,  // measure 29
3002
0000
0013
0000
0001
1000
0200
0000
,  // measure 30
0310
0000
0100
1000
0001
0000
0100
0001
,  // measure 31
1000
0000
0001
0010
0100
0010
0002
0000
,  // measure 32
1003
0000
0001
0100
0010
0000
1000
0010
,  // measure 33
0100
0000
0001
0010
0100
0010
0002
0000
,  // measure 34
0003
1001
0000
0110
,  // measure 35
0000
1001
0000
0110
,  // measure 36
1000
0001
1000
0001
,  // measure 37
0010
0100
0010
0100
0010
0100
0000
0000
,  // measure 38
1100
0000
1000
0001
,  // measure 39
1000
0000
0010
0100
,  // measure 40
0010
0000
0001
0100
,  // measure 41
0001
0000
1000
0100
,  // measure 42
1000
0000
0001
0100
,  // measure 43
0001
0000
0100
0010
,  // measure 44
0100
0000
0001
1000
,  // measure 45
0001
0000
1000
0010
,  // measure 46
1000
0000
0100
0000
0010
0000
0001
0100
,  // measure 47
0001
0000
1000
0000
0100
0000
0010
0001
,  // measure 48
0010
0000
0100
0000
1000
0000
0001
1000
,  // measure 49
0001
0100
0010
1000
,  // measure 50
0001
0000
0100
0000
0001
0000
1000
0001
,  // measure 51
1000
0000
0010
0000
0100
0000
0001
0100
,  // measure 52
0001
0010
0100
1000
,  // measure 53
0001
0000
0000
0000
1000
0010
1000
0000
,  // measure 54
1001
0000
0001
0000
0100
0001
1000
0001
,  // measure 55
0100
0000
0001
0000
1000
0100
0010
0100
,  // measure 56
1000
0000
0001
0000
0010
0100
1000
0001
,  // measure 57
1000
0001
1000
0001
,  // measure 58
0100
0000
0010
0000
1000
0100
0010
0100
,  // measure 59
1000
0000
0001
0000
0100
0000
0001
0100
,  // measure 60
0010
0000
1000
0000
0001
0000
0010
0100
,  // measure 61
1000
0001
1000
0001
,  // measure 62
1001
0000
0100
1000
0002
0000
0023
0000
,  // measure 63
0230
0000
1300
0000
0001
1000
0100
0000
,  // measure 64
1001
0000
0100
0001
2000
0000
3020
0000
,  // measure 65
0230
0000
0301
0000
0010
0100
1000
0000
,  // measure 66
1001
0000
1000
0100
0020
0000
0031
1000
,  // measure 67
0020
0000
0130
0010
1000
0001
0020
0000
,  // measure 68
0230
0000
0310
0100
2000
0000
3001
1000
,  // measure 69
0020
0000
0130
0010
1000
0001
0020
0000
,  // measure 70
0030
0000
0000
0000
;

//---------------dance-single - ----------------
#NOTEDATA:;
#CHARTNAME:X-Scale 11;
#STEPSTYPE:dance-single;
#DESCRIPTION:;
#CHARTSTYLE:;
#DIFFICULTY:Medium;
#METER:8;
#RADARVALUES:0.493942,0.517407,0.254597,0.229959,0.110873,421.000000,390.000000,31.000000,28.000000,0.000000,0.000000,0.000000,0.000000,0.000000,0.493942,0.517407,0.254597,0.229959,0.110873,421.000000,390.000000,31.000000,28.000000,0.000000,0.000000,0.000000,0.000000,0.000000;
#CREDIT:iamthek3n;
#NOTES:
0000
0000
0000
0000
,
0000
0000
0000
0000
,
0101
0000
0001
0000
1000
0000
0001
0010
,
0000
0010
0000
0100
0000
0100
1000
0001
,
0200
0000
0000
0000
0301
0000
1000
0000
0000
0000
1000
0000
0100
0010
0000
0000
,
0002
0000
1003
0100
0000
0100
0010
0000
,
0001
0000
0100
0000
0001
0000
1000
0010
,
0000
0010
0000
0100
0000
0100
0001
1000
,
0020
0000
0000
0000
0130
0000
0001
0000
0000
0000
0001
0000
0010
0100
0000
0000
,
2000
0000
3001
0010
0000
0010
0100
0000
,
1100
0000
0000
0000
1000
0001
0000
0000
1001
0000
0000
0000
0001
0000
0010
0000
,
0100
0000
0000
0000
0010
0000
0100
0000
1000
0000
0000
0000
0001
1000
0000
0000
,
0020
0000
0000
0000
0001
0000
0000
0000
0130
0000
0000
0000
0010
1000
0000
0000
,
0200
0000
0001
0000
1300
0100
0000
0100
,
0010
0000
0000
0000
0001
0010
0000
0000
0100
0000
0000
0000
1000
0001
0000
0000
,
0100
0000
0000
0000
0010
0100
0000
0000
0001
0000
0000
0000
0010
0100
0000
0000
,
2000
0000
0001
0000
0000
0000
0001
0000
3000
0000
0001
0000
1000
0100
0000
0000
,
0020
0001
0000
0031
0010
0100
1000
0000
,
1100
0000
0001
0000
1000
0100
0001
0100
,
1000
0000
0001
0000
0100
0010
1000
0001
,
0010
0000
0100
0000
1000
0010
0100
0010
,
2000
3000
2000
3000
0002
0003
0002
0003
,
1001
0000
0100
0000
1000
0001
0100
0001
,
1000
0000
0000
0000
2200
0000
3300
0000
1000
0001
0000
0000
0010
0000
0100
0000
,
1000
0000
0000
0000
0001
0000
0000
0000
0100
0001
0000
0000
1000
0000
0100
0000
,
0020
0030
0020
0030
0200
0300
0200
0300
,
1001
0000
1000
0010
0001
0000
1000
0100
,
0001
0000
0010
0100
1000
0001
1000
0000
,
0010
0000
0000
0000
1000
0000
0001
0000
0010
0000
0000
0010
0100
0000
0000
0000
,
1000
0000
0001
0100
1000
0100
0001
0000
,
1000
0000
0001
0010
1000
0000
0001
0100
,
1000
0000
0010
1000
0001
0010
0100
0000
,
1000
0001
1000
0001
0010
0100
0010
0100
,
2000
0000
3000
0010
1000
0001
0020
0000
,
0130
1100
1000
1001
,
0001
0101
0100
0110
,
0001
0001
1000
1000
,
0001
0000
1000
0000
0001
1000
0001
1000
0001
1000
0001
1000
0000
0000
0000
0000
,
1100
0100
0010
0001
,
1000
0000
0001
0000
0010
0000
1000
0010
,
0001
1000
0010
1000
,
0001
0000
0000
0000
0010
0000
0000
0000
0100
0010
0000
0000
0001
0000
1000
0000
,
0100
1000
0001
0010
,
1000
0000
0000
0000
0010
0000
0000
0000
0001
0010
0000
0000
0100
0000
1000
0000
,
0001
0100
0010
0100
,
0001
0000
0000
0000
1000
0000
0000
0000
0100
0010
0000
0000
0001
0000
0000
0000
,
1000
0000
1001
0001
0100
0010
0100
0001
,
0010
0000
1100
0100
1000
0001
1000
0100
,
0010
0000
0011
0010
0001
1000
0010
0100
,
0001
0000
0101
0001
1000
0010
1000
0001
,
0010
0000
1001
1000
0010
1000
0001
0010
,
0100
0000
1100
0100
1000
0001
1000
0100
,
0010
0000
0001
0000
0010
0001
0010
0000
,
0011
0000
0000
0000
0000
0000
0000
1001
0000
0000
1010
0000
2000
0000
3000
0000
,
1001
0000
0010
0000
0001
0010
0100
0010
,
0001
0000
0101
0000
1000
0000
0001
0100
,
1000
0100
0001
0000
1000
0000
0100
0010
,
0100
0000
1000
0000
0001
1000
0001
0000
,
0100
0000
0010
0000
1000
0100
0001
0100
,
1000
0000
0000
0000
0001
0000
0000
0000
0010
0100
0000
0000
1000
0000
0001
0000
,
1000
0100
0000
0000
1001
0000
0000
0000
0001
0100
0000
0000
1001
0000
0010
0000
,
0001
0000
0100
0001
1000
0000
1100
0000
,
0201
0000
1300
0100
0002
0000
2003
0000
,
3020
0000
0000
0000
0130
0000
0010
0000
1000
0000
0000
0100
0010
0000
0100
0000
,
1000
0000
0000
0000
0001
0000
0100
0000
0001
0000
0000
0001
1000
0000
0001
0000
,
0100
0000
0000
0000
1001
0000
0100
0000
1000
0000
0000
0100
0010
0000
0001
0000
,
1000
0000
1001
0001
0100
0000
1010
0001
,
1000
0000
0110
0100
0001
1000
0200
0000
,
0310
0100
0010
0100
1000
0100
1000
0100
,
0020
0000
1030
0010
0001
1000
0002
0000
,
0003
0000
0000
0000
;

//---------------dance-single - ----------------
#NOTEDATA:;
#CHARTNAME:X-Scale 15;
#STEPSTYPE:dance-single;
#DESCRIPTION:;
#CHARTSTYLE:;
#DIFFICULTY:Hard;
#METER:10;
#RADARVALUES:0.592496,0.689876,0.271023,0.386002,0.275129,505.000000,472.000000,33.000000,47.000000,0.000000,0.000000,7.000000,0.000000,0.000000,0.592496,0.689876,0.271023,0.386002,0.275129,505.000000,472.000000,33.000000,47.000000,0.000000,0.000000,7.000000,0.000000,0.000000;
#CREDIT:iamthek3n;
#NOTES:
0000
0000
0000
0000
,
0000
0000
0000
0000
,
1100
0000
0000
0000
0100
1000
0000
0000
0001
0000
0000
0000
0100
0001
0000
0000
,
1000
0000
0000
0000
0010
0100
0000
0000
0001
0000
0000
0000
0010
0001
0000
0000
,
2000
0000
0100
0000
0000
0000
3100
0000
0000
0000
1000
0000
0001
1000
0000
0000
,
0020
0100
0000
0130
0000
0010
0000
0100
,
0001
0000
0000
0000
1000
0001
0000
0000
0100
0000
0000
0000
0010
0100
0000
0000
,
0001
0000
0000
0000
1000
0001
0000
0000
0100
0000
0000
0000
0001
0010
0000
0000
,
0200
0000
1000
0000
0000
0000
1300
0000
0000
0000
0001
0000
0100
0001
0000
0000
,
2000
0000
0000
0000
0000
0000
0010
0000
0000
0000
0000
0000
0000
0000
0000
0000
0000
0000
3010
0000
0000
0000
1000
0000
0000
0000
0000
0000
0000
1000
0000
0000
0000
0000
0000
0000
0001
0000
0000
0000
0000
0000
0000
0000
0000
0000
0000
0000
,
1001
1000
0010
1000
0001
0010
0100
0010
,
0001
1000
0010
0100
1000
0100
0010
1000
,
0002
0100
0000
0103
0001
1000
0100
1000
,
0020
0001
0000
0031
0010
1000
0001
1000
,
1100
0000
0000
0000
1000
0001
0000
0000
1001
0000
0000
0000
0001
0100
0000
0000
,
0101
0000
0000
0000
1000
0100
0000
0000
1100
0000
0000
0000
1001
0000
1000
0000
,
0020
0100
0100
0230
0301
0010
0100
1000
,
0010
1000
0001
0100
0010
1000
0100
0010
0001
0010
0100
0010
0004
0000
0003
0000
,
0011
0001
1000
0040
1030
0100
0001
0100
,
1000
0000
0000
0000
1001
0000
0010
0000
0001
0010
0000
0000
0100
0010
0001
1000
,
0001
0000
1000
0000
1001
0000
0000
0000
0010
0000
1000
0000
0001
1000
0000
0000
,
0100
0001
0100
1000
0100
0010
0010
0001
,
0011
0000
0000
0000
0010
0000
0100
0000
1000
0100
0000
0000
1000
0000
0001
0000
,
0100
0000
0000
0000
0404
0000
0303
0000
0001
0010
0000
0000
0100
0010
0000
0000
,
0001
1000
0000
0000
0010
0000
1000
0000
0100
0010
0000
0000
0100
1000
0000
0000
,
0001
0100
1000
0100
0001
0100
0010
1000
,
1002
0000
0103
0001
0020
0000
2030
0000
,
3200
0000
0000
0000
0301
0000
1000
0000
0001
0000
0000
0010
0200
0000
0010
0000
,
0302
0000
1003
0010
0002
0000
0203
0000
,
2300
0000
0000
0000
3001
0000
1000
0000
0001
0000
0000
0100
0020
0000
0100
0000
,
2030
0000
3001
0100
2000
0000
3001
0010
,
2000
0000
3100
0001
0100
0010
0200
1000
,
1300
0100
0010
1000
0001
0100
0010
0001
,
1000
0010
0100
0001
0010
0100
1000
0010
0100
0001
1000
0100
0020
0000
0000
0000
,
0031
0101
1000
1001
,
0100
0101
0001
0011
,
0001
0001
1000
1000
0100
0100
0010
0010
,
0001
0000
0001
0000
0001
0100
0001
0100
0001
0100
0001
0100
0001
0000
0000
0000
,
1001
0000
1000
0000
0100
0010
0001
0000
,
1000
0000
0000
0000
1100
0000
0000
0000
1000
0200
0000
0000
0301
0000
0100
0000
,
1000
0000
1001
0000
1000
0010
0100
0000
,
0001
0000
0000
0000
1001
0000
0000
0000
0001
0200
0000
0000
1300
0000
0100
0000
,
0001
0000
0101
0000
1000
0001
0100
0000
,
0001
0000
0000
0000
1001
0000
0000
0000
1000
0200
0000
0000
0301
0000
0100
0000
,
1000
0000
1001
0000
1000
0001
0100
0000
,
0001
0000
0000
0000
0011
0000
0000
0000
0001
0020
0000
0000
0130
0000
0000
0000
,
1000
0200
0300
0100
0001
0000
0101
1000
,
0001
0200
0300
0100
1000
0000
1100
0001
,
1000
0200
0300
0100
0001
0000
0101
1000
,
0001
0020
0030
0010
1000
0000
1001
0000
,
1000
0020
0030
0010
0001
0200
0300
0100
,
1000
0020
0030
0010
0001
1000
0010
1000
,
0001
0001
1000
1000
0010
0010
0100
0100
,
0001
0010
0100
1000
0001
0100
0010
1000
0100
0010
0100
1000
0004
0000
0003
0000
,
0011
0000
0000
0000
0100
0000
0001
0000
1000
0000
0100
0000
0001
0100
0000
0000
,
1002
0000
0000
0000
0103
0000
0001
0000
1000
0100
0000
0000
1000
0010
0100
0001
,
1000
0000
0010
0000
1000
0000
0001
0000
0010
0100
0000
0000
1000
0000
0100
0000
,
0001
0100
1000
0100
0010
0001
1000
0001
,
0100
0000
0000
0000
0001
0000
1000
0000
0001
0010
0000
0000
0100
0000
1000
0000
,
0001
0000
0100
0000
0440
0000
0330
0000
1000
0001
0000
0000
0010
1000
0000
0000
,
0010
0001
0000
0000
1000
0000
0001
0000
0010
0100
0000
0000
1000
0100
0000
0000
,
0001
1000
0010
0001
0100
0001
0010
0100
,
2100
0000
3001
1000
0020
0000
0031
0010
,
2000
0000
0000
0000
3001
0000
1000
0000
0020
0000
0030
0100
0002
0000
0100
0000
,
1003
0000
0000
0000
0010
0000
1000
0000
0100
0000
0000
0100
0010
0000
0001
0000
,
2000
0000
0000
0000
3100
0000
1000
0000
0001
0000
0000
0001
0100
0000
0001
0000
,
2000
0000
3100
0010
0002
0000
0103
0001
,
0020
0000
1030
0010
0100
1000
0002
0010
,
1003
0100
0001
0100
1000
0010
0001
0010
,
2000
0000
3010
0100
0001
0010
0200
0000
,
0300
0000
0000
0000
;

//---------------dance-single - ----------------
#NOTEDATA:;
#CHARTNAME:X-Scale 3;
#STEPSTYPE:dance-single;
#DESCRIPTION:;
#CHARTSTYLE:;
#DIFFICULTY:Beginner;
#METER:2;
#RADARVALUES:0.139618,0.172469,0.000000,0.000000,0.000000,119.000000,119.000000,0.000000,0.000000,0.000000,0.000000,0.000000,0.000000,0.000000,0.139618,0.172469,0.000000,0.000000,0.000000,119.000000,119.000000,0.000000,0.000000,0.000000,0.000000,0.000000,0.000000,0.000000;
#CREDIT:iamthek3n;
#NOTES:
0000
0000
0000
0000
,
0000
0000
0000
0000
,
0001
0000
1000
0000
,
0001
0000
1000
0000
,
0100
0000
0010
0000
,
0100
0000
0010
0000
,
0001
0000
1000
0000
,
0001
0000
1000
0000
,
0010
0000
0100
0000
,
0010
0000
0100
0000
,
0001
0000
1000
0000
,
0001
0000
1000
0000
,
0100
0000
0010
0000
,
0100
0000
0010
0000
,
0001
0000
1000
0000
,
0001
0000
1000
0000
,
0100
0000
0000
0000
,
0010
0000
0000
0000
,
0001
0000
0100
0000
,
0010
0000
1000
0000
,
0010
0000
0100
0000
,
0001
0000
0010
0000
,
0100
0000
1000
0000
,
0100
0000
0010
0000
,
0001
0000
1000
0000
,
0010
0000
1000
0000
,
0001
0000
0010
0000
,
0001
0000
1000
0000
,
0001
0000
0010
0000
,
0001
0000
1000
0000
,
0010
0000
0100
0000
,
0001
0000
0010
0000
,
0100
0000
1000
0000
,
0001
0000
1000
0000
,
0001
0000
0000
0000
,
1000
0000
0000
0000
,
0001
0000
0000
0000
,
1000
0000
0000
0000
,
0100
0000
0000
0000
,
0010
0000
0000
0000
,
0100
0000
0000
0000
,
0010
0000
0000
0000
,
0001
0000
0000
0000
,
1000
0000
0000
0000
,
0001
0000
0000
0000
,
1000
0000
0000
0000
,
0010
0000
0000
0000
,
0100
0000
0000
0000
,
0010
0000
0000
0000
,
0100
0000
0000
0000
,
0001
0000
0000
0000
,
1000
0000
0000
0000
,
0001
0000
0000
0000
,
1000
0000
0000
0000
,
0001
0000
0100
0000
,
0010
0000
1000
0000
,
0100
0000
0010
0000
,
0001
0000
1000
0000
,
0001
0000
0010
0000
,
0100
0000
1000
0000
,
0010
0000
0100
0000
,
0001
0000
1000
0000
,
0001
0000
0010
0100
,
0010
0000
0001
0000
,
1000
0000
0100
0010
,
0100
0000
1000
0000
,
0001
0000
0100
0000
,
0001
0000
1000
0010
,
1000
0000
0001
0000
,
0100
0000
0010
0100
,
0010
0000
0000
0000
;
