#TITLE:永久のキズナ;
#SUBTITLE:;
#ARTIST:Daisy×Daisy feat. Another Infinity;
#TITLETRANSLIT:Towa no Kizuna;
#SUBTITLETRANSLIT:;
#ARTISTTRANSLIT:DaisyxDaisy feat. Another Infinity;
#GENRE:J-Trance Pop;
#CREDIT:;
#BANNER:Towa no Kizuna-bn.png;
#BACKGROUND:Towa no Kizuna-bg.png;
#LYRICSPATH:;
#CDTITLE:cdtitle.png;
#MUSIC:Towa no Kizuna.ogg;
#OFFSET:-0.004000;
#SAMPLESTART:15.004000;
#SAMPLELENGTH:20.000000;
#SELECTABLE:YES;
#BPMS:0.000000=144.000000
;
#STOPS:
;
#BGCHANGES:0.000=Towa no Kizuna.avi=1.000=1=0=0=StretchNoLoop==CrossFade==,
248.000=Towa no Kizuna-bg.png=1.000=1=0=1===CrossFade==,
99999=-nosongbg-=1.000=0=0=0 // don't automatically add -songbackground-
;
#KEYSOUNDS:;
#ATTACKS:;

//---------------dance-single - ----------------
#NOTES:
     dance-single:
     X-Scale 3:
     Beginner:
     2:
     0.136205,0.163901,0.028320,0.018880,0.000000,101.000000,98.000000,3.000000,2.000000,0.000000,0.000000,0.136205,0.163901,0.028320,0.018880,0.000000,101.000000,98.000000,3.000000,2.000000,0.000000,0.000000:
0000
0000
0000
0000
,
0000
0000
0000
0000
,
0000
0000
0000
0000
,
0000
0000
0000
0000
,
0001
0000
0000
0000
,
0010
0000
0000
0000
,
0100
0000
0000
0000
,
1000
0000
0000
0000
,
1001
0000
0000
0000
,
0001
0000
1000
0000
,
0001
0000
0100
0000
,
0001
0000
1000
0000
,
0010
0000
1000
0000
,
0001
0000
1000
0000
,
0100
0000
0010
0000
,
0001
0000
0010
0000
,
0100
0000
1000
0000
,
0001
0000
0100
0000
,
0001
0000
1000
0000
,
0010
0000
1000
0000
,
0001
0000
0010
0000
,
0100
0000
0010
0000
,
0001
0000
1000
0000
,
0001
0000
0100
0000
,
0001
0000
0010
0000
,
0100
0000
1000
0000
,
0010
0000
1000
0000
,
0100
0000
0010
0000
,
0001
0000
1000
0000
,
0001
0000
0100
0000
,
0010
0000
1000
0000
,
0001
0000
1000
0000
,
0100
0000
0010
0000
,
0001
0000
0000
0000
,
1001
0000
1000
0000
,
0010
0000
1000
0000
,
0001
0000
0100
0000
,
0001
0000
0010
0000
,
0100
0000
1000
0000
,
0100
0000
0010
0000
,
0001
0000
1000
0000
,
0001
0000
0100
0000
,
0010
0000
1000
0000
,
0001
0000
1000
0000
,
0010
0000
1000
0000
,
0100
0000
0010
0000
,
0001
0000
0010
0000
,
0100
0000
1000
0000
,
0001
0000
0100
0000
,
0001
0000
0010
0000
,
0100
0000
0000
0000
,
1000
0000
0000
0000
,
0001
0000
0000
0000
,
1000
0000
0000
0000
,
0100
0000
1000
0000
,
0001
0000
0100
0000
,
0001
0000
1000
0000
,
2001
0000
0000
0000
0002
0000
0000
3003
;

//---------------dance-single - ----------------
#NOTES:
     dance-single:
     X-Scale 8:
     Easy:
     6:
     0.373551,0.382435,0.066080,0.254878,0.000000,277.000000,270.000000,7.000000,27.000000,0.000000,0.000000,0.373551,0.382435,0.066080,0.254878,0.000000,277.000000,270.000000,7.000000,27.000000,0.000000,0.000000:
0000
0000
0000
0000
,
0000
0000
0000
0000
,
0000
0000
0000
0000
,
0000
0000
0000
0000
,
1000
0010
1000
0001
,
1000
0010
1000
0001
,
0010
0100
0010
0001
,
0010
0100
0010
0001
,
2002
0000
0000
3003
,
0100
0000
1000
0100
0010
0000
0100
0010
,
0001
0000
1000
0001
0010
0000
0100
1000
,
0001
0000
1000
0010
1000
0000
0001
0100
,
0001
0000
1000
0001
0020
0000
0130
0010
,
0001
0000
1000
0001
0100
0000
0001
0010
,
0100
0000
1000
0001
1000
0000
0100
0010
,
0200
1000
0320
0100
,
2030
0010
3002
0100
,
1003
0000
0010
1000
0001
0000
0010
0100
,
1000
0000
0010
1000
0001
0000
0010
0100
,
1000
0000
0001
1000
0100
0000
0010
0100
,
1000
0000
0001
1000
0010
0000
0100
0001
,
1001
1000
0010
1000
,
0100
0000
0010
0000
0100
0000
1000
0100
,
0010
0001
1000
0001
,
0100
0000
0001
0000
0010
0000
0100
0010
,
0001
1000
0001
0100
,
0001
0000
1000
0000
0001
0000
0010
0100
,
1000
0010
1000
0001
,
1000
0000
0100
0000
0010
0000
0100
0010
,
0002
0100
2003
0100
,
3002
0100
1000
0203
,
0320
1000
0230
0010
,
0301
0100
0001
1000
0000
0100
0010
0001
,
0022
0000
0000
0033
1000
0000
0001
0000
,
1001
0000
1000
0001
0100
0000
0010
0100
,
0001
0000
0010
0100
1000
0000
0100
0010
,
0001
0000
1000
0010
1000
0000
0001
0010
,
0001
0000
1000
0001
0200
0000
0301
0010
,
0100
0000
1000
0001
0100
0000
0010
0100
,
0001
0000
1000
0010
1000
0000
0100
0010
,
0200
1000
0320
0100
,
0032
0000
2003
0000
3020
0000
0130
0010
,
1000
0000
1000
0001
0100
0000
0001
0010
,
0100
0000
1000
0001
0100
0000
0010
0100
,
0010
0000
1000
0001
1000
0000
0100
0010
,
0001
0000
0010
0100
2000
0000
3010
1000
,
0001
0000
0100
0001
1000
0000
0010
0100
,
0010
0000
1000
0001
1000
0000
0001
0010
,
0200
0010
2300
0010
,
3002
0100
2003
0100
,
3010
0000
0100
0000
0010
0000
0100
0001
,
1000
0000
0010
0000
1000
0000
0010
1000
,
0001
0000
0000
1001
0000
0000
0001
0010
,
0100
0000
0000
0000
2000
0000
3100
0010
,
0001
0000
1000
0000
0001
0000
0100
0001
,
1000
0000
0001
0000
0010
0000
0100
0010
,
0001
0000
0000
1001
0000
0000
1000
0100
,
0010
0000
0001
1000
0001
0000
1000
1001
;

//---------------dance-single - ----------------
#NOTES:
     dance-single:
     X-Scale 13:
     Medium:
     9:
     0.605504,0.671710,0.132159,0.320958,0.438957,449.000000,435.000000,14.000000,34.000000,0.000000,0.000000,0.605504,0.671710,0.132159,0.320958,0.438957,449.000000,435.000000,14.000000,34.000000,0.000000,0.000000:
0000
0000
0000
0000
,
0000
0000
0000
0000
,
0000
0000
0000
0000
,
0000
0000
0000
0000
,
0001
0000
0000
0000
0100
0000
0001
0000
0000
1000
0000
0000
0001
0000
0010
0000
,
0100
0000
0000
0000
1000
0000
0010
0000
0000
1000
0000
0000
0001
0000
1000
0000
,
0100
0000
0000
0000
0010
0000
0001
0000
0000
0100
0000
0000
0001
0000
0010
0000
,
0100
0000
0000
0000
1000
0000
0001
0000
0000
0100
0000
0000
0001
0000
1000
0000
,
2002
0000
0000
0000
0000
0000
3003
0000
1000
0100
0000
0100
0001
0000
0100
0000
,
1000
0001
0100
0001
1000
0100
0001
0100
,
0010
0000
0100
0000
1000
0000
0001
0200
0000
0000
0000
0000
1300
0000
0100
0000
,
0001
1000
0001
0010
1000
0010
0001
1000
,
1100
0000
0110
0000
1001
0000
1000
0010
,
1000
0100
0001
1000
0010
0100
1000
0001
,
0100
0000
0001
0000
1000
0000
0001
0020
0000
0000
0000
0000
0130
0000
0010
0000
,
0001
0000
0000
0100
0000
0000
0010
0000
0100
0000
1000
0000
0100
0000
0001
0000
,
1000
0010
0100
1000
0001
0010
0100
0001
,
0101
0000
0001
1000
0000
0000
0010
0000
0000
1000
0000
0000
0100
0000
0010
0000
,
0001
0000
1000
0001
0000
0000
0100
0000
0000
0010
0000
0000
0001
0000
0010
0000
,
1000
0000
0001
0100
0000
0000
0010
0000
0000
0100
0000
0000
1000
0000
0100
0000
,
0001
0000
1000
0001
0000
0000
0100
0000
0000
0001
0000
0000
1000
0000
0100
0000
,
1100
0000
1000
0000
0001
0000
0010
0000
0100
0000
0010
0002
0000
0000
1003
0000
,
0001
0000
0010
0000
1000
0000
0010
0200
0000
0000
1300
0000
0100
0000
0001
0000
,
1000
0000
0010
0000
0001
0000
1000
0000
0001
0000
0100
0020
0000
0000
0031
0000
,
0010
0000
1000
0000
0001
0000
0100
0020
0000
0000
0130
0000
0010
0000
0001
0000
,
1000
0000
0100
0000
0010
0000
1000
0000
0001
0000
1000
0020
0000
0000
0031
0000
,
0010
0000
0100
0000
0010
0000
1000
0002
0000
0000
0103
0000
0001
0000
1000
0000
,
0100
0000
0001
0000
1000
0000
0010
0000
0100
0000
1000
0200
0000
0000
0310
0000
,
0010
0000
0001
0010
0000
0000
1000
0010
0000
0000
0001
0010
0100
0000
0100
0000
,
2001
0000
0000
0100
0000
0000
0010
0000
3020
0000
0000
0001
0000
0000
0100
0000
,
0230
0000
0000
0010
0000
0000
0001
0000
0301
0000
0100
0000
1000
0000
0100
0000
,
0001
0000
0100
0000
0001
0000
1000
0100
0010
0000
0001
0000
0100
0000
0001
1000
,
0020
0000
0000
0230
0000
0000
0302
0000
2003
0000
0000
0000
0010
0000
0000
0000
,
0001
0000
0000
0000
0000
0020
0030
0000
3010
1000
0001
1000
0010
1000
0001
1000
,
0010
0000
1000
0000
0001
0000
0100
0002
0000
0000
1003
0001
0100
0000
0010
0000
,
0001
0000
0010
0000
1000
0000
0010
0200
0000
0000
0000
0000
1300
0000
0100
0000
,
0001
0000
1000
0000
0001
0000
0010
0200
0000
0000
1300
0000
0100
0000
0001
0000
,
1000
0010
0100
1000
0002
0000
0103
0100
,
0100
0000
0001
0000
1000
0000
0001
0020
0000
0000
0130
0010
0001
0000
1000
0000
,
0001
0000
0100
0000
0001
0000
0010
0200
0000
0000
0000
0000
1300
0000
0100
0010
,
0001
0000
0000
0100
0001
0000
1000
0000
0001
0000
0100
0000
0010
0000
0100
0000
,
0002
0000
0000
0000
2003
0000
0000
0000
3200
0000
0010
0000
0310
0100
0010
0100
,
0010
0000
0001
0000
1000
0000
0010
2000
0000
0000
3001
0010
0100
0000
0010
0000
,
0001
0000
1000
0000
0010
0000
1000
0002
0000
0000
0000
0000
0103
0000
0001
0100
,
1000
0000
0100
0000
0001
0000
1000
0020
0000
0000
0130
0010
1000
0000
0001
0000
,
0010
1000
0010
0100
2000
0000
3001
0001
,
0001
0000
0100
0000
0001
0000
1000
0200
0000
0000
0301
0100
1000
0000
0001
0000
,
0100
0000
0001
0000
1000
0000
0001
0200
0000
0000
0000
0000
1300
0000
0100
0000
,
0001
0000
0000
1000
0001
0000
0100
0000
0010
0000
1000
0000
0001
0000
0010
0000
,
0100
0000
1000
0000
0001
0000
1000
0000
0100
0010
0100
0010
0100
1000
0100
1000
,
0100
0000
0000
0010
0000
0000
0011
0000
0000
1010
0000
0000
0001
0000
1000
0000
,
0001
0000
0000
0100
0000
0000
0101
0000
0000
1001
0000
0000
0100
0000
0001
0000
,
0101
0000
0000
0010
0000
0000
0110
0000
0000
1000
0000
0000
0001
0000
0010
0000
,
0011
0000
0001
1000
0000
0000
0010
0000
1000
0000
0000
0100
0000
0000
0010
0000
,
0001
0000
0100
0001
0100
0000
0010
0000
1000
0100
0000
0100
0010
0000
0100
0000
,
1000
0000
0001
0100
0001
0000
0010
0000
0100
1000
0000
0100
0010
0000
0001
0000
,
1000
0000
0010
1000
0010
0000
1000
0000
0001
0100
0000
0100
1000
0000
0100
0000
,
0001
0000
0100
0001
0000
1000
0010
0000
0100
0001
1000
0001
0100
0001
1000
0000
,
0000
0000
0000
0100
0000
0000
0100
0000
0000
0000
0000
1000
0000
0000
1000
0000
,
0000
0000
0000
0001
0000
0000
0001
0000
0000
0000
0000
0100
0000
0000
0100
0000
,
0000
0000
0000
0010
0000
0000
0010
0000
0000
0000
0000
1000
0000
0000
1000
0000
,
0000
0000
0000
0001
0000
0000
0001
0000
0000
0000
0000
1000
0000
0000
1000
0000
;

//---------------dance-single - ----------------
#NOTES:
     dance-single:
     X-Scale 15:
     Hard:
     10:
     0.720132,0.730120,0.254878,0.084959,0.599436,534.000000,507.000000,27.000000,9.000000,0.000000,0.000000,0.720132,0.730120,0.254878,0.084959,0.599436,534.000000,507.000000,27.000000,9.000000,0.000000,0.000000:
// measure 0
0000
0000
0000
0000
,  // measure 1
0000
0000
0000
0000
,  // measure 2
0000
0000
0000
0000
,  // measure 3
0000
0000
0000
0000
,  // measure 4
1000
0000
0100
0010
0000
0000
0001
0000
0000
1000
0000
1000
0010
0000
0100
0000
,  // measure 5
1000
0000
0100
0010
0000
0000
1000
0000
0000
0001
0000
0001
0100
0000
0010
0000
,  // measure 6
1000
0000
0001
0010
0000
0000
0100
0000
0000
0010
0000
0010
0001
0000
1000
0000
,  // measure 7
0001
0000
0010
0100
0000
0000
1000
0000
0000
0010
0000
0010
1000
0000
0001
0000
,  // measure 8
0201
0000
0000
0001
0000
0000
0010
0000
0310
0100
0010
0100
0001
1000
0001
1000
,  // measure 9
0100
0000
1000
0000
0001
0000
0100
0001
0000
0000
1000
0000
0100
0000
0001
0000
,  // measure 10
0100
0000
0010
0000
0100
0000
1000
0100
0000
0000
1000
0000
0001
0000
0100
0000
,  // measure 11
0010
0000
0001
0000
0010
0000
1000
0010
0000
0000
0100
0000
0010
0000
1000
0000
,  // measure 12
0001
0100
0010
0001
0010
1000
0001
0001
,  // measure 13
0001
0000
0010
0000
0100
0000
1000
0001
0000
0000
0100
0000
0001
0000
0010
0000
,  // measure 14
1000
0000
0001
0000
0100
0000
0010
0100
0000
0000
1000
0000
0001
0000
1000
0000
,  // measure 15
1010
0000
0000
1000
0000
0000
0001
0000
0101
0000
0000
0000
0100
0000
0010
0000
,  // measure 16
1001
0000
1000
0000
0001
0000
1000
0000
0010
0100
0010
0100
0001
1000
0001
1000
,  // measure 17
0100
0000
1000
0010
0000
1000
0001
0000
0100
0010
0000
0010
0001
0000
0010
0000
,  // measure 18
1000
0000
0001
0100
0000
0010
1000
0000
0001
0010
0000
0010
1000
0000
0010
0000
,  // measure 19
0001
0000
1000
0001
0000
0100
0010
0000
1000
0010
0000
0010
0001
0000
0010
0000
,  // measure 20
1000
0000
0001
0100
0000
0100
0001
0000
0001
0100
0010
1000
0001
0010
0100
1000
,  // measure 21
0001
0000
0100
0000
0010
0000
0100
0000
0001
0000
1000
0020
0000
0000
1030
0000
,  // measure 22
0001
0000
0100
0000
0001
0000
0010
0200
0000
0000
0301
0000
0100
0000
1000
0000
,  // measure 23
0001
0000
0100
0000
0010
0000
1000
0000
0100
0000
1000
0020
0000
0000
0130
0000
,  // measure 24
1000
0000
0100
0000
0001
0000
0010
0200
0000
0000
1300
0000
0001
0000
0001
0000
,  // measure 25
0001
0000
0100
0000
1000
0000
0100
0000
0010
0000
1000
0002
0000
0000
0103
0000
,  // measure 26
1000
0000
0100
0000
0001
0000
1000
0200
0000
0000
0301
0000
0100
0000
1000
0000
,  // measure 27
0010
0010
0100
0100
0001
0001
1000
1000
,  // measure 28
1001
0000
0010
0000
1000
0000
0001
0000
0100
0010
1000
0001
0010
0100
1000
0001
,  // measure 29
0100
0000
0000
0100
1000
0000
0100
0000
0001
0000
1000
0001
0100
0000
0010
0000
,  // measure 30
1000
0000
0000
1000
0001
0000
0100
0000
0001
0000
0010
0000
1000
0000
0010
0000
,  // measure 31
0001
0000
0001
0000
1000
0000
1000
0001
0100
0000
0100
0000
0010
0000
0010
1000
,  // measure 32
0001
0000
0000
0100
0000
0000
0001
0000
0200
0000
0010
0000
0000
0000
0310
0000
,  // measure 33
0110
0000
0000
0001
0000
4000
3000
0001
0100
0010
0100
0001
0010
0100
1000
0000
,  // measure 34
1001
0000
0100
0000
0001
0000
1000
0100
1000
0000
0010
0000
0100
0000
1000
0100
,  // measure 35
0001
0000
1000
0000
0010
0000
0100
0010
0001
0000
0010
0000
1000
0000
0001
1000
,  // measure 36
0010
0000
0100
0000
0001
0000
1000
0100
0010
0000
0001
0000
0100
0000
0010
0000
,  // measure 37
0110
1000
1001
0010
1010
1000
1001
0001
,  // measure 38
0001
0000
0100
0000
0010
0000
1000
0001
0100
0000
0001
0000
1000
0000
0001
0010
,  // measure 39
0100
0000
0001
0000
0100
0000
1000
0100
0010
0000
0001
0000
1000
0000
0001
1000
,  // measure 40
0010
0000
0000
1000
0001
0000
0010
0000
1000
0000
0001
0000
0100
0000
0010
0000
,  // measure 41
0001
0000
0100
0000
0001
0000
1000
0010
0100
0010
1000
0001
0100
0001
1000
0001
,  // measure 42
0100
0000
0010
0000
1000
0000
0001
1000
0010
0000
0100
0000
0001
0000
1000
0001
,  // measure 43
0100
0000
0010
0000
0100
0000
0001
0010
0100
0000
0001
0000
0100
0000
1000
0000
,  // measure 44
0001
0000
0100
0000
0001
0000
1000
0001
0100
0000
0010
0000
1000
0000
0100
0000
,  // measure 45
1100
0001
1001
0100
0101
0001
1001
1000
,  // measure 46
1000
0000
0100
0000
0001
0000
0100
0010
0001
0000
1000
0000
0001
0000
0100
0001
,  // measure 47
1000
0000
0001
0000
0100
0000
1000
0100
0001
0000
1000
0000
0010
0000
0100
0010
,  // measure 48
0001
0000
0000
0010
1000
0000
0001
0000
1000
0000
0010
0000
1000
0000
0001
0000
,  // measure 49
0010
0000
1000
0000
0010
0000
0001
0010
0100
1000
0010
0100
0001
1000
0001
0100
,  // measure 50
0001
0000
1000
0001
0000
0000
0101
0000
0000
0110
0000
0000
1100
0000
0001
0000
,  // measure 51
1000
0000
0010
0100
0000
0000
0110
0000
0000
1001
0000
0000
1010
0000
1000
0000
,  // measure 52
1001
0000
1000
0001
0000
0000
0011
0000
0001
0100
0000
0100
1000
0000
0100
0000
,  // measure 53
1001
0000
0100
0001
0000
1000
0100
0000
4000
0000
3001
0100
0010
0100
0001
0000
,  // measure 54
0101
0000
0001
0100
0000
0100
1000
0000
0100
0010
0000
0100
0001
0000
1000
0000
,  // measure 55
0001
0000
0100
0010
0000
0010
0001
0000
0010
1000
0000
0010
0100
0000
0001
0000
,  // measure 56
1000
0000
0100
0000
1000
0000
1100
0000
1000
0001
0000
0100
0010
0000
0100
0000
,  // measure 57
1001
0000
0000
0000
0010
0000
0010
0000
1000
0001
0100
0010
1000
0000
0002
0000
,  // measure 58
0000
0000
0000
0100
0000
0000
0100
0000
0000
0000
0000
1000
0000
0000
1000
0000
,  // measure 59
0000
0000
0000
0010
0000
0000
0010
0000
0000
0000
0000
1000
0000
0000
1000
0000
,  // measure 60
0000
0000
0000
0100
0000
0000
0100
0000
0000
0000
0000
1000
0000
0000
1000
0000
,  // measure 61
0000
0000
0000
0010
0000
0000
0010
0000
0000
0000
0000
0100
0000
0000
0103
0000
;

//---------------dance-single - ----------------
#NOTES:
     dance-single:
     X-Scale 14 (DANCERUSH Special):
     Challenge:
     9:
     0.404568,0.525686,0.235998,0.339837,0.099119,300.000000,275.000000,25.000000,36.000000,204.000000,0.000000,0.404568,0.525686,0.235998,0.339837,0.099119,300.000000,275.000000,25.000000,36.000000,204.000000,0.000000:
// measure 0
0000
0000
0000
0000
,  // measure 1
0000
0000
0000
0000
,  // measure 2
0000
0000
0000
0000
,  // measure 3
0000
0000
0000
0000
,  // measure 4
0001
0000
0000
0000
0000
0000
1000
0000
0000
0010
0000
0000
1000
0000
0100
0000
,  // measure 5
0010
0000
0000
0000
0000
0000
0001
0000
0000
0100
0000
0000
0010
0000
0100
0000
,  // measure 6
0220
0000
0330
2002
0000
3003
0100
1000
,  // measure 7
1100
0000
0000
0000
0000
0000
1000
0000
0000
0100
0000
0000
1000
0000
0001
0000
,  // measure 8
2002
0000
0000
0000
0000
3003
L00L
0000
,  // measure 9
1000
MMMM
1000
MMMM
1000
MMMM
1000
MMMM
,  // measure 10
1000
0001
0100
0000
0100
0010
1000
0000
,  // measure 11
0001
MMMM
0001
MMMM
0001
MMMM
0001
MMMM
,  // measure 12
0001
0100
1000
0100
0020
0000
1030
1000
,  // measure 13
1000
MMMM
1000
MMMM
1000
MMMM
1000
MMMM
,  // measure 14
1000
0100
0010
0000
0010
0001
1000
0000
,  // measure 15
0002
0100
2003
0100
,  // measure 16
3010
0100
1000
0100
0001
0100
0010
1000
,  // measure 17
0001
MMMM
0001
MMMM
0001
0000
0010
0100
,  // measure 18
1000
MMMM
1000
MMMM
1000
0000
0100
0010
,  // measure 19
0001
MMMM
0001
MMMM
0001
0000
0100
0010
,  // measure 20
1000
MMMM
1000
MMMM
2000
0000
3010
1000
,  // measure 21
0001
0000
0000
0000
0100
0000
0010
0000
0100
0000
0000
0001
0000
0000
0000
0000
,  // measure 22
1000
0000
0001
0000
0100
0000
0000
0010
0000
0000
0010
0000
0100
0000
0001
0000
,  // measure 23
0010
0000
0000
0000
0100
0000
0010
0000
0001
0000
0000
1000
0000
0000
0000
0000
,  // measure 24
0010
0000
1000
0000
0001
0000
0000
0010
0000
0000
0001
0000
0100
0000
0010
0000
,  // measure 25
0100
0000
0000
0000
0001
0000
0010
0000
0100
0000
0000
1000
0000
0000
0000
0000
,  // measure 26
0001
0000
1000
0000
0010
0000
0000
1000
0000
0000
0100
0000
0010
0000
0001
0000
,  // measure 27
1000
0010
0001
0010
1000
0010
0001
0010
,  // measure 28
1000
0000
0001
0000
,  // measure 29
2001
0100
3020
0001
,  // measure 30
0230
0000
1000
0000
0310
0100
0001
1000
,  // measure 31
0200
0010
2300
0010
,  // measure 32
3001
0000
0000
0010
0000
0000
0100
0000
0020
0000
0000
0000
0001
0000
0000
0000
,  // measure 33
0100
0000
0230
1000
,  // measure 34
1300
MMMM
1000
MMMM
1000
0000
0100
0010
,  // measure 35
0001
MMMM
0001
MMMM
0001
0100
1000
0100
,  // measure 36
0001
MMMM
0001
MMMM
0001
0000
0100
0010
,  // measure 37
1000
MMMM
1000
MMMM
2000
0000
3001
0001
,  // measure 38
0001
MMMM
0001
MMMM
0001
0000
0100
0001
,  // measure 39
1000
MMMM
1000
MMMM
1000
0010
0001
0010
,  // measure 40
2000
0010
3002
0010
,  // measure 41
1003
0100
0001
0100
1000
0010
0100
0001
,  // measure 42
1000
MMMM
1000
MMMM
1000
0000
0110
0000
,  // measure 43
0001
MMMM
0001
MMMM
0001
0100
1000
0100
,  // measure 44
0001
MMMM
0001
MMMM
0001
0000
1001
0000
,  // measure 45
0100
1000
0001
0100
0020
0000
0031
0010
,  // measure 46
1000
MMMM
1000
MMMM
1000
0000
0110
0000
,  // measure 47
0001
MMMM
0001
MMMM
0001
0100
0010
1000
,  // measure 48
0200
0001
2300
0010
,  // measure 49
3001
0100
0010
1000
0002
0000
0100
0000
,  // measure 50
1003
0000
0000
0000
0000
0000
1100
0000
0000
0110
0000
0000
0101
0000
0M0M
0000
,  // measure 51
1010
0000
0000
0000
0000
0000
0110
0000
0000
1001
0000
0000
1100
0000
MM00
0000
,  // measure 52
0022
0000
0033
2002
0000
3003
0100
1000
,  // measure 53
1100
0000
0000
0000
0000
0000
1000
0000
0001
0000
0000
0010
0000
0000
0100
0000
,  // measure 54
1000
MMMM
1000
MMMM
1000
0000
0001
0100
,  // measure 55
0001
MMMM
0001
MMMM
0001
0000
0100
0010
,  // measure 56
0220
0000
0330
2002
0000
3003
0100
0001
,  // measure 57
0101
0000
0001
0020
0200
0000
0330
0LL0
,  // measure 58
0000
0000
0000
00M0
2002
0000
00M0
0000
0000
0000
0000
0M00
0000
0000
0M00
0000
,  // measure 59
0000
0000
0000
00M0
0000
0000
00M0
0000
0000
0000
0000
0M00
0000
0000
0M00
0000
,  // measure 60
0000
0000
0000
00M0
0000
0000
00M0
0000
0000
0000
0000
0M00
0000
0000
0M00
0000
,  // measure 61
0000
0000
0000
00M0
0000
0000
00M0
0000
0000
0000
0000
0M00
3003
0000
LM0L
0000
;
