#TITLE:Time Stops;
#SUBTITLE:;
#ARTIST:Virtual Riot feat. Danyka Nadeau;
#TITLETRANSLIT:;
#SUBTITLETRANSLIT:;
#ARTISTTRANSLIT:;
#GENRE:Melodic Dubstep;
#CREDIT:;
#BANNER:Time Stops-bn.png;
#BACKGROUND:Time Stops-bg.png;
#LYRICSPATH:;
#CDTITLE:cdtitle.png;
#MUSIC:Time Stops.ogg;
#OFFSET:-0.007000;
#SAMPLESTART:56.064999;
#SAMPLELENGTH:14.015000;
#SELECTABLE:YES;
#BPMS:0.000000=137.000000
;
#STOPS:
;
#BGCHANGES:;
#KEYSOUNDS:;
#ATTACKS:;

//---------------dance-single - ----------------
#NOTES:
     dance-single:
     X-Scale 11:
     Hard:
     8:
     0.418793,0.696147,0.201109,0.293929,0.112157,379.000000,353.000000,26.000000,38.000000,44.000000,0.000000,0.418793,0.696147,0.201109,0.293929,0.112157,379.000000,353.000000,26.000000,38.000000,44.000000,0.000000:
// measure 0
0000
0000
0000
0000
,  // measure 1
0000
0000
0000
0000
,  // measure 2
0000
0000
0000
0000
,  // measure 3
0000
0000
0000
0000
,  // measure 4
0000
0000
0000
0000
,  // measure 5
0000
0000
0000
0000
,  // measure 6
0000
0000
0000
0000
,  // measure 7
0000
0000
0000
0000
,  // measure 8
1100
0000
0000
1000
0000
0001
0010
1000
,  // measure 9
0010
0100
0010
0001
0020
0000
0000
0000
,  // measure 10
0130
0000
0000
0100
0020
0000
0031
1000
,  // measure 11
0200
0001
0000
0300
2000
0000
0000
0000
,  // measure 12
3001
0000
0000
0000
0000
0000
0001
0000
0200
0000
0000
0300
0020
0000
0000
0030
,  // measure 13
2000
0000
0001
0000
0000
0000
0000
3000
0200
0000
0000
0000
0320
0000
0000
0000
,  // measure 14
1000
0000
0000
1000
0000
0000
0031
0000
,  // measure 15
0000
0001
0000
0000
0100
0000
0000
0000
,  // measure 16
0110
0000
0010
0100
1000
0000
1000
0100
,  // measure 17
0010
0000
1000
0001
0020
0000
0100
0000
,  // measure 18
0031
0000
0010
0100
1000
0000
0001
1000
,  // measure 19
0100
0000
0010
0001
2000
0000
0010
0000
,  // measure 20
3001
0000
0000
0000
2000
0000
0000
3000
0200
0000
0000
0300
0002
0000
0000
0003
,  // measure 21
0100
0010
0001
0000
1000
0000
0002
0000
,  // measure 22
0100
0000
0000
0100
0000
0000
1003
0000
,  // measure 23
0000
1000
0100
0000
0010
0000
0001
0000
,  // measure 24
0011
0010
0100
1000
0001
0010
0100
1000
,  // measure 25
0001
0010
0100
1000
0001
0010
0100
1000
,  // measure 26
0010
0100
0001
1000
0010
0100
0001
1000
,  // measure 27
0010
0100
0001
1000
0010
0100
0001
1000
,  // measure 28
0100
0010
0002
0000
1000
0000
0010
0003
,  // measure 29
0001
0010
0100
1000
0001
0010
0100
1000
,  // measure 30
0001
1000
0001
1000
0001
1000
0001
1000
0100
0010
0100
0010
0100
0010
0100
0010
,  // measure 31
0004
0040
0000
0000
0000
0000
0000
0000
M033
0000
0M00
0000
00M0
0000
000M
0000
,  // measure 32
1001
1000
0100
0001
0100
0010
0100
1000
,  // measure 33
0100
0010
0001
1000
0001
0100
0010
1000
,  // measure 34
0001
0010
1000
0001
0100
1000
0001
1000
,  // measure 35
0100
0000
0001
0000
0100
0000
1000
0100
1000
0000
0001
0100
0000
0000
0001
0000
,  // measure 36
0101
0100
0010
1000
1010
00M0
0001
00M0
,  // measure 37
0001
1000
0100
1000
1010
00M0
0001
00M0
,  // measure 38
0001
0100
0010
1000
1010
M000
0001
M000
,  // measure 39
0001
0000
1000
0000
0100
0000
1000
0100
4000
0000
0000
0000
0000
0000
0000
3000
,  // measure 40
1020
0030
0020
0030
0220
0000
0000
0330
,  // measure 41
0102
0003
0002
0003
2002
0000
0000
3003
,  // measure 42
1001
0001
0010
0100
1000
0010
0100
0001
,  // measure 43
0010
0100
1000
0010
0100
0001
1000
0100
,  // measure 44
2100
0000
3000
0000
2000
0000
3000
0000
1000
0010
1000
0004
0003
0001
4000
3000
,  // measure 45
1002
0000
0000
0000
0000
0000
0003
0000
0000
0000
0000
0000
0002
0000
0000
0000
0000
0000
0003
0000
0000
0000
0000
0000
0101
0000
0000
0400
0000
0000
0000
0000
0000
0300
0000
0000
0000
0000
0000
0000
0400
0000
0000
0000
0000
0300
0000
0000
,  // measure 46
0101
0001
0010
0100
1000
0010
0100
0001
,  // measure 47
0010
0000
0100
0000
1000
0000
0010
0000
0100
0001
1000
0001
0100
0001
1000
0001
,  // measure 48
0100
0100
0100
0100
0110
1000
0001
0010
,  // measure 49
0100
1000
0010
0100
0002
0000
1000
0000
,  // measure 50
0013
0010
0010
0010
0011
1000
0001
0010
,  // measure 51
0110
0100
1000
0001
0012
0010
0010
0000
,  // measure 52
1003
1000
1000
1000
1002
0000
2003
0000
,  // measure 53
3020
0000
0000
0001
0031
0010
0100
0001
,  // measure 54
2000
0010
0001
0100
,  // measure 55
3001
1000
0001
1000
0100
0010
0100
0010
,  // measure 56
0011
0001
1000
0001
0010
0000
0100
0000
,  // measure 57
1100
0000
1000
0001
1000
0000
0100
0010
,  // measure 58
0001
0000
1000
0100
0001
1000
0010
0001
,  // measure 59
1000
0000
1000
0100
1000
0001
0001
0100
,  // measure 60
0020
0000
2030
0001
3002
0000
0100
0003
,  // measure 61
0101
0000
0001
1000
0100
0001
0100
1000
,  // measure 62
0010
0000
1000
0001
0011
0000
0010
0000
,  // measure 63
0100
0000
1000
0000
0001
0000
0010
0000
0100
1000
0100
1000
0001
0100
0001
0100
,  // measure 64
0020
0000
0000
0000
,  // measure 65
0000
0000
0000
0000
M000
000M
M000
000M
,  // measure 66
M000
000M
M000
000M
M000
000M
M000
000M
,  // measure 67
M000
000M
M000
000M
M000
000M
M000
000M
,  // measure 68
M000
0000
000M
0000
M000
0000
000M
0000
0000
M000
0000
0000
000M
0000
0000
M000
,  // measure 69
0000
0000
000M
0000
0000
0000
M000
0000
0000
000M
0000
0000
0000
M000
0000
0000
,  // measure 70
0000
000M
0000
0000
M000
0000
0000
0000
,  // measure 71
0000
000M
0000
0000
0000
0000
0000
0000
,  // measure 72
0030
0000
0000
0000
;

//---------------dance-single - ----------------
#NOTES:
     dance-single:
     X-Scale 8:
     Medium:
     6:
     0.324869,0.501226,0.116025,0.471833,0.003867,294.000000,279.000000,15.000000,61.000000,0.000000,0.000000,0.324869,0.501226,0.116025,0.471833,0.003867,294.000000,279.000000,15.000000,61.000000,0.000000,0.000000:
0000
0000
0000
0000
,
0000
0000
0000
0000
,
0000
0000
0000
0000
,
0000
0000
0000
0000
,
0000
0000
0000
0000
,
0000
0000
0000
0000
,
0000
0000
0000
0000
,
0000
0000
0000
0000
,
1000
0000
0000
1000
0000
0000
1000
0000
,
0001
0010
0100
0010
0002
0000
0000
0000
,
0100
0003
0000
0100
0000
0000
0100
0000
,
0020
0000
0000
0030
2000
0000
0000
0000
,
0001
3000
0000
0001
2000
0000
3200
0000
,
0320
0000
0032
0203
,
1000
0000
0000
0010
0000
0000
0301
0000
,
0000
0001
0000
0000
0001
0000
0000
0000
,
0101
0000
0100
0000
0010
1000
0001
1000
,
0100
0001
0100
1000
0020
0000
0001
0000
,
1000
0030
0010
0100
0002
0000
0003
0100
,
0020
0000
0030
1000
0200
0000
0001
0000
,
0310
0002
2003
3200
,
0320
1000
0032
0203
,
0001
0010
1000
0010
,
0301
0200
0320
2030
,
3002
0023
0032
1000
,
0010
0000
1000
0000
0103
0000
0001
0010
,
0002
0000
1000
0003
1000
0010
2000
0000
,
0001
3000
1000
0100
0020
0000
1000
0000
,
0001
0030
0002
0000
1000
0000
0010
0003
,
1000
0100
0010
0001
1000
0100
0010
0001
,
1000
0010
0001
0010
0100
0010
1000
0010
,
0200
0000
0000
0000
0302
0000
0000
0003
,
0101
0000
0001
0010
1000
0000
1000
0010
,
0001
0000
1000
0010
0001
0000
0001
0010
,
1000
0000
0001
0100
1000
0000
1000
0100
,
0001
0000
1000
0100
0001
0000
0001
0100
,
1000
0001
1001
0001
,
0010
0100
1000
0002
1000
0000
0010
0000
,
0103
0000
0001
0000
0101
0000
0100
0010
,
1000
0000
0001
0001
0002
0000
0000
0003
,
0011
0010
0110
0000
,
1100
1000
1001
0000
,
1000
0100
0010
0001
1000
0100
0010
0001
,
1000
0100
0010
0001
1000
0100
0010
0001
,
0011
0000
0100
0000
2020
0000
0000
3030
,
1001
0000
0000
0000
0000
0000
0000
0000
0000
0000
0000
0000
0001
0000
0000
0000
0000
0000
0000
0000
0000
0000
0000
0000
0021
0000
0000
0000
0000
0000
0000
0000
0000
0030
0000
0000
0000
0000
0000
0000
0002
0000
0000
0000
0003
0000
0000
0000
,
1000
0010
0100
0001
1000
0010
0100
0001
,
1000
0010
0100
0001
1000
0010
0100
0001
,
0101
0000
0100
0010
1000
0100
0010
0001
,
1000
0001
0100
0010
2000
0000
0001
0000
,
0100
3000
1000
0100
0020
0000
0031
0100
,
0020
0000
1030
0100
0020
0001
0031
0000
,
0011
0000
0010
0100
2000
0000
3002
0000
,
0023
0000
0000
0100
0230
0000
2300
0000
,
3002
1000
0010
1003
,
0001
0100
0010
1000
0001
0100
0010
1000
,
1100
0000
0100
1000
0001
1000
0200
0000
,
0320
0000
0032
1000
2003
0000
0010
0000
,
3010
0200
0302
0023
,
0100
0030
0001
0010
0100
1000
1000
0001
,
0200
0000
0320
1000
2030
0000
0001
0000
,
3001
0000
0020
0000
0230
0000
0300
1000
,
0002
0000
0000
0100
0100
0000
0103
0000
,
0001
0010
0100
1000
0002
0000
0100
0000
,
0203
0000
0000
0000
,
0000
0000
0000
0000
,
0000
0000
0000
0000
,
0000
0000
0000
0000
,
0000
0000
0000
0000
,
0000
0000
0000
0000
,
0000
0000
0000
0000
,
0000
0000
0000
0000
,
0300
0000
0000
0000
;

//---------------dance-single - ----------------
#NOTES:
     dance-single:
     X-Scale 5:
     Easy:
     3:
     0.253044,0.371278,0.061880,0.146964,0.000000,229.000000,221.000000,8.000000,19.000000,0.000000,0.000000,0.253044,0.371278,0.061880,0.146964,0.000000,229.000000,221.000000,8.000000,19.000000,0.000000,0.000000:
0000
0000
0000
0000
,
0000
0000
0000
0000
,
0000
0000
0000
0000
,
0000
0000
0000
0000
,
0000
0000
0000
0000
,
0000
0000
0000
0000
,
0000
0000
0000
0000
,
0000
0000
0000
0000
,
0001
0000
0000
0001
0000
0000
0001
0000
,
0000
0100
0000
0000
0200
0000
0000
0000
,
0310
0000
0000
0010
0000
0000
0010
0000
,
0000
1000
0000
0000
2000
0000
0000
0000
,
3001
0000
0000
0001
0000
0000
0001
0000
,
0000
0010
0000
0000
0010
0000
0200
0000
,
1000
0000
0000
1000
0000
0000
1300
0000
,
0000
0001
0000
0000
0001
0000
0000
0000
,
1001
1000
0100
1000
,
0100
0010
0001
0010
,
0001
0100
0010
0100
,
0010
1000
0010
1000
,
0010
0100
0001
0100
,
0001
0010
0100
0010
,
0100
1000
0001
1000
,
0001
0010
0100
0010
,
0110
0100
2000
0000
,
0001
0000
3100
1000
,
0020
0000
0130
0002
,
0000
1003
0001
1000
,
0001
0010
0100
1000
,
0001
0010
0100
1000
,
0001
0100
0001
0100
0010
1000
0010
1000
,
0100
0010
0100
0010
0001
0000
0000
0000
,
0011
0010
0100
1000
,
0001
0010
0100
1000
,
0001
0100
0010
1000
,
0001
0100
0010
1000
,
0001
1000
1001
0001
,
0010
0100
0110
0010
,
0001
1000
1010
0001
,
0010
0100
1100
0000
,
1001
1000
0020
0000
,
0130
0001
0020
0000
,
0130
0000
1000
0100
1000
0000
0001
0100
,
0001
0000
0100
0010
0100
0000
0001
0010
,
0001
1000
0020
0000
,
1030
0001
0020
0000
,
0031
0000
1000
0010
1000
0000
0001
0010
,
0001
0000
0100
0010
0100
0000
0001
0010
,
0001
0010
0100
1000
,
0001
0000
1000
0100
0010
0000
0010
0000
,
0001
0000
0100
0010
2000
0000
3000
0001
,
0200
0000
0300
0010
2000
0000
3001
0000
,
1000
0100
0020
0032
,
2003
0000
3010
0200
,
1000
0000
0001
0000
,
0310
0000
0100
0000
0001
0100
0001
0000
,
1000
0100
0010
0001
,
0100
0000
0010
0100
0001
0000
0001
0000
,
1000
0100
0010
0001
,
1000
0000
0001
0100
0010
0100
0001
0000
,
0010
0000
0100
1000
0100
0000
0100
0000
,
0010
0000
0001
0000
1000
0000
0010
0100
,
0002
0000
1000
1003
,
0001
0010
0002
0000
,
1003
0000
0000
0000
;

//---------------dance-single - ----------------
#NOTES:
     dance-single:
     X-Scale 1:
     Beginner:
     1:
     0.106080,0.148511,0.015470,0.000000,0.000000,96.000000,94.000000,2.000000,0.000000,0.000000,0.000000,0.106080,0.148511,0.015470,0.000000,0.000000,96.000000,94.000000,2.000000,0.000000,0.000000,0.000000:
0000
0000
0000
0000
,
0000
0000
0000
0000
,
0000
0000
0000
0000
,
0000
0000
0000
0000
,
0000
0000
0000
0000
,
0000
0000
0000
0000
,
0000
0000
0000
0000
,
0000
0000
0000
0000
,
1000
0000
0000
0000
,
0000
0000
0000
0000
,
0100
0000
0000
0000
,
0000
0000
0000
0000
,
0010
0000
0000
0000
,
0000
0000
0000
0000
,
0001
0000
0000
0000
,
0000
0000
0000
0000
,
1000
0000
0000
0000
,
0100
0000
0000
0000
,
0010
0000
0000
0000
,
0001
0000
0000
0000
,
1000
0000
0000
0000
,
0010
0000
0000
0000
,
0100
0000
0000
0000
,
0001
0000
1000
0000
,
0001
0000
0100
0000
,
0001
0000
0100
0000
,
0010
0000
1000
0000
,
0010
0000
1000
0000
,
0100
0000
0010
0000
,
0100
0000
0010
0000
,
0001
0000
0010
0000
,
0100
0000
1000
0000
,
1001
0000
1000
0000
,
0010
0000
1000
0000
,
0010
0000
0100
0000
,
0001
0000
0100
0000
,
0001
0000
1000
0000
,
0001
0000
1000
0000
,
0010
0000
0100
0000
,
0010
0000
0100
0000
,
0001
0000
0001
0000
,
1000
0000
1000
0000
,
0001
0000
0010
0000
,
0100
0000
1000
0000
,
0010
0000
0010
0000
,
0100
0000
0100
0000
,
0001
0000
0010
0000
,
0100
0000
1000
0000
,
0001
0000
1000
0000
,
0010
0000
1000
0000
,
0001
0000
0010
0000
,
0001
0000
1000
0000
,
0100
0000
0010
0000
,
0100
0000
1000
0000
,
0001
0000
0100
0000
,
0010
0000
0100
0000
,
0001
0000
1000
0000
,
0001
0000
1000
0000
,
0010
0000
0100
0000
,
0010
0000
0100
0000
,
0001
0000
0010
0000
,
0001
0000
0010
0000
,
0100
0000
1000
0000
,
0100
0000
1000
0000
,
1001
0000
0000
0000
;
