#TITLE:Threshold feat. Melisa Whiskey;
#SUBTITLE:;
#ARTIST:Redlight;
#TITLETRANSLIT:;
#SUBTITLETRANSLIT:;
#ARTISTTRANSLIT:;
#GENRE:Progressive Breaks;
#CREDIT:;
#BANNER:Threshold feat. Melisa Whiskey-bn.png;
#BACKGROUND:Threshold feat. Melisa Whiskey-bg.png;
#LYRICSPATH:;
#CDTITLE:cdtitle.png;
#MUSIC:Threshold feat. Melisa Whiskey.ogg;
#OFFSET:-0.002000;
#SAMPLESTART:60.728001;
#SAMPLELENGTH:15.484000;
#SELECTABLE:YES;
#BPMS:0.000000=62.000000
,16.000000=124.000000
,80.000000=62.000000
,96.000000=124.000000
,160.000000=62.000000
;
#STOPS:
;
#BGCHANGES:0.000=Threshold feat. Melisa Whiskey.avi=1.000=1=0=0=StretchNoLoop==CrossFade==,
99999=-nosongbg-=1.000=0=0=0 // don't automatically add -songbackground-
;
#KEYSOUNDS:;
#ATTACKS:;

//---------------dance-single - ----------------
#NOTES:
     dance-single:
     X-Scale 12:
     Hard:
     8:
     0.455933,0.567396,0.175257,0.378187,0.350515,346.000000,327.000000,19.000000,41.000000,0.000000,0.000000,0.455933,0.567396,0.175257,0.378187,0.350515,346.000000,327.000000,19.000000,41.000000,0.000000,0.000000:
// measure 0
0000
0000
0000
0000
,  // measure 1
0000
0000
0000
0000
,  // measure 2
0002
0010
0100
1000
2003
0010
0100
0001
,  // measure 3
3002
0000
0000
0000
0000
0000
0000
0000
2000
0000
0000
0000
0000
0000
0000
3003
,  // measure 4
1001
0000
1000
0000
0010
1000
0001
0000
,  // measure 5
0010
0000
0000
0000
0100
0000
0000
0000
0010
0000
0001
0000
0010
0000
0000
0010
,  // measure 6
0100
0000
1000
0000
0001
1000
0010
0000
,  // measure 7
0100
0000
0000
0000
0001
0000
0000
0000
1000
0000
0100
0000
0010
0000
0000
0001
,  // measure 8
0010
0000
0101
0000
0100
0010
1000
0000
,  // measure 9
0100
0000
0000
0000
1001
0000
0000
0000
0010
0000
0001
0000
0010
0000
0000
0010
,  // measure 10
0100
0000
1010
0000
1000
0001
1000
0000
,  // measure 11
0010
0000
0000
0000
0101
0000
0001
0100
0000
0001
1000
0000
0100
1000
0100
0010
,  // measure 12
0100
0000
0000
0000
1000
0000
0000
0100
0000
0010
0001
0000
0100
0000
0001
0000
,  // measure 13
0010
0000
0000
0000
0100
0000
0000
1000
0000
0010
0100
0000
0001
0000
1000
0000
,  // measure 14
0010
0000
0000
0000
1000
0000
0000
0100
0000
1000
0010
0000
1000
0000
0001
0000
,  // measure 15
0100
0000
0000
0000
0001
0000
0000
0010
0000
0001
1000
0000
0100
0000
0010
0000
,  // measure 16
0001
0000
0000
0000
1001
0000
0000
0001
0000
0010
0001
0000
1000
0000
0100
0000
,  // measure 17
0010
0000
0000
0000
0101
0000
0001
0100
0000
0010
1000
0000
0001
0000
1000
0000
,  // measure 18
0010
0000
0000
0000
1010
0000
0000
1000
0000
0001
1000
0000
0010
0000
0100
0000
,  // measure 19
1000
0000
0000
0000
0110
0000
0000
0100
0001
0100
0001
0000
1000
0000
1000
0000
,  // measure 20
1002
0000
0000
0000
0023
0000
0000
0000
2030
0000
0000
0000
3200
0000
0000
0000
0302
0000
0000
2003
0000
0000
0000
3000
0010
0000
1000
0000
0001
0000
0100
0002
,  // measure 21
0000
0000
0000
0003
0001
0000
0100
0002
0000
0000
0000
0003
0001
0000
0010
0200
0000
0000
0000
0000
1000
0000
0000
0000
0310
0000
0100
0000
0010
0000
0000
0000
,  // measure 22
0002
0000
0203
0000
2300
0000
3002
0000
0013
1000
0020
0000
1030
0200
0300
0020
,  // measure 23
0001
0000
0001
0000
0100
0000
0100
0000
0031
0010
0001
0010
0100
1000
0100
1000
0200
0000
0300
0000
0020
0000
0030
0000
0002
0000
0003
0000
2000
0000
3000
0000
,  // measure 24
1001
0000
1000
0000
0001
0100
1000
0100
,  // measure 25
0002
0000
2003
0000
3010
1000
0001
1000
,  // measure 26
0020
0000
1000
0000
0031
0010
1000
0100
,  // measure 27
0020
0000
0032
0000
0103
0001
0010
0100
,  // measure 28
2000
0000
0010
0000
3001
1000
0010
1000
,  // measure 29
0002
0000
0203
0000
1300
0100
0010
0100
,  // measure 30
0002
0000
1000
0000
0013
0100
1000
0100
,  // measure 31
0010
0000
0000
0000
0001
0010
0100
0010
0001
1000
0010
0100
0001
0010
0100
0010
,  // measure 32
0001
0000
0000
0000
1001
0000
0001
0100
0000
0001
0100
0000
0010
0000
1000
0000
,  // measure 33
0001
0000
0000
0000
1100
0000
0100
0010
0000
0100
0010
0000
0001
0000
1000
0000
,  // measure 34
0010
0000
0000
0000
1001
0000
0001
0010
0000
0001
0010
0000
0100
0000
0010
0000
,  // measure 35
0001
0000
0000
0000
1010
0000
0010
0100
0000
0001
1000
0000
0100
0000
0010
0000
,  // measure 36
0001
0000
0000
0000
0011
0000
0010
0001
0000
1000
0010
0000
0100
0000
0010
1000
,  // measure 37
0010
0000
0000
0000
1100
0000
1000
0001
0000
0100
0001
0000
0010
0000
0001
0100
,  // measure 38
0001
0000
0000
0000
1010
0000
0010
1000
0000
0001
0100
0000
0010
0000
1000
0100
,  // measure 39
1000
0000
0100
0000
0010
0000
0001
0100
0001
0100
0001
0000
1000
0000
1000
0000
,  // measure 40
1000
0000
0020
0000
0001
0000
0130
0000
0010
2000
0100
0000
3001
0000
1000
0000
,  // measure 41
0100
0000
0000
0000
0020
0000
0001
0000
0000
0000
0000
0000
1000
0000
0000
0000
0000
0000
0031
0000
0000
0010
0000
0000
0100
0000
0000
0000
0000
0000
1000
0000
0000
0200
0000
0000
0010
0000
0000
0000
0000
0000
1000
0000
0000
0300
0000
0000
,  // measure 42
1100
0000
2000
0000
0001
0000
3100
0000
1000
0020
0001
0000
0130
0000
0010
0000
,  // measure 43
1000
0000
0000
0000
0002
0000
0100
0000
0000
0000
0000
0000
0010
0000
0000
0000
0000
0000
1003
0000
0000
0100
0000
0000
0010
0000
0000
0000
0000
0000
0001
0000
0000
0200
0000
0000
1000
0000
0000
0000
0000
0000
0010
0000
0000
0300
0000
0000
;

//---------------dance-single - ----------------
#NOTES:
     dance-single:
     X-Scale 7:
     Medium:
     5:
     0.345244,0.426152,0.175257,0.442755,0.055344,262.000000,243.000000,19.000000,48.000000,0.000000,0.000000,0.345244,0.426152,0.175257,0.442755,0.055344,262.000000,243.000000,19.000000,48.000000,0.000000,0.000000:
// measure 0
0000
0000
0000
0000
,  // measure 1
0000
0000
0000
0000
,  // measure 2
0002
0000
0000
0000
0020
0000
0000
0003
,  // measure 3
0200
0000
0000
0000
0000
0000
0030
0000
2000
0000
0000
0000
0000
0000
0000
3300
,  // measure 4
1100
2000
3002
0203
,  // measure 5
0320
0000
2030
0000
3002
0000
0013
0100
,  // measure 6
0000
0020
0001
0000
0031
0010
0001
0000
,  // measure 7
1000
0000
0010
0000
0100
0010
0100
0000
,  // measure 8
0001
0000
0010
0000
0100
0010
0001
1000
,  // measure 9
0020
0000
1030
0000
0001
0020
0100
0000
,  // measure 10
0031
2000
0010
0000
3100
1000
0100
0000
,  // measure 11
0010
0000
0001
0000
1000
0001
1000
0001
,  // measure 12
1001
0000
1000
0100
0000
0100
0001
1000
,  // measure 13
0000
0010
1000
0001
0020
0000
0130
0010
,  // measure 14
0001
2000
0010
0000
3001
1000
0001
0000
,  // measure 15
0010
0000
0100
0000
1000
0100
1000
0000
,  // measure 16
0001
0010
1000
0010
0100
2000
0000
3002
,  // measure 17
0100
0003
0100
0001
1000
0020
0001
0000
,  // measure 18
0130
0002
1000
0000
0103
0001
0100
0000
,  // measure 19
0101
0000
0110
0000
1010
0000
1000
0010
,  // measure 20
1000
0000
0100
0000
0010
0100
0010
0000
0001
0000
1000
0000
0010
1000
0010
0000
,  // measure 21
0100
0000
0001
0000
1000
0001
1000
0000
0010
0000
1000
0000
0001
0010
0001
0000
,  // measure 22
0100
0000
0010
0000
1000
0010
1000
0000
0100
0000
0010
0000
0001
0010
0001
0000
,  // measure 23
0100
0000
0010
0000
1000
0010
1000
0000
0001
0000
0010
0000
0100
0000
1000
0000
,  // measure 24
1100
0000
0100
0000
0020
0030
0020
0030
,  // measure 25
0002
0003
0002
1003
0010
0000
1000
0001
,  // measure 26
0010
0200
1000
0000
2300
3000
2000
3000
,  // measure 27
0020
0030
0020
0130
0002
0000
1003
0100
,  // measure 28
0000
2000
0000
0000
0100
0000
3000
0000
0200
0000
0300
0000
0200
0000
0300
0000
,  // measure 29
0020
0030
0020
0030
0001
0000
0100
0001
,  // measure 30
0000
1000
0000
0020
0200
0300
0230
0300
,  // measure 31
0002
0003
0002
0003
1000
0000
0010
1000
,  // measure 32
0001
0000
1001
0000
1000
0010
1000
0000
,  // measure 33
0100
0000
0101
0000
0001
0010
0001
0000
,  // measure 34
0100
0000
1010
0000
1000
0001
1000
0000
,  // measure 35
0001
0000
0011
0000
0010
0100
0010
0000
,  // measure 36
0001
0000
1001
0000
1000
0010
1000
0000
,  // measure 37
0001
0000
0110
0000
0100
0001
0100
0000
,  // measure 38
0001
0000
0011
0000
0010
0100
0010
0000
,  // measure 39
0001
2000
3000
0200
0000
0000
1000
1300
,  // measure 40
1100
0000
0000
0110
0000
0000
0101
0000
0002
0000
0010
0000
1000
0000
0010
0000
,  // measure 41
2003
0000
0010
0000
0100
0000
3010
1000
0002
0000
0100
0000
0010
0000
0103
0000
,  // measure 42
0101
0000
0000
0110
0000
0000
1001
0000
2000
0000
0100
0000
0010
0000
0100
0000
,  // measure 43
3020
0000
0001
0000
0100
0000
0031
0010
0200
0000
1000
0000
0010
0000
0001
0000
,  // measure 44
0300
0000
0000
0000
;

//---------------dance-single - ----------------
#NOTES:
     dance-single:
     X-Scale 5:
     Easy:
     3:
     0.251685,0.341060,0.092241,0.166033,0.000000,191.000000,181.000000,10.000000,18.000000,0.000000,0.000000,0.251685,0.341060,0.092241,0.166033,0.000000,191.000000,181.000000,10.000000,18.000000,0.000000,0.000000:
// measure 0
0000
0000
0000
0000
,  // measure 1
0000
0000
0000
0000
,  // measure 2
1000
0000
0010
0000
,  // measure 3
0001
0000
0100
0000
,  // measure 4
1001
1000
0000
0001
,  // measure 5
0000
0010
0000
0001
,  // measure 6
1000
0001
0000
0100
,  // measure 7
0000
0010
0000
0100
,  // measure 8
0001
0100
0000
0001
,  // measure 9
0000
0010
0000
0100
,  // measure 10
1000
0100
0000
0010
,  // measure 11
0000
0000
0001
0000
2000
0000
0010
0010
,  // measure 12
3010
0000
1000
0000
0001
0100
0001
0000
,  // measure 13
0010
0000
0100
1000
0002
0000
0013
0200
,  // measure 14
0000
0320
0000
0002
0030
2003
0000
0200
,  // measure 15
3000
0320
0000
0000
0031
0010
0001
0000
,  // measure 16
0100
0000
0010
0000
1000
0010
1000
0000
,  // measure 17
0001
0000
0100
0000
0001
1000
0001
0000
,  // measure 18
0010
0000
0100
0000
1000
0100
1000
0000
,  // measure 19
0001
0000
0001
0000
0010
0100
1000
1000
,  // measure 20
0001
1000
0010
1000
0100
0010
0001
0100
,  // measure 21
0010
1000
0001
0010
0100
0010
0001
1000
,  // measure 22
0010
0100
0001
0010
0100
1000
0001
1000
,  // measure 23
0200
0000
0320
0000
,  // measure 24
0031
0000
0011
0000
0010
0100
1000
0000
,  // measure 25
0001
0000
1000
0001
0200
0000
0310
0100
,  // measure 26
0001
2000
0000
0000
3100
0010
0001
0000
,  // measure 27
1000
0000
0010
1000
0200
0000
0310
0001
,  // measure 28
0010
0000
0011
0000
0001
0010
0100
0000
,  // measure 29
1000
0000
1001
0000
0001
0010
0100
0000
,  // measure 30
1000
0000
1100
0000
0100
1000
0001
0000
,  // measure 31
0200
0000
1000
0000
,  // measure 32
0301
0000
0101
0000
0100
0001
1000
0000
,  // measure 33
0010
0000
1000
0001
0020
0000
0130
0010
,  // measure 34
0001
2000
0100
0000
3001
1000
0001
0000
,  // measure 35
0100
0000
1001
0000
1000
0100
1000
0000
,  // measure 36
0001
0000
0011
0000
0010
0100
1000
0000
,  // measure 37
0001
0000
0011
0000
0010
0001
1000
0000
,  // measure 38
0100
0000
0110
0000
0010
0100
1000
0000
,  // measure 39
0001
2000
3000
0020
0000
0000
0100
0100
,  // measure 40
0130
0000
0001
0000
,  // measure 41
0010
0000
0100
0000
,  // measure 42
1000
0000
0010
0000
,  // measure 43
0100
0000
0001
0000
;

//---------------dance-single - ----------------
#NOTES:
     dance-single:
     X-Scale 1:
     Beginner:
     1:
     0.108053,0.120374,0.009224,0.000000,0.000000,82.000000,81.000000,1.000000,0.000000,0.000000,0.000000,0.108053,0.120374,0.009224,0.000000,0.000000,82.000000,81.000000,1.000000,0.000000,0.000000,0.000000:
// measure 0
0000
0000
0000
0000
,  // measure 1
0000
0000
0000
0000
,  // measure 2
1000
0000
0000
0000
,  // measure 3
0001
0000
0000
0000
,  // measure 4
0000
1000
0000
0100
,  // measure 5
0000
1000
0000
0001
,  // measure 6
0000
0100
0000
0001
,  // measure 7
0000
0010
0000
0100
,  // measure 8
0000
0010
0000
0001
,  // measure 9
0000
1000
0000
0010
,  // measure 10
0000
1000
0000
0001
,  // measure 11
0000
0100
0000
0001
,  // measure 12
0000
1000
0000
0100
,  // measure 13
0000
0010
0000
0001
,  // measure 14
0000
0010
0000
0100
,  // measure 15
0000
1000
0000
0001
,  // measure 16
0000
0100
0000
0010
,  // measure 17
0000
0100
0000
0001
,  // measure 18
0000
1000
0000
0010
,  // measure 19
0000
1000
0000
0001
,  // measure 20
0001
0000
0010
0000
,  // measure 21
0100
0000
1000
0000
,  // measure 22
0010
0000
0100
0000
,  // measure 23
0001
0000
1000
0000
,  // measure 24
1001
0000
0001
0000
,  // measure 25
1000
0000
0001
0000
,  // measure 26
0010
0000
0100
0000
,  // measure 27
0010
0000
0001
0000
,  // measure 28
1000
0000
0010
0000
,  // measure 29
1000
0000
0001
0000
,  // measure 30
0100
0000
0010
0000
,  // measure 31
1000
0000
0000
0000
,  // measure 32
0000
0001
0000
0010
,  // measure 33
0000
0100
0000
0010
,  // measure 34
0000
0001
0000
1000
,  // measure 35
0000
0010
0000
0100
,  // measure 36
0000
0010
0000
1000
,  // measure 37
0000
0100
0000
0010
,  // measure 38
0000
0001
0000
1000
,  // measure 39
0000
0001
0000
1000
,  // measure 40
1000
0000
0010
0000
,  // measure 41
1000
0000
0001
0000
,  // measure 42
0010
0000
0001
0000
,  // measure 43
0100
0000
0001
0000
;
