#TITLE:Thousand Drums;
#SUBTITLE:;
#ARTIST:Ørjan Nilsen x ANG;
#TITLETRANSLIT:;
#SUBTITLETRANSLIT:;
#ARTISTTRANSLIT:Orjan Nilsen x ANG;
#GENRE:Big Room Trance;
#CREDIT:;
#BANNER:Thousand Drums-bn.png;
#BACKGROUND:Thousand Drums-bg.png;
#LYRICSPATH:;
#CDTITLE:cdtitle.png;
#MUSIC:Thousand Drums.ogg;
#OFFSET:0.000000;
#SAMPLESTART:59.077000;
#SAMPLELENGTH:14.769000;
#SELECTABLE:YES;
#DISPLAYBPM:65.000000:130.000000;
#BPMS:0.000000=65.000000
,31.500000=130.000000
,95.000000=260.000000
,95.500000=130.000000
,95.750000=65.000000
,96.000000=130.000000
,128.000000=260.000000
,129.000000=130.000000
,160.000000=65.000000
,168.000000=130.000000
,184.000000=65.000000
,188.000000=130.000000
;
#STOPS:31.500000=0.231000,
128.000000=0.115000,
128.500000=0.058000,
128.750000=0.058000
;
#BGCHANGES:0.000=Thousand Drums.avi=1.000=1=0=0=StretchNoLoop==CrossFade==,
99999=-nosongbg-=1.000=0=0=0 // don't automatically add -songbackground-
;
#KEYSOUNDS:;
#ATTACKS:;

//---------------dance-single - ----------------
#NOTES:
     dance-single:
     X-Scale 6:
     Easy:
     4:
     0.268827,0.290323,0.065899,0.095188,0.003661,257.000000,248.000000,9.000000,13.000000,0.000000,0.000000,0.268827,0.290323,0.065899,0.095188,0.003661,257.000000,248.000000,9.000000,13.000000,0.000000,0.000000:
0000
0000
0000
0000
,
0000
0000
0000
0000
,
0000
0000
0000
0000
,
0000
0000
0000
0000
,
1000
0000
0100
0000
1000
0001
0100
0001
,
1000
0000
0000
0000
0010
0000
0000
2020
0000
0000
3030
0000
1000
0000
0001
0000
,
0010
0000
0001
0000
1000
0100
0010
0100
,
1000
0000
0001
0000
2002
0000
0000
3003
,
0001
0100
0001
1000
,
0001
0000
0100
0000
0001
0010
0100
0010
,
0001
0000
1000
0000
0100
0000
1000
0020
,
0100
0000
1000
0000
0130
0000
0010
1000
,
0001
0100
0001
1000
,
0001
0000
0100
0000
0001
0010
0100
0010
,
0001
0000
1000
0000
0010
0000
1000
0200
,
0010
0000
1000
0000
0310
0000
0100
1000
,
1100
0000
0100
0000
,
1000
0000
0001
0100
,
0001
0000
0010
0000
,
0100
0000
1000
0001
,
1000
0000
0100
0000
,
0010
0000
0001
0100
,
0001
0000
1000
0000
,
0020
0000
0000
0030
,
1001
1000
0010
1000
,
0001
0000
0100
0000
0001
0000
0010
0100
,
1000
0000
0001
0000
0100
0000
0001
0020
,
0100
0000
0001
0000
0130
0000
0010
0001
,
0010
0100
1000
0001
,
0100
0000
0001
0000
1000
0000
0010
1000
,
0001
0000
0100
0000
0001
0000
1000
0200
,
0010
0000
1000
0000
0310
0100
1000
0001
,
1000
1001
0001
0100
,
0001
0000
0010
0000
0100
1000
0001
0100
,
0010
0000
1000
0000
0100
0000
0010
0002
,
1000
0000
0010
0000
1003
0001
0100
0001
,
1000
0010
1000
0001
,
0010
0000
0100
0000
1000
0010
0100
0010
,
1000
0000
0100
0000
0010
0000
0001
1000
,
0002
0000
0000
0000
,
0103
0001
1000
0001
,
0100
0001
1000
0001
,
0010
0000
0000
0000
0100
0000
0000
1000
,
1000
0000
0000
0000
0001
0000
0000
0100
,
0100
0001
1000
0001
,
1000
0000
0100
0000
1000
0100
1000
0100
,
1100
0000
1001
0000
,
0101
0000
0100
0000
0001
0000
1000
0010
,
1000
0000
0100
0000
0010
0000
0001
0100
,
0001
0000
1000
0000
0010
0000
0100
0010
,
0100
0000
0001
0000
0010
0000
0001
1000
,
0001
0000
0010
0000
0100
0000
1000
0100
,
1000
0000
0010
0000
1000
0000
0100
0010
,
0001
0000
0011
0000
0010
0000
0100
1000
,
0001
0000
0100
0000
0001
0000
1000
0100
,
0010
0000
0100
0000
1000
0000
0001
0100
,
0010
0000
1000
0000
0001
0000
0010
0001
,
1000
0000
0100
0000
1000
0000
0010
1000
,
0001
0000
0100
0000
0010
0000
1000
0100
,
0010
0000
0000
0001
0001
0000
0000
1000
,
2000
0010
0001
0020
,
3030
0000
0000
0000
;

//---------------dance-single - ----------------
#NOTES:
     dance-single:
     X-Scale 11:
     Medium:
     8:
     0.479077,0.579853,0.153765,0.087866,0.377090,458.000000,437.000000,21.000000,12.000000,0.000000,0.000000,0.479077,0.579853,0.153765,0.087866,0.377090,458.000000,437.000000,21.000000,12.000000,0.000000,0.000000:
0000
0000
0000
0000
,
0000
0000
0000
0000
,
0000
0000
0000
0000
,
0000
0000
0000
0000
,
0011
0000
0000
0000
0010
0000
0100
0000
0000
0000
0000
0000
1000
0000
0100
0000
0000
0000
1000
0000
0000
0001
0000
0000
0100
0000
0000
0001
0010
0000
0100
0000
,
1010
1000
0001
0100
0001
0000
0010
0201
0000
0000
0000
0000
0301
0100
1000
0100
,
0001
0000
0000
0000
1000
0000
0100
0000
0000
0000
0000
0000
0010
0000
0001
0000
0000
0000
1000
0000
0000
0010
0000
0000
1000
0000
0000
0001
0010
0000
0001
0000
,
1000
0010
0001
0010
1000
0100
0010
0002
2000
0000
0000
0000
0000
0000
3003
0000
,
1001
0000
0000
1000
0100
0000
0000
0000
1000
0000
0000
0001
0100
0000
0000
0000
,
0001
0000
0000
1000
0100
0000
0000
0000
1000
0000
0010
0000
0001
0000
0010
0000
,
1000
0000
0000
0001
0010
0000
0000
0000
0001
0000
0100
0000
0010
0000
2000
0000
,
0100
0000
3001
0000
1000
1000
0100
0010
,
0001
0000
0000
0000
0100
0001
0000
0000
1000
0000
0000
0000
0010
1000
0000
0000
,
0001
0000
0000
0000
0100
0001
0000
0000
1000
0000
0010
0000
0001
0000
0010
0000
,
1000
0000
0000
0100
0000
0100
0000
0000
1000
0000
0001
0000
0100
0000
0002
0000
,
0010
0000
0103
0000
0001
0001
0010
0100
,
1100
1000
0100
0001
,
0010
0000
1000
0000
0001
0010
1000
0010
,
0001
0100
0010
0001
,
0010
0000
0100
0000
1000
0100
0001
0100
,
1000
0000
0000
1000
0000
1000
0000
0001
0100
0000
0000
0001
0000
0001
0000
0010
,
0100
0000
0000
1000
0000
1000
0000
0000
0100
0000
0010
0000
0001
0000
0010
0000
,
0100
0000
0000
1000
0000
1000
0000
0001
0100
0000
0001
0000
1000
0000
0200
0000
,
0001
0000
0010
0000
1300
0100
1100
0000
,
1001
0001
0100
0001
1000
0100
0001
0100
,
0010
0001
1000
0010
0100
1000
0100
0010
,
1000
0000
0000
0001
0000
0001
0000
0100
0010
0000
1000
0000
0100
0000
0020
0000
,
1000
0000
0000
0000
0031
0000
0010
0000
0100
0000
1000
0100
1000
0000
0001
0000
,
1001
1000
0100
1000
0001
0010
1000
0010
,
0100
1000
0001
0100
0010
1000
0100
0010
,
0001
0000
0000
1000
0000
1000
0000
0100
0010
0000
0100
0000
1000
0000
0020
0000
,
0001
0000
0000
0000
1030
0000
0010
0000
0100
0010
0100
0010
0100
0000
0001
0000
,
0101
1001
1100
1001
,
0101
0000
0000
0100
0000
0000
0100
0000
0001
0000
0010
0000
1000
0000
0010
0000
,
0001
0000
0000
0100
0000
0100
0010
0000
1000
0000
0001
0000
0010
0000
0001
0000
,
1000
0000
0000
0100
0000
0100
1000
0000
0001
0000
0100
0010
0100
0000
0001
0000
,
1001
1100
0101
0011
,
1001
0000
0000
1000
0000
0000
1000
0000
0010
0000
0001
0000
1000
0000
0100
0000
,
0001
0000
0000
1000
0000
1000
0010
0000
1000
0000
0100
0000
0010
0000
0002
0000
,
1000
0010
1000
0100
,
0103
0000
0000
0000
0000
0000
0001
0000
0000
0000
0000
0000
1000
0000
0000
0000
0000
0000
0010
0000
0000
0000
0000
0000
0100
0000
0000
0000
0000
0000
0001
0000
0000
0000
0000
0000
0010
0000
0000
0000
0020
0000
0000
0000
0000
0100
0000
0000
,
0130
0000
0000
1000
0000
0000
0010
0000
0000
0100
0000
0000
0001
0000
0000
1000
0000
0000
0010
0000
0200
0000
0000
0000
,
0301
0000
0100
0000
0010
0000
1000
0001
,
0100
0001
1000
0100
0010
0001
0100
0010
,
1000
0001
0010
0100
0010
0001
1000
0010
,
0100
0100
0100
0100
0001
0001
0001
0001
,
1001
0000
0000
0000
1000
0000
0000
0100
0000
0000
0100
0000
0000
0000
0010
0000
0011
0000
0000
0000
0001
0000
0000
1000
0000
0000
1000
0000
0200
0000
0000
0000
,
0310
0000
0100
0000
1000
0000
0001
0100
0000
0000
0100
0000
0010
0000
1000
0000
,
0100
0000
0000
0000
0000
0000
0000
0000
0000
0010
0000
0000
0001
0000
0000
0000
0000
0000
1000
0000
0000
0000
0000
0000
0001
0000
0000
0000
0000
0000
0100
0000
0000
0000
0000
0000
0001
0000
0000
0000
0010
0000
0000
0000
0100
0000
0000
0000
,
1000
0000
0010
0000
1000
0000
0001
0100
0000
0000
0100
0000
0010
0000
1000
0000
,
0001
0000
0010
0000
0100
0000
0010
0001
0000
0000
0001
0000
1000
0000
0010
0000
,
1000
0000
0001
0000
0100
0000
0010
0100
0000
0000
0100
0000
0001
0000
0010
0000
,
0100
0000
0000
0000
0000
0000
0010
0000
0000
0000
0000
0000
0001
0000
0000
0000
0000
0000
1000
0000
0000
0100
0000
0000
0000
0000
0000
0000
0000
0000
0100
0000
0000
0000
0000
0000
0010
0000
0000
0000
0001
0000
0000
0000
1000
0000
0000
0000
,
0010
0000
0000
0000
1001
0000
0000
1000
0100
0000
1000
0000
0001
0000
0100
0000
,
0001
0000
0000
0000
0000
0000
0010
0000
0000
0000
0000
0000
0100
0000
0000
0000
0000
0000
0000
0000
0000
1000
0000
0000
0100
0000
0000
0000
0000
0000
1000
0000
0000
0000
0000
0000
0001
0000
0000
0000
0010
0000
0000
0000
0100
0000
0000
0000
,
1000
0000
0010
1000
0010
0000
0000
0100
0001
0000
1000
0000
0001
0000
0010
0000
,
0100
0000
0000
0000
0000
0000
1000
0000
0000
0100
0000
0000
1000
0000
0000
0000
0000
0000
0000
0000
0000
0010
0000
0000
0100
0000
0000
0000
0000
0000
0010
0000
0000
0000
0000
0000
1000
0000
0000
0000
0001
0000
0000
0000
0100
0000
0000
0000
,
0010
0000
0100
0001
0100
0000
0000
0010
1000
0000
0001
0000
0010
0000
1000
0000
,
0010
0000
0001
0010
0001
0000
0000
0100
0010
0000
1000
0000
0001
0000
0100
0000
,
0001
0000
0001
1000
0000
1000
0010
0000
0010
0100
0000
0100
,
0001
1000
0001
1000
0001
1000
0100
0010
0100
0010
0100
0010
;

//---------------dance-single - ----------------
#NOTES:
     dance-single:
     X-Scale 15:
     Hard:
     10:
     0.610876,0.735967,0.102510,0.080544,0.787131,584.000000,570.000000,14.000000,11.000000,24.000000,0.000000,0.610876,0.735967,0.102510,0.080544,0.787131,584.000000,570.000000,14.000000,11.000000,24.000000,0.000000:
// measure 0
0000
0000
0000
0000
,  // measure 1
0000
0000
0000
0000
,  // measure 2
0000
0000
0000
0000
,  // measure 3
0000
0000
0000
0000
,  // measure 4
1010
0000
1000
0000
0010
0000
0100
0000
0001
0000
1000
0000
0100
0000
1000
0000
0001
0000
0010
0000
0000
0010
0001
0000
1000
0000
0000
0010
1000
0000
0100
0010
,  // measure 5
0001
0001
1000
0010
1000
0001
0100
0002
0000
0000
0000
0013
0100
0010
0001
0010
,  // measure 6
1001
0000
0001
0000
1000
0000
0100
0000
1000
0000
0010
0000
0001
0000
0010
0000
1000
0000
0100
0000
0000
0100
0010
0000
0001
0000
0000
0100
0001
0000
0010
0100
,  // measure 7
1000
0000
0010
0000
0001
0000
0010
0000
1000
0000
0001
0000
0100
0000
0020
0000
0200
0000
0000
0000
0000
0000
0000
0000
0000
0000
0000
0330
MMMM
0000
0000
0000
,  // measure 8
1001
0000
1000
0000
0001
0100
00M0
0100
1000
0000
0001
0000
1000
0100
00M0
0100
,  // measure 9
0001
0000
1000
0000
0010
0100
000M
0100
1000
0000
0100
0000
0001
0000
0100
0000
,  // measure 10
1000
0000
0001
0010
0001
0010
0000
0100
1000
0000
0001
0000
1000
0000
0200
0000
,  // measure 11
0010
0000
0000
0000
1300
0000
0100
0000
0010
0001
1000
0001
0010
0000
0100
0000
,  // measure 12
1001
0000
1000
0000
0001
0010
0M00
0010
1000
0000
0100
0000
1000
0010
0M00
0010
,  // measure 13
0001
0000
1000
0000
0001
0100
00M0
0100
1000
0000
0100
0000
0001
0000
0100
0000
,  // measure 14
1000
0000
0001
0010
0000
0001
0000
1000
0010
0000
0100
0000
1000
0000
0200
0000
,  // measure 15
0001
0000
0310
0100
0001
0001
1000
1000
,  // measure 16
1001
0000
0000
0001
0000
0010
0000
0001
1000
0000
0000
0100
0000
0010
0000
0001
,  // measure 17
1000
0000
0000
0010
0000
0100
0000
0010
1000
0000
0010
0000
0001
0000
0010
0000
,  // measure 18
1000
0000
0000
0010
0000
1000
0000
0001
0010
0000
0001
0000
1000
0000
0200
0000
,  // measure 19
0010
0000
0000
0000
0301
0000
0100
0000
1000
0001
0100
0001
1000
0000
0010
0000
,  // measure 20
0100
0000
0000
0001
1000
0001
0000
0010
0100
0000
0000
1000
0100
1000
0000
0001
,  // measure 21
0100
0000
0000
0001
0010
0001
0000
1000
0010
0000
1000
0000
0100
0000
0010
0000
,  // measure 22
0001
0000
0000
0100
0010
0100
0000
0001
0010
0000
0001
0000
1000
0000
0020
0000
,  // measure 23
0001
0000
0000
0000
0100
0000
0000
0000
1000
0000
0000
0030
MMMM
0000
0000
0000
,  // measure 24
0101
0000
0000
0001
0100
0001
0000
1000
0100
0000
0000
1000
0001
0100
0000
0010
,  // measure 25
0100
0000
0000
0001
0010
0001
0000
1000
0010
0000
0100
0000
1000
0000
0100
0000
,  // measure 26
0010
0000
1000
0010
1000
0001
0000
0100
0001
0000
0100
0000
1000
0000
0100
0000
,  // measure 27
0001
0000
0010
0100
1000
0000
0100
0010
0001
0000
1000
0000
0010
0000
0100
0000
,  // measure 28
0001
0000
0000
0010
0100
0010
0000
0001
1000
0000
0000
0100
1000
0001
0000
0010
,  // measure 29
0001
0000
0000
1000
0010
1000
0000
0001
0010
0000
1000
0000
0001
0000
0100
0000
,  // measure 30
1000
0000
0000
0010
1000
0001
0000
0100
0010
0000
1000
0000
0100
0000
0020
0000
,  // measure 31
1000
0000
0000
0000
0031
0000
0010
0000
0100
0010
0001
1000
0010
0000
0100
0000
,  // measure 32
1001
0000
1000
0001
1000
0000
0000
0000
1100
0000
0100
0010
0001
0000
1000
0000
,  // measure 33
0001
0000
1000
0100
00M0
0100
0001
0000
1000
0000
0001
0000
0010
0000
0001
0000
,  // measure 34
1000
0000
0000
0010
0100
0010
1000
0000
0001
0000
0010
0000
0001
0000
1000
0000
,  // measure 35
0001
0000
0000
0010
0M00
0010
1000
0000
1000
0001
0010
0001
1000
0000
0100
0000
,  // measure 36
1000
0000
0001
0010
0001
0100
0000
0010
1000
0000
0100
0000
0001
0000
0100
0000
,  // measure 37
1000
0000
0001
0100
00M0
0100
1000
0000
0010
0000
0100
0000
1000
0000
0100
0000
,  // measure 38
0010
0000
0000
0100
00M0
0100
1000
0000
0010
0000
1000
0000
0001
0000
0010
0000
,  // measure 39
0200
0001
1000
0310
,  // measure 40
0110
0000
0000
0000
0000
0000
0000
0000
0000
0000
0000
0000
0000
0000
0000
0000
0000
0000
0000
0000
0000
0000
0000
0000
0010
0000
0000
0000
0000
0000
0000
0000
0000
0000
0000
0000
0000
0000
0000
0000
0000
0000
0001
0000
0000
0000
0000
0000
0000
0000
0000
0000
0000
0000
0000
0000
0000
0000
0000
0000
0001
0000
0000
0000
0000
0000
0000
0000
0000
0000
0000
0000
1000
0000
0000
0000
0000
0000
0000
0000
0000
0000
0000
0000
0100
0000
0000
0000
0000
0000
0000
0000
0000
0000
0000
0000
1000
0000
0000
0000
0000
0000
0000
0000
0000
0000
0000
0000
0000
0000
0000
0000
0000
0000
0000
0000
0000
0000
0000
0000
0100
0000
0000
0000
0000
0000
0000
0000
0000
0000
0000
0000
0000
0000
0000
0000
0000
0000
0010
0000
0000
0000
0000
0000
0000
0000
0000
0000
0000
0000
0000
0000
0000
0000
0000
0000
0010
0000
0000
0000
0000
0000
0000
0000
0000
0000
0000
0000
0001
0000
0000
0000
0000
0000
0000
0000
0010
0000
0000
0000
0000
0000
0000
0000
0100
0000
0000
0000
0000
0000
0000
0000
,  // measure 41
1000
0000
0000
0000
0000
0000
0000
0000
0000
0000
0000
0000
0000
0000
0000
0000
0000
0000
0000
0000
0000
0000
0000
0000
0001
0000
0000
0000
0000
0000
0000
0000
0000
0000
0000
0000
0000
0000
0000
0000
0000
0000
0010
0000
0000
0000
0000
0000
0000
0000
0000
0000
0000
0000
0000
0000
0000
0000
0000
0000
0010
0000
0000
0000
0000
0000
0000
0000
0000
0000
0000
0000
0100
0000
0000
0000
0000
0000
0000
0000
0000
0000
0000
0000
0010
0000
0000
0000
0000
0000
0000
0000
0000
0000
0000
0000
0001
0000
0000
0000
0000
0000
0000
0000
0000
0000
0000
0000
0000
0000
0000
0000
0000
0000
0000
0000
0000
0000
0000
0000
1000
0000
0000
0000
0000
0000
0000
0000
0000
0000
0000
0000
0000
0000
0000
0000
0000
0000
0100
0000
0000
0000
0000
0000
0000
0000
0000
0000
0000
0000
0000
0000
0000
0000
0000
0000
0100
0000
0000
0000
0000
0000
0000
0000
0000
0000
0000
0000
1000
0000
0000
0000
0000
0000
0000
0000
0010
0000
0000
0000
0000
0000
0000
0000
0100
0000
0000
0000
0000
0000
0000
0000
,  // measure 42
0001
0000
0000
0000
0001
0000
0000
0001
0000
0000
0001
0000
0100
0000
0001
0000
,  // measure 43
1000
0000
0000
0000
0000
0000
0001
0000
0000
0000
0000
0000
0100
0000
0000
0000
0010
0000
0000
0000
1000
0000
0000
0000
0001
0000
0000
0000
0010
0000
0000
0000
0100
0000
0000
0000
1000
0000
0000
0100
0000
0000
0010
0000
0000
0001
0000
0000
,  // measure 44
1000
0100
0010
0001
1000
0010
0100
0001
1000
0010
0100
0001
0010
0100
0010
0001
,  // measure 45
0010
0100
1000
0010
1000
0001
1000
0010
1000
0001
1000
0100
0010
0001
0100
0000
,  // measure 46
0101
0000
0001
0000
1000
0000
0000
0100
0000
0000
0100
0000
0000
0000
0110
0000
0101
0000
0000
0000
0001
0000
0000
1000
0000
0000
0040
0000
0000
0000
0030
0000
,  // measure 47
1MM1
0000
0010
1000
0001
0000
0001
0000
0100
0000
0010
0100
0001
0000
1000
0000
,  // measure 48
0100
0000
0000
0000
0000
0000
1000
0000
0000
0001
0000
0000
0100
0000
0000
0000
0000
0000
0001
0000
0000
0000
0000
0000
1000
0000
0000
0000
0000
0000
0010
0000
1000
0000
0010
0000
1000
0000
0000
0000
0001
0000
0000
0000
0100
0000
0000
0000
,  // measure 49
0001
0000
0010
0100
1000
0000
0001
0000
0100
0000
0010
0100
0001
0000
1000
0000
,  // measure 50
0100
0000
0010
0100
1000
0000
0001
0000
0100
0000
0010
0100
0002
0000
0000
0000
,  // measure 51
1003
0000
0001
1000
0100
0000
1000
0000
0010
0000
0100
0001
0010
0000
0100
0000
,  // measure 52
1000
0000
0000
0000
0000
0000
0001
0000
0000
0100
0000
0000
0001
0000
0000
0000
0000
0000
0010
0000
0000
0000
0000
0000
0100
0000
0000
0000
0000
0000
1000
0000
0100
0000
1000
0000
0100
0000
0000
0000
1000
0000
0000
0000
0001
0000
0000
0000
,  // measure 53
0100
0000
MMMM
0000
1100
0000
1000
0100
1000
0000
0001
0000
0100
0000
0001
0000
,  // measure 54
0010
0000
0000
0000
0000
0000
0100
0000
0000
0010
0000
0000
0001
0000
0000
0000
0000
0000
1000
0000
0000
0000
0000
0000
0001
0000
0000
0000
0000
0000
0100
0000
0001
0000
0100
0000
0001
0000
0000
0000
1000
0000
0000
0000
0010
0000
0000
0000
,  // measure 55
0100
0000
0001
0010
0100
0000
0010
0000
0001
0000
1000
0010
1000
0000
0001
0000
,  // measure 56
0100
0000
0000
0000
0000
0000
0010
0000
0000
0100
0000
0000
0001
0000
0000
0000
0000
0000
0010
0000
0000
0000
0000
0000
0100
0000
0000
0000
0000
0000
1000
0000
0100
0000
1000
0000
0100
0000
0000
0000
1000
0000
0000
0000
0001
0000
0000
0000
,  // measure 57
0010
0000
0100
0010
0001
0000
1000
0000
0001
0000
0100
0001
1000
0000
0010
0000
,  // measure 58
1000
0000
0100
0010
0001
0000
1000
0000
0001
0000
0010
0100
2000
0000
0000
0000
,  // measure 59
3001
0100
1000
0001
0010
1000
0100
0001
0100
0010
0001
1000
,  // measure 60
0001
0001
0001
0001
0001
0001
1000
1000
1000
1000
1000
1000
;
