#TITLE:This Time;
#SUBTITLE:;
#ARTIST:Kayzo;
#TITLETRANSLIT:;
#SUBTITLETRANSLIT:;
#ARTISTTRANSLIT:;
#GENRE:Hardstyle;
#CREDIT:;
#BANNER:tt-bn.png;
#BACKGROUND:tt-bg.png;
#LYRICSPATH:;
#CDTITLE:cdtitle.png;
#MUSIC:this time.ogg;
#OFFSET:0.000000;
#SAMPLESTART:51.200001;
#SAMPLELENGTH:12.750000;
#SELECTABLE:YES;
#BPMS:0.000000=75.000000
,48.000000=150.000000
,76.000000=75.000000
,78.000000=150.000000
,90.000000=75.000000
,92.000000=150.000000
,104.000000=75.000000
,106.000000=150.000000
,134.000000=75.000000
,136.000000=150.000000
,168.000000=75.000000
;
#STOPS:
;
#BGCHANGES:;
#KEYSOUNDS:;
#ATTACKS:;

//---------------dance-single - ----------------
#NOTES:
     dance-single:
     X-Scale 13:
     Hard:
     9:
     0.515752,0.691154,0.162625,0.173466,0.325249,333.000000,318.000000,15.000000,16.000000,0.000000,0.000000,0.515752,0.691154,0.162625,0.173466,0.325249,333.000000,318.000000,15.000000,16.000000,0.000000,0.000000:
// measure 0
0000
0000
0000
0000
,  // measure 1
0000
0000
0000
0000
,  // measure 2
0000
0000
0000
0000
,  // measure 3
0000
0000
0000
0000
,  // measure 4
1001
0000
0001
0000
1000
0002
0000
0003
0010
0000
0010
0000
0100
0020
0000
0030
,  // measure 5
1001
0000
1000
0000
0010
2000
0000
3000
0100
0000
0100
0000
1000
0010
0100
0001
,  // measure 6
0101
0000
0001
0000
0010
0002
0000
0003
1000
0000
1000
0000
0001
2000
0000
3000
,  // measure 7
1100
0000
0100
0000
0010
0200
0000
0300
1000
0000
1000
0000
0001
2000
0000
0000
,  // measure 8
3001
0000
0100
0000
0001
0010
0100
1000
0000
0000
0010
0000
1000
0100
0020
0000
,  // measure 9
0030
0000
0000
0000
0100
0000
0000
0010
0000
0010
0001
0000
1000
0000
0010
0000
1000
0000
0000
0000
1000
0000
0000
0001
0000
0001
0100
0000
0001
0000
0010
0000
,  // measure 10
0100
0000
0010
0000
0001
0010
0100
1000
0000
0000
1000
0000
0001
0010
1000
0000
,  // measure 11
0001
0000
0100
0000
1000
0000
0000
0010
0000
0010
0100
0000
0001
0000
0010
0000
0001
0000
0000
0000
0001
0000
0000
1000
0000
1000
0001
0000
1000
0000
0100
0000
,  // measure 12
1100
1000
0001
0001
0010
1000
0010
0010
,  // measure 13
0001
0100
0010
0010
1000
0100
0010
0010
,  // measure 14
0001
1000
0100
0100
0001
0100
1000
1000
,  // measure 15
0010
0100
0001
0001
1000
0100
1000
1000
,  // measure 16
0001
0010
0100
1000
0001
0100
0010
1000
,  // measure 17
0001
0010
0100
1000
0001
0100
0010
1000
,  // measure 18
0001
0010
0001
0010
0100
0010
0100
1000
0010
1000
0010
1000
0001
1000
0001
1000
,  // measure 19
0010
1000
0001
1000
1001
0001
0001
0000
0101
0000
0001
0000
0100
0000
1000
0000
,  // measure 20
0100
0001
0100
1000
0100
0001
0010
1000
,  // measure 21
0010
0001
0010
1000
0010
0001
0100
0010
,  // measure 22
1000
0000
0001
0000
0010
0000
0100
0000
1001
0000
0000
0001
0101
0000
1000
0000
,  // measure 23
1100
1000
0010
0001
0010
1000
0010
0001
,  // measure 24
0010
1000
0100
0001
0100
1000
0100
0001
,  // measure 25
0100
1000
0010
0100
0001
1000
0100
0010
,  // measure 26
0004
0000
0013
0000
0004
0000
0013
0001
0000
0001
0100
0000
0001
0000
0010
0000
0101
0000
0000
0000
0000
0000
0000
0000
0020
0000
0000
0000
0000
0000
0000
0000
,  // measure 27
1000
0000
0001
0000
1030
0010
0100
0010
,  // measure 28
1000
0000
1000
0000
1001
0000
0100
0010
,  // measure 29
0200
0000
1000
0000
0301
0100
0001
0100
,  // measure 30
0001
0010
0010
0010
0110
0000
0100
0001
,  // measure 31
0200
0010
0000
0010
0310
0100
1000
0000
,  // measure 32
0001
0000
0100
0000
0010
0000
0000
0000
0100
0000
0000
0000
0010
0000
0000
0100
,  // measure 33
0000
0000
0100
0000
0010
0000
0000
0000
1000
0000
0000
0000
1000
0000
0000
0000
0004
0000
1003
0000
0004
0000
1003
0100
0000
0100
0010
0000
0001
0000
0010
0000
,  // measure 34
0101
0000
1000
0000
0001
0100
0002
0000
,  // measure 35
0100
0000
1000
0003
2000
0000
3010
1000
,  // measure 36
0001
1000
0000
0100
1000
0001
1000
0001
,  // measure 37
0010
0010
0100
0100
1000
1000
0001
0001
,  // measure 38
1010
0010
0100
0000
0001
1000
0200
0000
,  // measure 39
1000
0000
0001
0000
2300
0000
3001
0100
,  // measure 40
0010
1000
0000
0001
1000
0010
0100
0010
,  // measure 41
1000
0000
0001
0000
1000
0000
0001
0010
0000
0010
0100
0000
1000
0000
0010
0000
,  // measure 42
2000
0000
3000
0000
;

//---------------dance-single - ----------------
#NOTES:
     dance-single:
     X-Scale 10:
     Medium:
     7:
     0.422824,0.523651,0.162625,0.119258,0.135520,273.000000,258.000000,15.000000,11.000000,0.000000,0.000000,0.422824,0.523651,0.162625,0.119258,0.135520,273.000000,258.000000,15.000000,11.000000,0.000000,0.000000:
// measure 0
0000
0000
0000
0000
,  // measure 1
0000
0000
0000
0000
,  // measure 2
0000
0000
0000
0000
,  // measure 3
0000
0000
0000
0000
,  // measure 4
2100
0000
0010
0000
0001
0001
0000
0000
3010
0000
1000
0000
0010
1000
0000
0000
,  // measure 5
0001
0000
0001
0000
0100
0001
0000
0000
1000
0000
1000
0000
0001
0000
0010
0000
,  // measure 6
0102
0000
0100
0000
1000
1000
0000
0000
0013
0000
0001
0000
0100
0001
0000
0000
,  // measure 7
1000
0000
1000
0000
0010
1000
0000
0000
0100
0000
0100
0000
0010
0002
0000
0000
,  // measure 8
0103
0000
0001
0000
1000
0000
0001
0000
0010
0000
0100
0000
1000
0100
1000
0000
,  // measure 9
0001
0000
0010
0000
0100
0000
0010
0001
0010
0000
0001
0000
1000
0000
0100
0010
,  // measure 10
0100
0000
1000
0000
0001
0010
0100
0010
0001
0000
1000
0000
0010
0100
0010
0000
,  // measure 11
1000
0000
0100
0000
0010
0000
0001
0100
0001
0000
0001
0000
0001
0000
0100
0010
,  // measure 12
0110
0000
0001
0010
0100
0000
1000
0000
,  // measure 13
0010
0000
1000
0100
0010
0000
0001
0000
,  // measure 14
1000
0000
0001
0100
0010
0000
1000
0000
,  // measure 15
0001
0000
1000
0010
0100
0000
0001
0000
,  // measure 16
1000
0100
0010
0001
1000
0100
0010
0001
,  // measure 17
1000
0010
0100
0001
1000
0010
0100
0001
,  // measure 18
1000
0100
0010
0100
1000
0000
0001
0000
,  // measure 19
1000
0100
0010
0001
0100
0100
0100
0000
0110
0000
0000
0000
0001
0000
0100
0000
,  // measure 20
0001
0000
1000
0000
0010
0000
1000
0100
,  // measure 21
1000
0010
0010
0010
0010
0000
0100
0001
,  // measure 22
0100
0000
0000
0000
0010
0000
0000
0000
1001
0000
0000
0001
1000
0000
1000
0000
,  // measure 23
1010
0000
0100
0010
0001
1000
0001
1000
,  // measure 24
0001
0000
0010
0100
1000
0001
1000
0001
,  // measure 25
1000
0000
0010
0100
0001
1000
0001
1000
,  // measure 26
0001
0000
0001
0000
0001
0100
0010
1000
1010
0000
0000
0000
0010
0000
0000
0000
,  // measure 27
0110
0000
0100
0000
0001
0100
1000
0100
,  // measure 28
0001
0001
0011
0100
,  // measure 29
1010
0000
0001
0000
1000
0010
1000
0010
,  // measure 30
1000
1000
1000
0000
1001
0000
0100
0000
,  // measure 31
0011
0001
0100
0001
0010
0000
0100
0000
,  // measure 32
1000
0010
1000
0000
1001
0000
0100
0000
,  // measure 33
0110
0000
0000
0000
0001
0000
0000
0000
1000
0000
1000
0000
1000
0100
0010
0001
,  // measure 34
0011
0000
0100
0000
0001
0010
0200
0000
,  // measure 35
0000
0000
0001
0300
2000
0000
0000
3010
,  // measure 36
1000
0020
0130
0020
0030
0100
0001
0100
,  // measure 37
0001
0010
0001
0010
0100
1000
0100
1000
,  // measure 38
0010
0000
0100
0000
0001
0010
0200
0000
,  // measure 39
0000
0000
0001
0000
2300
0000
3010
1000
,  // measure 40
0001
0020
0130
0020
0030
0001
1000
0001
,  // measure 41
0100
0000
0000
0000
0100
0000
0000
0100
0000
0100
0010
0000
1000
0000
0001
0000
,  // measure 42
1000
0000
0000
0000
;

//---------------dance-single - ----------------
#NOTES:
     dance-single:
     X-Scale 6:
     Easy:
     4:
     0.257102,0.318744,0.043367,0.010842,0.000000,166.000000,162.000000,4.000000,1.000000,0.000000,0.000000,0.257102,0.318744,0.043367,0.010842,0.000000,166.000000,162.000000,4.000000,1.000000,0.000000,0.000000:
// measure 0
0000
0000
0000
0000
,  // measure 1
0000
0000
0000
0000
,  // measure 2
0000
0000
0000
0000
,  // measure 3
0000
0000
0000
0000
,  // measure 4
1001
0001
0100
0010
,  // measure 5
1000
0100
0010
0001
,  // measure 6
1000
0010
1000
0100
,  // measure 7
0010
0001
0100
0010
,  // measure 8
1000
0000
0010
0000
0100
0000
0001
0010
,  // measure 9
0001
0000
1000
0010
1000
0000
0010
0100
,  // measure 10
0010
0000
1000
0000
0100
0000
0010
0001
,  // measure 11
0010
0000
0001
0100
0001
0000
0010
0100
,  // measure 12
0010
0001
1000
0001
,  // measure 13
0010
0100
0010
0001
,  // measure 14
1000
0010
1000
0100
,  // measure 15
0010
0100
1000
0001
,  // measure 16
1000
0010
1000
0010
,  // measure 17
0100
0001
0100
0001
,  // measure 18
0010
0100
1000
0001
0100
0010
1000
0100
,  // measure 19
0010
0010
1001
0001
,  // measure 20
1000
0100
0001
0100
,  // measure 21
1000
0010
0100
0001
,  // measure 22
0010
0100
1000
0100
,  // measure 23
1000
0010
0100
0001
,  // measure 24
0010
1000
0010
0001
,  // measure 25
0100
0010
1000
0100
,  // measure 26
0010
0001
0010
0001
0011
0000
0000
0000
,  // measure 27
0100
0000
0001
0010
,  // measure 28
0100
0100
1000
0000
,  // measure 29
0010
0000
1000
0100
,  // measure 30
0010
0010
0001
0000
,  // measure 31
0100
0000
0001
0010
,  // measure 32
0100
0100
1000
0000
,  // measure 33
0010
0000
0000
0000
1000
0100
1000
0100
,  // measure 34
1100
0000
0010
0000
1000
0100
0010
0000
,  // measure 35
0001
0100
0001
0010
,  // measure 36
0100
1000
0001
1000
,  // measure 37
0100
0010
0100
0010
0001
0010
0001
0010
,  // measure 38
0100
0000
1000
0000
0001
0000
1000
0100
,  // measure 39
0010
0100
1000
0001
,  // measure 40
0100
0001
0010
0100
,  // measure 41
2000
0000
0010
0000
,  // measure 42
3000
0000
0000
0000
;

//---------------dance-single - ----------------
#NOTES:
     dance-single:
     X-Scale 1:
     Beginner:
     1:
     0.106868,0.182139,0.065050,0.010842,0.000000,69.000000,63.000000,6.000000,1.000000,0.000000,0.000000,0.106868,0.182139,0.065050,0.010842,0.000000,69.000000,63.000000,6.000000,1.000000,0.000000,0.000000:
// measure 0
0000
0000
0000
0000
,  // measure 1
0000
0000
0000
0000
,  // measure 2
0000
0000
0000
0000
,  // measure 3
0000
0000
0000
0000
,  // measure 4
1100
0000
0001
0000
,  // measure 5
0101
0000
0010
0000
,  // measure 6
1010
0000
1000
0000
,  // measure 7
1001
0000
0100
0000
,  // measure 8
0001
0000
0000
0000
,  // measure 9
0010
0000
0000
0000
,  // measure 10
0100
0000
0000
0000
,  // measure 11
1000
0000
0000
0000
,  // measure 12
0001
0000
0000
0000
,  // measure 13
1000
0000
0000
0000
,  // measure 14
0010
0000
0000
0000
,  // measure 15
0100
0000
0000
0000
,  // measure 16
0001
0000
0010
0000
,  // measure 17
0100
0000
1000
0000
,  // measure 18
0001
0000
0100
0000
,  // measure 19
0010
0100
0110
0000
,  // measure 20
0001
0000
1000
0000
,  // measure 21
0010
0000
1000
0000
,  // measure 22
0001
0000
0100
0000
,  // measure 23
0100
0000
0010
0000
,  // measure 24
1000
0000
0001
0000
,  // measure 25
1000
0000
0100
0000
,  // measure 26
0010
0000
0001
0000
,  // measure 27
0100
0000
0000
0000
,  // measure 28
0001
0000
1000
0000
,  // measure 29
0001
0000
0000
0000
,  // measure 30
0100
0000
0010
0000
,  // measure 31
1000
0000
0000
0000
,  // measure 32
0001
0000
0100
0000
,  // measure 33
0010
0000
1000
0000
,  // measure 34
1001
0000
0000
0100
,  // measure 35
0000
0000
0001
0000
,  // measure 36
1000
0000
0001
0000
,  // measure 37
0100
0000
0010
0000
,  // measure 38
0100
0000
0000
0001
,  // measure 39
0000
0000
1000
0000
,  // measure 40
0100
0000
0010
0000
,  // measure 41
0002
0000
0000
0000
,  // measure 42
0003
0000
0000
0000
;
