#TITLE:This Heart Attack;
#SUBTITLE:;
#ARTIST:Faker;
#TITLETRANSLIT:;
#SUBTITLETRANSLIT:;
#ARTISTTRANSLIT:;
#GENRE:Indie Rock;
#CREDIT:;
#BANNER:tha-bn.png;
#BACKGROUND:tha-bg.png;
#LYRICSPATH:;
#CDTITLE:cdtitle.png;
#MUSIC:tha.ogg;
#OFFSET:0.000000;
#SAMPLESTART:48.011002;
#SAMPLELENGTH:15.500000;
#SELECTABLE:YES;
#BPMS:0.000000=122.000000
;
#STOPS:0.000000=-3.934426,
8.000000=0.500000,
9.000000=-3.934426,
17.000000=0.500000,
18.000000=-4.180328,
26.500000=0.250000
;
#BGCHANGES:27.000=tha.mp4=1.000=1=0=1===CrossFade==,
99999=-nosongbg-=1.000=0=0=0 // don't automatically add -songbackground-
;
#KEYSOUNDS:;
#ATTACKS:;

//---------------dance-single - ----------------
#NOTES:
     dance-single:
     :
     Hard:
     8:
     0.449101,0.522395,0.072627,0.155629,0.171192,303.000000,296.000000,7.000000,15.000000,11.000000,0.000000,0.449101,0.522395,0.072627,0.155629,0.171192,303.000000,296.000000,7.000000,15.000000,11.000000,0.000000:
// measure 0
FF00
0000
0000
0000
,  // measure 1
0000
0000
0000
0000
,  // measure 2
MM00
00FF
0000
0000
,  // measure 3
0000
0000
0000
0000
,  // measure 4
0000
00MM
F00F
0000
,  // measure 5
0000
0000
0000
0000
,  // measure 6
0000
0000
0000
0000
0000
M00M
1001
0000
,  // measure 7
0001
0010
0001
0000
1000
0100
0100
0000
,  // measure 8
0001
0000
0000
0000
0100
0000
0100
0000
1000
0000
0001
0010
0000
0000
0010
0000
,  // measure 9
0002
0000
1003
0100
2000
0000
3020
0000
,  // measure 10
1030
0000
0010
1000
0010
0000
1000
0000
0100
0000
0010
0000
0001
0000
0000
0000
,  // measure 11
0001
0010
0100
0000
0100
0010
0100
0000
,  // measure 12
1000
0000
0000
0000
0001
1000
0000
0000
0010
0000
0100
0010
0000
0000
0010
0000
,  // measure 13
2000
0000
3001
0010
0002
0000
0203
0000
,  // measure 14
0301
0000
0000
0100
0000
0100
0010
0000
1000
0000
0001
0000
1000
0000
0000
0000
,  // measure 15
1000
0010
0001
0000
0001
0010
1000
0000
,  // measure 16
0100
0000
0000
0000
0010
0000
0001
0000
0010
0000
0001
0100
0000
0000
0100
0000
,  // measure 17
0020
0000
0130
0010
0200
0000
0302
0000
,  // measure 18
0103
0001
1000
0000
0010
0010
0100
0000
,  // measure 19
0001
0010
1000
0000
1000
0010
0001
0000
,  // measure 20
0001
0000
0100
0000
0010
0000
0000
0000
0010
0000
1000
0001
0000
0000
0001
0000
,  // measure 21
0200
0000
0310
1000
0020
0000
2030
0000
,  // measure 22
3001
1000
0001
0100
0001
0010
0011
0000
,  // measure 23
0001
0000
0000
0000
0010
0000
0001
0000
1000
0000
1000
0001
0000
0000
0100
0000
,  // measure 24
0010
0100
0010
0001
0010
0100
0110
0000
,  // measure 25
0010
0000
0000
0000
1000
0000
0001
0000
0100
0010
0000
0010
0000
0000
0100
0000
,  // measure 26
0001
1000
0001
0010
0100
1000
1100
0000
,  // measure 27
1000
0000
0000
0000
0010
0000
0100
0000
0100
0001
0000
0010
0000
0000
0100
0000
,  // measure 28
0100
0010
0001
1000
0001
1000
1001
0000
,  // measure 29
0001
0000
0000
0000
1000
0000
0010
0000
0100
0010
0100
0010
0100
0000
0100
0000
,  // measure 30
0100
0100
0010
0010
0010
0010
0110
0000
,  // measure 31
1000
0000
0000
0001
0000
0000
0100
0000
0000
0010
0000
0000
0010
0000
0000
0100
,  // measure 32
0000
0001
1000
0001
0010
0100
1000
0000
,  // measure 33
1000
0000
1000
0010
0100
0001
0010
1000
,  // measure 34
0010
0001
0001
0100
0010
0010
0100
0000
,  // measure 35
0001
0000
0002
0000
1000
0000
0000
0100
0000
0000
1000
0000
1003
0000
0001
0000
,  // measure 36
0100
0100
0010
0001
0010
0100
0001
0000
,  // measure 37
0001
1000
0000
1000
0100
0010
0000
0010
,  // measure 38
0001
0000
0000
0000
0001
0000
1000
0000
0001
0010
0001
0010
0001
0000
0000
0000
,  // measure 39
0001
0000
0000
1000
0000
0000
0010
0000
0000
0100
0000
0000
0100
0000
0000
0001
,  // measure 40
0000
1000
0001
1000
0100
0010
0001
0000
,  // measure 41
0001
0000
0000
0000
0001
0010
0001
0000
0100
0000
0100
0001
1000
0000
0000
0000
,  // measure 42
1000
0100
0010
0100
0010
0001
0001
0000
,  // measure 43
1000
0000
2000
0000
0001
0000
0000
0010
0000
0000
0001
0000
3001
0000
1000
0000
,  // measure 44
0010
1000
0100
0001
0100
1000
0010
0000
,  // measure 45
0010
0100
0000
0100
0010
1000
0001
0001
,  // measure 46
1000
0000
0000
0100
1000
0100
1000
0000
0001
0010
0001
0000
0011
0000
0000
0000
,  // measure 47
0001
0010
0100
0000
0010
0100
1000
0000
,  // measure 48
1000
0100
0001
0000
0001
0100
1000
0000
,  // measure 49
1000
0100
0010
0000
0100
0010
0001
0000
,  // measure 50
0001
0010
1000
0000
1000
0010
0002
0000
,  // measure 51
M000
0000
0000
0M00
0000
0000
M000
0000
0000
00M0
0000
0000
M000
0000
0000
0000
,  // measure 52
0000
0000
1000
0000
0000
0000
0000
0010
0000
0000
0000
0000
0000
0000
0000
0000
,  // measure 53
0003
0000
0000
0000
;

//---------------dance-single - ----------------
#NOTES:
     dance-single:
     :
     Medium:
     6:
     0.351277,0.412417,0.051876,0.207505,0.025938,237.000000,232.000000,5.000000,20.000000,3.000000,0.000000,0.351277,0.412417,0.051876,0.207505,0.025938,237.000000,232.000000,5.000000,20.000000,3.000000,0.000000:
// measure 0
0000
0000
0000
0000
,  // measure 1
0000
0000
0000
0000
,  // measure 2
0000
0000
0000
0000
,  // measure 3
0000
0000
0000
0000
,  // measure 4
0000
0000
0000
0000
,  // measure 5
0000
0000
0000
0000
,  // measure 6
0000
0000
0000
0011
,  // measure 7
0010
0100
1000
0100
,  // measure 8
0010
0000
0001
0000
0010
0000
0001
0001
,  // measure 9
2000
0000
3100
0100
2000
0000
3020
0000
,  // measure 10
0130
0000
0100
0000
0100
0001
1000
0000
,  // measure 11
0100
0010
0001
0010
,  // measure 12
0100
0000
1000
0000
0100
0000
1000
1000
,  // measure 13
0002
0000
0013
0010
0002
0000
0203
0000
,  // measure 14
0301
0000
0100
0000
1000
0100
0001
0000
,  // measure 15
1000
0000
0001
0000
0001
0010
1000
0000
,  // measure 16
1000
0000
0000
0000
0010
0000
0000
0000
0001
0000
0000
0001
0000
0000
1000
0000
,  // measure 17
0020
0000
0130
0100
0020
0000
2030
0000
,  // measure 18
3100
0000
1000
0000
0010
0100
0010
0000
,  // measure 19
1000
0000
0001
0000
0010
1000
0010
0000
,  // measure 20
0001
0000
0000
0000
0010
0000
0000
0000
0010
0000
0000
0001
0000
0000
0001
0000
,  // measure 21
0200
0000
0310
0010
0200
0000
0302
0000
,  // measure 22
1003
0000
1000
0100
1000
0010
1010
0000
,  // measure 23
0001
0000
0010
0001
1000
0000
1000
0100
,  // measure 24
0010
0000
0010
0001
0010
0001
0011
0000
,  // measure 25
0010
0000
0001
0100
1000
0000
1000
0010
,  // measure 26
0001
0000
0001
0010
0001
0100
0101
0000
,  // measure 27
1000
0000
0010
0100
0010
0000
0010
0100
,  // measure 28
0001
0000
1000
0100
0010
0001
0012
0000
,  // measure 29
0000
0000
0010
0000
0000
0020
0000
0000
0000
0000
0000
0000
0030
0000
0000
0000
,  // measure 30
0100
0000
0010
1000
0000
1000
1003
0000
,  // measure 31
1000
0001
0100
0010
,  // measure 32
0100
0001
1000
0001
0010
0001
0100
0000
,  // measure 33
0001
0000
1000
1000
0100
0000
0010
0100
,  // measure 34
0010
0000
0010
0000
0001
0010
0001
0000
,  // measure 35
0001
0002
1000
0000
0100
0000
1003
0001
,  // measure 36
0100
0000
0010
0001
0010
0000
1000
0000
,  // measure 37
1000
0100
0000
0100
1000
0010
0000
0010
,  // measure 38
0100
0000
0001
1000
0002
0100
0103
0000
,  // measure 39
0001
1000
0010
0100
,  // measure 40
0010
1000
0001
1000
0100
1000
0001
0000
,  // measure 41
0001
0000
0001
0100
0010
0100
1000
0000
,  // measure 42
0100
0000
0010
0000
0100
0001
0001
0000
,  // measure 43
1000
2000
0001
0000
0010
0000
3001
1000
,  // measure 44
0010
0000
0010
0100
0100
0001
0010
0000
,  // measure 45
0010
0100
0000
0010
0100
1000
0000
1000
,  // measure 46
0001
0000
0000
0200
0000
0000
0000
0000
0302
0000
0000
0000
0103
0000
0000
0000
,  // measure 47
0001
1000
0010
0001
,  // measure 48
0010
0000
1000
0000
1000
0100
1000
0000
,  // measure 49
1000
0010
0100
0001
,  // measure 50
1000
0000
0010
0000
1000
0010
2000
0000
,  // measure 51
00M0
0000
0000
000M
0000
0000
00M0
0000
,  // measure 52
0000
0000
0010
0000
0000
0000
0000
0010
0000
0000
0000
0000
0000
0000
0000
0000
,  // measure 53
3000
0000
0000
0000
;

//---------------dance-single - ----------------
#NOTES:
     dance-single:
     :
     Easy:
     3:
     0.246042,0.357428,0.134879,0.103753,0.005188,166.000000,153.000000,13.000000,10.000000,0.000000,0.000000,0.246042,0.357428,0.134879,0.103753,0.005188,166.000000,153.000000,13.000000,10.000000,0.000000,0.000000:
// measure 0
0000
0000
0000
0000
,  // measure 1
0000
0000
0000
0000
,  // measure 2
0000
0000
0000
0000
,  // measure 3
0000
0000
0000
0000
,  // measure 4
0000
0000
0000
0000
,  // measure 5
0000
0000
0000
0000
,  // measure 6
0000
0000
0000
0100
,  // measure 7
0000
0100
1000
0100
,  // measure 8
0000
0100
0010
0001
,  // measure 9
0002
0003
0020
0000
,  // measure 10
0130
0000
0000
0000
0100
0100
0100
0000
,  // measure 11
0000
1000
0010
0001
,  // measure 12
0000
0100
1000
0010
,  // measure 13
2000
3000
0200
0000
,  // measure 14
1300
0000
0000
0000
0010
0010
0010
0000
,  // measure 15
0000
1000
0000
1000
,  // measure 16
0100
0000
0010
0000
0000
0000
0010
0001
,  // measure 17
0020
0030
0002
0000
,  // measure 18
0103
0000
0001
0000
0010
0001
0100
0000
,  // measure 19
0000
0001
0000
0010
,  // measure 20
0100
0000
1000
0000
0000
0000
0100
1000
,  // measure 21
0200
0300
2000
0000
,  // measure 22
3100
1100
0110
0011
,  // measure 23
0000
0000
0000
0010
0010
0000
0001
0100
,  // measure 24
0010
0110
0101
1001
,  // measure 25
0000
0000
0000
0100
1000
0000
1000
0010
,  // measure 26
1000
1010
0110
0101
,  // measure 27
0000
0000
0000
0100
0100
0000
0010
0100
,  // measure 28
0001
0101
0110
1010
,  // measure 29
0000
0000
0010
0000
0000
0020
0000
0000
0000
0000
0000
0000
0030
0000
0000
0000
,  // measure 30
0100
0000
0010
1000
0000
1000
0001
0000
,  // measure 31
0000
0001
0000
0010
,  // measure 32
0000
0100
1000
0000
1000
0000
0010
0000
,  // measure 33
1000
0000
0100
1000
0100
0000
0010
0100
,  // measure 34
0010
0010
0001
0001
,  // measure 35
0000
1000
0000
0001
,  // measure 36
0000
0000
0010
0001
0010
0000
0100
0000
,  // measure 37
0000
0000
1000
0000
0000
1000
0000
0000
,  // measure 38
0010
0000
0010
1000
0000
0100
0100
0000
,  // measure 39
0000
1000
0000
0001
,  // measure 40
0000
0001
0100
0000
0100
0000
0100
0000
,  // measure 41
0001
0000
0001
0100
0000
0100
0010
0000
,  // measure 42
1000
0100
0010
0001
,  // measure 43
0000
1000
0000
0001
,  // measure 44
0001
0000
1000
0100
1000
0000
0010
0000
,  // measure 45
0010
0100
0000
0010
0000
1000
0000
1000
,  // measure 46
0001
0010
0100
0110
,  // measure 47
0000
1000
1000
0001
,  // measure 48
0000
0010
0010
0100
,  // measure 49
0000
0100
0100
1000
,  // measure 50
0000
0001
0001
0020
,  // measure 51
0000
0000
0000
0000
,  // measure 52
0000
0000
0000
0000
,  // measure 53
0030
0000
0000
0000
;

//---------------dance-single - ----------------
#NOTES:
     dance-single:
     :
     Beginner:
     1:
     0.174897,0.274945,0.051876,0.124503,0.005188,118.000000,113.000000,5.000000,12.000000,0.000000,0.000000,0.174897,0.274945,0.051876,0.124503,0.005188,118.000000,113.000000,5.000000,12.000000,0.000000,0.000000:
0000
0000
0000
0000
,
0000
0000
0000
0000
,
0000
0000
0000
0000
,
0000
0000
0000
0000
,
0000
0000
0000
0000
,
0000
0000
0000
0000
,
0000
0000
0000
0000
,
0001
0000
0001
0000
,
1000
0000
1000
0000
,
0200
0300
0020
0000
,
0130
0000
0001
0010
,
0100
0000
0100
0000
,
0010
0000
0010
0000
,
0002
0003
0020
0000
,
0031
0000
1000
0100
,
1000
0000
1000
0000
,
0001
0000
0001
0000
,
0020
0030
0002
0000
,
0103
0000
1000
0100
,
0010
0000
0010
0000
,
0100
0000
0100
0000
,
0200
0300
0020
0000
,
1030
0010
0010
0010
,
0000
1000
0000
0001
,
0000
0100
0100
0100
,
0000
0001
0000
1000
,
0000
0010
0010
0010
,
0000
0100
0000
0001
,
0000
0100
0100
0100
,
0000
0000
0010
0000
0000
0020
0000
0000
0000
0000
0000
0000
0030
0000
0000
0000
,
1000
0100
0010
0011
,
0000
0001
0000
0010
,
0000
1000
0001
1000
,
0001
0000
0100
0000
,
0010
0000
1000
1001
,
0000
2000
0000
0000
0000
0000
0001
0000
,
3000
0010
0100
0010
,
0100
0000
0000
0001
1000
0001
0000
0000
,
0010
0001
0100
0110
,
0000
1000
0000
0001
,
0000
0001
0100
0010
,
1000
0000
0010
0000
,
1000
0100
0010
1001
,
0000
0002
0000
0000
0000
0000
1000
0000
,
0003
0001
0100
0010
,
1000
0000
0000
0001
1000
0001
0000
0000
,
0100
0010
0100
0110
,
0000
1000
0000
0001
,
0000
0010
0000
0100
,
0000
0010
0000
0001
,
0000
1000
0000
2000
,
0000
0000
0000
0000
,
0000
0000
0000
0000
,
3000
0000
0000
0000
;
