#TITLE:The Spook;
#SUBTITLE:ft. BassKillers & B3nte;
#ARTIST:KSHMR;
#TITLETRANSLIT:;
#SUBTITLETRANSLIT:;
#ARTISTTRANSLIT:;
#GENRE:Melbourne Bounce;
#CREDIT:;
#BANNER:The Spook-bn.png;
#BACKGROUND:The Spook-bg.png;
#LYRICSPATH:;
#CDTITLE:cdtitle.png;
#MUSIC:the spook.ogg;
#OFFSET:-0.006000;
#SAMPLESTART:67.505997;
#SAMPLELENGTH:15.000000;
#SELECTABLE:YES;
#DISPLAYBPM:64.000000:128.000000;
#BPMS:0.000000=64.000000
,40.000000=128.000000
,108.000000=256.000000
,111.000000=128.000000
,142.000000=256.000000
,145.000000=128.000000
;
#STOPS:100.000000=-2.578000,
144.000000=0.234000
;
#BGCHANGES:;
#KEYSOUNDS:;
#ATTACKS:TIME=65.629997:LEN=1.170000:MODS=Stealth:TIME=0.010000:LEN=5.620000:MODS=Stealth;

//---------------dance-single - don't suck your thumbs or the spook will get you----------------
#NOTES:
     dance-single:
     X-Scale 11:
     Hard:
     8:
     0.443256,0.563356,0.147339,0.130005,0.143006,358.000000,341.000000,17.000000,15.000000,8.000000,0.000000,0.443256,0.563356,0.147339,0.130005,0.143006,358.000000,341.000000,17.000000,15.000000,8.000000,0.000000:
// measure 0
0000
0000
0000
0000
,  // measure 1
0000
0000
0000
0000
,  // measure 2
1200
0000
0301
0100
1000
0000
0001
0010
,  // measure 3
0021
0000
1030
0010
0002
0000
0023
0000
,  // measure 4
0230
0000
0301
0100
1000
0000
0010
0100
,  // measure 5
0120
1000
2030
3200
,  // measure 6
1300
0100
0001
0100
1000
0010
0100
0001
,  // measure 7
0101
0100
0010
1000
0001
1000
0100
0010
,  // measure 8
0101
0010
0100
0001
1000
0100
1000
0010
,  // measure 9
0200
0000
0000
0000
0302
0000
0013
0001
,  // measure 10
0011
0000
0100
0001
0100
0000
0100
0010
,  // measure 11
0100
0000
0100
0001
0100
0000
0001
0000
,  // measure 12
1000
0000
0001
1000
0001
0000
0001
0100
,  // measure 13
0001
0000
0001
1000
0001
0000
1000
0000
,  // measure 14
0100
0000
0010
0100
0010
0000
0010
0001
,  // measure 15
0010
0000
0010
0100
0010
0000
0001
0000
,  // measure 16
1000
0000
0100
1000
0100
0000
0100
0001
,  // measure 17
0100
0000
0100
1000
0100
0000
1000
0000
,  // measure 18
1001
0000
0000
0000
0001
0000
0100
0000
0001
0000
0000
0000
1000
0000
0010
1000
,  // measure 19
0010
0000
0000
0000
0100
0000
0010
0000
0100
0000
0000
0000
0001
0000
0100
0001
,  // measure 20
0100
0000
0000
0000
0010
0000
0100
0000
0010
0000
0000
0000
1000
0000
0100
1000
,  // measure 21
0100
0000
0000
0000
1000
0000
0001
0000
1000
0000
0000
0000
0001
0000
0010
0001
,  // measure 22
0010
0000
0000
0001
0100
0000
0001
0000
0000
0100
0000
0000
0010
0000
1000
0010
,  // measure 23
1000
0000
0000
0001
1000
0000
0001
0000
0000
0010
0000
0000
0001
0000
1000
0001
,  // measure 24
1000
0001
1000
0001
1000
0010
1000
0010
1000
0100
1000
0100
1000
0010
1000
0010
,  // measure 25
1000
1001
0110
1001
,  // measure 26
0001
0010
0001
1000
0001
0000
0000
0000
,  // measure 27
M00M
0MM0
M00M
1001
,  // measure 28
0001
0010
0100
1000
0001
0010
0001
0100
,  // measure 29
1000
0010
0001
1000
0001
0010
0100
0000
,  // measure 30
1000
0010
0100
0001
0010
0100
1000
0100
,  // measure 31
0001
0100
1000
0100
0100
0100
1100
0000
,  // measure 32
1000
0010
1000
0100
0010
0001
0100
0010
,  // measure 33
1000
0100
0010
0100
2000
0000
3001
0000
,  // measure 34
0010
0000
0100
0000
1000
0000
0001
0000
1000
0000
0100
0000
1000
0010
1000
0000
,  // measure 35
0001
0010
0100
0000
0110
0000
0000
0000
,  // measure 36
0220
0330
0000
0000
0000
0000
0000
0000
0000
0000
0000
0000
0000
0000
0000
0000
0000
0000
0000
0000
0000
0000
0000
0000
0000
0000
0000
0000
0000
0000
0000
0000
0000
0000
0000
0000
0000
0000
0000
0000
0000
0000
0000
0000
0000
0000
0000
0000
1MM1
0000
0000
0000
0000
0000
0000
0000
0000
0000
0000
0000
0000
0000
0000
0000
0000
0000
0000
0000
0000
0000
0000
0000
1000
0000
0000
0000
0000
0000
0000
0000
0000
0000
0000
0000
0000
0000
0000
0000
0000
0000
0000
0000
0000
0000
0000
0000
0001
0000
0000
0000
0000
0000
0000
0000
0000
0000
0000
0000
0000
0000
0000
0000
0000
0000
0000
0000
0000
0000
0000
0000
1000
0000
0000
0000
0000
0000
0000
0000
0000
0000
0000
0000
0000
0000
0000
0000
0000
0000
0000
0000
0000
0000
0000
0000
0100
0000
0000
0000
0000
0000
0000
0000
0000
0000
0000
0000
0000
0000
0000
0000
0000
0000
0000
0000
0000
0000
0000
0000
0001
0000
0000
0000
0000
0000
0000
0000
0000
0000
0000
0000
0000
0000
0000
0000
0000
0000
0000
0000
0000
0000
0000
0000
,  // measure 37
0100
0010
0001
1000
0001
0010
0001
0001
,  // measure 38
0101
0000
0000
0010
0100
0000
0010
0000
1000
0000
0001
0000
1000
0000
0100
0000
,  // measure 39
0001
0000
0100
0000
0010
0000
0001
0000
0100
0000
0001
0000
0010
0001
0010
0001
,  // measure 40
0010
0000
0000
0100
0010
0000
0001
0000
1000
0000
0100
0000
1000
0000
0010
0000
,  // measure 41
0001
0010
0100
0001
1000
0010
1000
0010
,  // measure 42
1010
0000
0000
1000
0010
0000
1000
0000
0001
0000
0000
0010
0001
0000
0100
0000
,  // measure 43
0001
0000
0000
0010
0100
0000
1000
0000
0002
0000
0003
0000
2000
0000
3000
0000
,  // measure 44
1001
0000
0001
0100
1000
0100
0001
0010
,  // measure 45
0100
0010
0001
0100
0010
1000
0001
1000
,  // measure 46
0001
0000
0100
0010
0100
1000
0100
0010
,  // measure 47
1000
0001
1000
0100
0010
0001
0011
0000
,  // measure 48
1001
1000
0001
0010
1000
0010
0100
1000
,  // measure 49
0100
0000
0001
0000
0100
0000
1000
0000
0100
0000
0010
0000
0001
0010
0001
0010
,  // measure 50
0001
0000
0000
0001
1000
0000
0001
0000
0010
0000
0000
0100
0010
0000
0100
0000
,  // measure 51
1000
0000
0000
0001
1000
0000
0010
0000
0100
0000
0001
0000
0010
0001
0010
0001
,  // measure 52
0010
0000
0000
0000
;

//---------------dance-single - and you thought he was gone...----------------
#NOTES:
     dance-single:
     X-Scale 8:
     Medium:
     6:
     0.385063,0.428150,0.112671,0.225342,0.069336,311.000000,298.000000,13.000000,26.000000,3.000000,0.000000,0.385063,0.428150,0.112671,0.225342,0.069336,311.000000,298.000000,13.000000,26.000000,3.000000,0.000000:
0000
0000
0000
0000
,
0000
0000
0000
0000
,
2001
0000
3001
1000
0020
0000
0130
0010
,
0200
0000
1300
0100
0002
0000
0013
0000
,
0012
0000
0103
0001
2000
0000
3001
1000
,
0200
1000
0320
0230
,
0310
0100
0010
0100
2000
0001
3001
1000
,
1001
0001
0100
1000
0200
0001
0301
0100
,
0110
0010
0100
0001
0020
0100
0130
0010
,
0020
0000
0000
0000
0032
0000
1003
0001
,
1001
0000
1000
0001
1000
0000
0001
0100
,
0001
0000
0100
0010
0100
0000
0001
0000
,
1000
0000
0100
0010
0100
0000
1000
0100
,
1000
0000
0001
1000
0001
0000
1000
0000
,
0010
0000
0100
0001
0100
0000
0001
0010
,
0001
0000
0010
0100
0010
0000
0001
0000
,
1000
0000
0100
1000
0100
0000
1000
0010
,
1000
0000
0010
0100
0010
0000
1000
0000
,
1010
0000
0100
0100
0010
0000
1000
1000
,
0010
0000
0000
0000
0100
0000
0100
0000
0010
0000
0000
0000
1000
0000
1000
0001
,
1000
0000
0010
0010
0100
0000
0001
0001
,
0100
0000
0000
0000
0010
0000
0010
0000
0100
0000
0000
0000
0001
0000
0001
1000
,
0001
0000
0000
1000
0000
0000
0001
0000
0000
1000
0000
0000
0001
0000
0100
0000
,
0001
0000
0000
1000
0000
0000
0001
0000
0000
1000
0000
0000
0001
0000
1000
0001
,
1000
0001
0010
1000
0010
0001
0100
0001
,
0010
0001
0010
0001
,
0011
0000
1000
0001
1000
0000
0000
0000
,
00M0
000M
00M0
0011
,
1000
0001
1000
0000
1000
0010
1000
0000
,
1000
0100
1000
0010
0100
0001
0010
0000
,
0001
0010
1000
0000
0010
0100
1000
0000
,
0001
0100
0001
0020
0032
0023
0031
0000
,
1000
0001
1000
0000
1000
0010
1000
0000
,
1000
0100
1000
0000
0200
0000
0310
0000
,
0001
0000
0010
0000
1000
0000
0000
0000
0010
0000
0100
0000
1000
0100
1000
0000
,
0001
0100
0001
0000
0101
0000
0000
0000
,
0202
0303
0000
0000
0000
0000
0000
0000
0000
0000
0000
0000
0000
0000
0000
0000
0000
0000
0000
0000
0000
0000
0000
0000
0000
0000
0000
0000
0000
0000
0000
0000
0000
0000
0000
0000
0000
0000
0000
0000
0000
0000
0000
0000
0000
0000
0000
0000
0110
0000
0000
0000
0000
0000
0000
0000
0000
0000
0000
0000
0000
0000
0000
0000
0000
0000
0000
0000
0000
0000
0000
0000
0010
0000
0000
0000
0000
0000
0000
0000
0000
0000
0000
0000
0000
0000
0000
0000
0000
0000
0000
0000
0000
0000
0000
0000
0100
0000
0000
0000
0000
0000
0000
0000
0000
0000
0000
0000
0000
0000
0000
0000
0000
0000
0000
0000
0000
0000
0000
0000
0000
0000
0000
0000
0000
0000
0000
0000
0000
0000
0000
0000
0000
0000
0000
0000
0000
0000
0000
0000
0000
0000
0000
0000
0001
0000
0000
0000
0000
0000
0000
0000
0000
0000
0000
0000
0000
0000
0000
0000
0000
0000
0000
0000
0000
0000
0000
0000
0100
0000
0000
0000
0000
0000
0000
0000
0000
0000
0000
0000
0000
0000
0000
0000
0000
0000
0000
0000
0000
0000
0000
0000
,
0001
0000
0000
0000
1000
0000
0100
0000
1000
0000
0000
0000
0200
0300
0200
0300
,
0100
0000
0010
0100
1000
0000
0001
0100
,
0001
0000
0000
0000
1000
0000
0001
0000
0100
0000
0001
0000
1000
0001
1000
0001
,
1000
0000
0010
0100
0010
0000
1000
0010
,
1000
0000
0001
0010
0001
0100
0001
0010
,
0001
0000
0000
1000
0000
0000
0001
0000
0100
0000
0000
0010
0000
0000
0100
0000
,
0001
0000
0000
0010
0000
0000
0001
0000
0200
0000
0300
0000
0200
0000
0300
0000
,
0110
0000
0010
0001
0010
0001
0010
0001
,
0100
0010
0100
0010
0100
0000
0001
0010
,
0001
0000
1000
0010
1000
0010
1000
0010
,
0001
0010
0100
0010
0100
0000
0110
0000
,
1001
0000
0001
1000
0001
1000
0001
1000
,
0100
0010
0100
0010
0100
0010
0002
1000
,
1003
0000
0000
1000
0000
0000
0001
0000
0100
0000
0000
0100
0000
0000
0001
0000
,
0010
0000
0000
0010
0000
0000
0100
0000
0010
0000
0001
0000
2000
0000
0010
0000
,
3010
0000
0000
0000
;

//---------------dance-single - S P O O K----------------
#NOTES:
     dance-single:
     X-Scale 5:
     Easy:
     3:
     0.292202,0.338014,0.060669,0.260010,0.026001,236.000000,229.000000,7.000000,30.000000,0.000000,0.000000,0.292202,0.338014,0.060669,0.260010,0.026001,236.000000,229.000000,7.000000,30.000000,0.000000,0.000000:
0000
0000
0000
0000
,
0000
0000
0000
0000
,
0020
0000
0000
0000
2030
0000
3001
1000
,
0002
0000
0023
0030
,
0200
0000
0000
0000
0320
0000
0031
1000
,
0002
0000
2003
3000
,
1001
0000
0001
0100
0002
0000
1003
0001
,
2000
0000
3100
0010
0200
0000
1300
0100
,
1100
0000
0001
0100
0002
0000
1003
0001
,
2000
0000
3002
2003
,
3100
1000
0100
0001
,
0100
1000
0200
0320
,
0032
0010
0103
0001
,
1000
0100
0020
0230
,
0320
1000
0031
0010
,
0001
1000
0010
0100
,
0001
0010
0100
1000
,
0010
0100
0001
1000
,
1001
0000
1000
0000
0010
0000
1000
0010
,
1000
0000
0100
0000
0010
0000
0001
1000
,
0001
0000
0100
0000
0010
0000
0100
0001
,
0100
0000
0001
0000
1000
0000
0100
0010
,
0100
0000
0000
1000
0000
0000
0100
0000
,
1000
0000
0000
0001
0000
0000
1000
0000
,
0100
0000
0010
0000
0001
0100
0010
1000
,
0001
0000
0000
1001
,
0010
0001
1000
0000
,
0000
0000
0000
1001
,
0010
0001
1000
0001
,
0010
0000
0001
0100
0010
0100
0001
0000
,
1000
0010
1000
0001
,
1000
0000
0100
0010
0001
0010
0100
0000
,
1000
0001
0100
0010
,
1000
0001
0020
0031
,
0010
0000
0100
0000
0010
0000
0001
1000
,
0001
0010
0100
0000
1100
0000
0000
0000
,
2200
0300
0000
0000
0000
0000
0000
0000
0000
0000
0000
0000
0000
0000
0000
0000
0000
0000
0000
0000
0000
0000
0000
0000
0000
0000
0000
0000
0000
0000
0000
0000
0000
0000
0000
0000
0000
0000
0000
0000
0000
0000
0000
0000
0000
0000
0000
0000
3100
0000
0000
0000
0000
0000
0000
0000
0000
0000
0000
0000
0000
0000
0000
0000
0000
0000
0000
0000
0000
0000
0000
0000
1000
0000
0000
0000
0000
0000
0000
0000
0000
0000
0000
0000
0000
0000
0000
0000
0000
0000
0000
0000
0000
0000
0000
0000
0100
0000
0000
0000
0000
0000
0000
0000
0000
0000
0000
0000
0000
0000
0000
0000
0000
0000
0000
0000
0000
0000
0000
0000
0000
0000
0000
0000
0000
0000
0000
0000
0000
0000
0000
0000
0000
0000
0000
0000
0000
0000
0000
0000
0000
0000
0000
0000
1000
0000
0000
0000
0000
0000
0000
0000
0000
0000
0000
0000
0000
0000
0000
0000
0000
0000
0000
0000
0000
0000
0000
0000
0010
0000
0000
0000
0000
0000
0000
0000
0000
0000
0000
0000
0000
0000
0000
0000
0000
0000
0000
0000
0000
0000
0000
0000
,
1000
0000
0100
1000
0100
0000
0010
0001
,
0010
0000
0001
0100
0001
0000
0100
0010
,
0100
0000
0001
0100
0001
0000
0020
0000
,
0130
0000
0010
0001
0010
0000
0001
1000
,
0001
0000
0010
0001
0010
0100
0010
0100
,
0010
0000
0000
0010
0000
0000
0010
0000
0001
0000
0000
0001
0000
0000
0001
0000
,
1000
0000
0000
1000
0000
0000
1000
0000
0200
0000
0300
0000
0200
0000
0300
0000
,
1100
0000
1000
0001
1000
0000
0001
0100
,
0001
0000
0100
0010
0100
0000
0001
0010
,
0001
0000
1000
0010
1000
0000
0010
0100
,
0010
0000
0100
0001
0100
0000
0002
0000
,
1003
0000
0001
0010
0001
0000
0100
0010
,
0100
0000
0010
1000
0010
0000
2000
0000
,
3100
0000
0000
0100
0000
0000
0100
0000
1000
0000
0000
1000
0000
0000
1000
0000
,
0001
0000
0000
0001
0000
0000
0001
0000
0100
0000
0010
0000
0200
0000
0000
0000
,
0300
0000
0000
0000
;

//---------------dance-single - okay who placed stealth mods in this file?----------------
#NOTES:
     dance-single:
     X-Scale 2:
     Beginner:
     1:
     0.130005,0.202808,0.008667,0.060669,0.000000,105.000000,104.000000,1.000000,7.000000,0.000000,0.000000,0.130005,0.202808,0.008667,0.060669,0.000000,105.000000,104.000000,1.000000,7.000000,0.000000,0.000000:
0000
0000
0000
0000
,
0000
0000
0000
0000
,
1000
0000
0000
0000
,
0100
0000
0000
0000
,
0010
0000
0000
0000
,
0001
0000
0000
0000
,
0010
0001
1000
0001
,
0010
0100
0010
0001
,
1000
0010
0100
0001
,
0020
0000
0002
0003
,
0031
0000
0010
0000
,
0100
0000
1000
0010
,
1000
0000
0010
0000
,
0100
0000
0001
0100
,
0001
0000
1000
0000
,
0010
0000
0100
0001
,
0100
0000
0010
0000
,
1000
0000
0200
0000
,
1300
0000
0001
0000
,
0010
0000
0100
0000
,
0010
0000
0001
0000
,
0100
0000
0010
0000
,
1000
0000
0000
0000
,
0001
0000
0000
0000
,
0010
0000
0100
0000
,
0010
0000
0000
0000
,
0110
0000
0001
0000
,
0000
0000
0000
0110
,
0000
0001
0000
0100
,
0000
0001
1000
0001
,
0000
0100
0000
0010
,
0000
1000
0000
0001
,
0000
0100
0000
0001
,
0000
1000
0020
1030
,
0000
0010
0000
0100
,
0001
0100
0001
0000
,
0002
0013
0001
0000
,
1000
0000
0100
0000
,
1000
0000
0001
0000
,
0100
0010
0100
0000
,
0001
0000
1000
0000
,
0100
0000
0010
0000
,
0001
0000
0010
0000
,
0100
0000
2000
0000
,
3100
0000
1000
0000
,
0001
0000
0010
0000
,
0001
0000
1000
0000
,
0010
0000
0100
0000
,
0001
0000
1000
0000
,
0100
0000
0010
0000
,
0001
0000
1000
0000
,
0001
0000
2000
0000
,
3000
0000
0000
0000
;
