#TITLE:The Question is What is the Question?;
#SUBTITLE:;
#ARTIST:SCOOTER;
#TITLETRANSLIT:;
#SUBTITLETRANSLIT:;
#ARTISTTRANSLIT:;
#GENRE:Jumpstyle;
#CREDIT:;
#BANNER:The Question is What is the Question-bn.png;
#BACKGROUND:The Question is What is the Question-bg.png;
#LYRICSPATH:;
#CDTITLE:cdtitle.png;
#MUSIC:The Question is What is the Question.ogg;
#OFFSET:-0.108000;
#SAMPLESTART:49.101002;
#SAMPLELENGTH:13.480000;
#SELECTABLE:YES;
#BPMS:0.000000=142.000000
;
#STOPS:83.000000=1.268000,
180.000000=2.958000
;
#BGCHANGES:3.000=The Question is What is the Question.avi=1.000=1=0=0=StretchNoLoop==CrossFade==,
99999=-nosongbg-=1.000=0=0=0 // don't automatically add -songbackground-
;
#KEYSOUNDS:;
#ATTACKS:;

//---------------dance-single - ----------------
#NOTES:
     dance-single:
     X-Scale 2:
     Beginner:
     2:
     0.126571,0.160058,0.053930,0.000000,0.000000,115.000000,108.000000,7.000000,0.000000,0.000000,0.000000,0.126571,0.160058,0.053930,0.000000,0.000000,115.000000,108.000000,7.000000,0.000000,0.000000,0.000000:
0000
0000
0000
0000
,
0000
0000
0000
0000
,
0000
0000
0000
0000
,
0000
0000
0000
0000
,
0000
0000
0000
1000
,
0000
0100
0000
1000
,
0000
0001
0000
1000
,
0000
0100
0000
1000
,
0000
0001
0000
0010
,
0000
0100
0000
0010
,
0000
0001
0000
0010
,
0000
0100
0000
0010
,
0000
0001
0000
1000
,
0000
0001
0000
0100
,
0000
0001
0000
1000
,
0000
0100
0000
0010
,
0000
0100
0000
1000
,
0000
0001
0000
0100
,
0000
0001
0000
1000
,
0000
0010
0000
0100
,
0000
0001
0000
0000
,
1000
0000
0000
0000
,
0001
0000
0000
0000
,
0010
0000
0000
0000
,
0001
0000
0000
0000
,
1000
0000
0000
0000
,
0100
0000
0000
0000
,
0010
0000
0000
0000
,
0001
0000
0000
0000
,
1001
0000
1000
0000
,
0001
0000
0100
0000
,
0001
0000
1000
0000
,
0010
0000
0100
0000
,
0010
0000
1000
0000
,
0100
0000
0010
0000
,
0001
0000
1000
0000
,
0001
0000
0010
0000
,
0100
0000
1000
0000
,
0001
0000
1000
0000
,
0100
0000
0010
0000
,
0001
0000
0100
0000
,
0010
0000
0100
0000
,
0001
0000
1000
0000
,
0010
0000
0100
0000
,
0001
0000
1000
0000
,
0000
0110
0000
0000
,
0000
0000
0000
0000
,
0000
1000
0000
0000
,
0000
0000
0000
0000
,
0000
1001
0000
0000
,
0000
0000
0000
0000
,
0000
0110
0000
0000
,
0000
0000
0000
0000
,
0000
1001
0000
1000
,
0000
0001
0000
0100
,
0000
0001
0000
1000
,
0000
0100
0000
0010
,
0000
0100
0000
1000
,
0000
0001
0000
0010
,
0000
0100
0000
0010
,
0000
0001
0000
0000
,
0000
1001
0000
1000
,
0000
0001
0000
0100
,
0000
0001
0000
1000
,
0000
0001
0000
0100
,
0000
0001
0000
0010
,
0000
0100
0000
0010
,
0000
0001
0000
0010
,
0000
0100
0000
1000
,
0000
1001
0000
0000
;

//---------------dance-single - ----------------
#NOTES:
     dance-single:
     X-Scale 6:
     Easy:
     4:
     0.296067,0.348044,0.100156,0.200313,0.000000,269.000000,256.000000,13.000000,26.000000,0.000000,0.000000,0.296067,0.348044,0.100156,0.200313,0.000000,269.000000,256.000000,13.000000,26.000000,0.000000,0.000000:
0000
0000
0000
0000
,
0000
0000
0000
0000
,
0000
0000
0000
0000
,
0000
0000
0000
0000
,
0000
0000
0000
0001
,
1000
0010
1000
0001
,
1000
0010
1000
0001
,
0010
0100
0010
0001
,
0010
0100
0010
0001
,
1000
0100
1000
0001
,
0100
0010
0100
0001
,
1000
0100
0010
0100
,
1000
0001
0100
0101
,
0001
0000
1000
0000
0010
1000
0010
0000
,
0100
0000
0001
0000
0010
0001
0010
0000
,
0100
0000
1000
0000
0010
1000
0010
0000
,
0100
0000
0001
0000
1000
0010
1000
0000
,
0100
0000
0010
0000
0001
0010
0001
0000
,
1000
0000
0001
0000
0100
0010
0100
0000
,
0001
0000
0010
0000
0100
1000
0100
0000
,
1000
0001
0100
0101
,
1001
0000
0100
0000
,
1000
0000
0001
0100
,
0001
0000
0010
0000
,
0100
0000
1000
0100
,
1000
0000
0001
0000
,
0100
0000
0001
0100
,
0001
0000
0010
0000
,
0100
0000
1000
0000
,
1001
0001
0100
0001
,
1000
0100
0010
0100
,
1000
0001
0100
0001
,
1000
0010
0100
0001
,
0010
0100
0010
0001
,
1000
0010
1000
0100
,
0010
0100
1000
0001
,
0010
0100
0010
0001
,
1001
0000
0000
1000
0100
0000
0000
1000
,
0001
0000
0000
0010
0100
0000
0010
0000
,
0001
0011
1000
1010
,
0010
1000
0001
0100
,
0001
0000
0000
1000
0100
0000
0000
1000
,
0001
0000
0000
0100
0010
0000
1000
0000
,
0001
0011
1000
1001
,
0001
0000
0100
0000
0001
0000
1000
0010
,
1000
0000
0021
0000
0000
0002
0033
0000
,
0000
1000
0000
0001
,
0000
0000
2000
0000
0000
0200
3300
0000
,
0000
0001
0000
0100
,
0000
0000
2001
0000
0000
0020
3030
0000
,
0000
0100
0000
0001
,
0000
0000
0021
0000
0000
0200
0330
0000
,
0000
0100
0000
1000
,
0000
1001
0001
0100
,
0001
1000
0200
0000
2300
0000
0010
0000
,
3100
0010
0001
0000
1000
0000
0001
0000
,
0100
0001
1000
0000
0010
0000
0100
0000
,
0001
0010
0100
0000
0010
0000
0001
0000
,
1000
0001
0100
0000
0001
0000
1000
0000
,
0010
1000
0001
0000
0010
0000
0100
0000
,
1000
0010
1000
0000
0200
0000
0320
0000
,
0032
0000
2003
0000
3010
1000
0200
0000
,
0310
0100
1000
0000
0001
0000
0100
0000
,
0001
0010
0200
0000
1300
0001
0020
0000
,
0130
0010
0001
0000
1000
0000
0010
0000
,
0100
0001
0020
0000
0130
0010
0002
0000
,
1003
0001
0100
0000
0010
0000
1000
0000
,
0001
0010
0200
0000
1300
0001
0200
0000
,
0310
1000
0002
0000
2003
0000
3020
0000
,
0230
0302
0003
0000
;

//---------------dance-single - ----------------
#NOTES:
     dance-single:
     X-Scale 11:
     Medium:
     8:
     0.420437,0.473143,0.084748,0.269652,0.142530,382.000000,371.000000,11.000000,35.000000,0.000000,0.000000,0.420437,0.473143,0.084748,0.269652,0.142530,382.000000,371.000000,11.000000,35.000000,0.000000,0.000000:
// measure 0
0000
0000
0000
0000
,  // measure 1
0000
0000
0000
0000
,  // measure 2
0000
0000
0000
0000
,  // measure 3
0000
0000
0000
0000
,  // measure 4
0000
0000
0000
2000
,  // measure 5
3010
1000
0001
0000
0100
0000
0002
0000
,  // measure 6
0013
0100
1000
0000
0010
0000
2000
0000
,  // measure 7
3010
1000
0001
0000
0100
0000
0001
0010
,  // measure 8
0001
0000
1000
0010
1000
0000
0002
0000
,  // measure 9
0103
0001
1000
0000
0100
0000
0020
0000
,  // measure 10
0130
0010
0001
0000
1000
0000
0020
0000
,  // measure 11
0031
0010
1000
0000
0001
0000
1001
0000
,  // measure 12
0110
0000
1001
0000
1000
0010
1000
0000
,  // measure 13
1000
0000
0000
0100
0000
0000
0010
0000
0001
0000
1000
0000
0001
0000
0000
0000
,  // measure 14
0001
0000
0000
0100
0000
0000
0010
0000
0100
0000
0001
0000
1000
0000
0000
0000
,  // measure 15
1000
0000
0000
0100
0000
0000
0010
0000
0100
0000
1000
0000
0001
0000
0000
0000
,  // measure 16
0001
0000
0000
0100
0000
0000
0001
0000
1000
0000
0010
0000
1000
0000
0000
0000
,  // measure 17
1000
0000
0000
0100
0000
0000
0010
0000
0001
0000
1000
0000
0001
0000
0000
0000
,  // measure 18
0001
0000
0000
0100
0000
0000
0010
0000
1000
0000
0001
0000
0100
0000
0000
0000
,  // measure 19
0100
0000
0000
0010
0000
0000
1000
0000
0100
0000
0010
0000
0001
0000
0000
0000
,  // measure 20
0001
0000
0000
1000
0000
0000
0010
0000
1000
0000
0001
0000
0011
0000
0000
0000
,  // measure 21
0001
0100
1000
0010
,  // measure 22
0001
0000
0000
0100
0010
0000
0000
0100
1000
0000
0000
0100
0010
0000
0000
0000
,  // measure 23
1000
0100
0001
0010
,  // measure 24
1000
0000
0000
0000
0001
0000
0000
0100
0010
0000
0000
0100
0001
0000
0000
0000
,  // measure 25
1000
0010
0001
0100
,  // measure 26
1000
0000
0000
0000
0001
0000
0000
0010
0100
0000
0000
0010
0001
0000
0010
0000
,  // measure 27
0100
0000
0000
0100
1000
0000
0000
1000
,  // measure 28
0002
0000
0003
0000
,  // measure 29
1001
0000
1000
0000
0001
0100
1000
0100
,  // measure 30
0001
0000
1000
0000
0010
1000
0001
1000
,  // measure 31
0010
0000
0100
0000
0001
0010
0100
0010
,  // measure 32
0001
0000
1000
0000
0010
1000
0001
0100
,  // measure 33
0010
0000
1000
0000
0100
0010
0001
1000
,  // measure 34
0100
0000
1000
0000
0001
0100
1000
0100
,  // measure 35
0001
0000
1000
0000
0010
0100
0001
0010
,  // measure 36
0001
2000
3200
0320
,  // measure 37
0032
0000
1003
0001
0200
0000
1300
0100
,  // measure 38
0020
0000
0000
0000
1030
0000
0001
0000
0010
0000
0000
0010
0001
0000
1000
0000
,  // measure 39
0010
1000
0002
0000
0013
0100
2000
0000
,  // measure 40
3100
0020
0230
2300
,  // measure 41
3002
0000
0103
0001
0020
0000
1030
0010
,  // measure 42
0002
0000
0000
0000
1003
0000
0001
0000
0100
0000
0000
0010
0100
0000
0001
0000
,  // measure 43
0010
0100
2000
0000
3010
1000
0002
0000
,  // measure 44
0103
0000
0000
0000
0001
0000
0010
0000
0100
0000
0000
0100
1000
0000
0001
0000
,  // measure 45
1001
0110
0100
0010
,  // measure 46
1000
0001
0010
1000
,  // measure 47
0100
1000
0010
0001
,  // measure 48
0100
0001
0010
0100
,  // measure 49
1000
0000
1100
0000
0100
1000
0001
0000
,  // measure 50
0100
1000
0010
0001
,  // measure 51
1000
0000
1001
0000
0001
0010
0100
0000
,  // measure 52
1000
0010
0001
0010
,  // measure 53
1000
1002
0010
0203
,  // measure 54
1300
0100
0002
0000
2003
0000
0010
0000
,  // measure 55
3001
0000
1000
0000
0001
0000
0000
0000
0010
0000
0000
0010
0000
0000
0001
0000
,  // measure 56
0100
0000
0001
0000
1000
0000
0000
0000
0100
0000
0000
0100
0000
0000
0010
0000
,  // measure 57
0001
0000
1000
0000
1001
0000
0000
0000
0001
0000
0000
0010
0001
0000
1000
0000
,  // measure 58
0010
0000
0100
0000
0010
0000
0000
0000
1000
0000
0000
1000
0010
0000
1000
0000
,  // measure 59
0001
0000
0010
0000
0100
0000
0000
0000
0010
0000
0000
0010
0001
0000
1000
0000
,  // measure 60
0100
0010
0001
0000
2000
0000
3020
0000
,  // measure 61
0230
0000
0000
0000
0301
0000
0000
0010
0001
0000
1000
0000
0100
0000
0001
0000
,  // measure 62
0100
0000
0010
0000
0001
0000
0000
0100
0010
0000
0000
0100
0001
0000
0000
0010
,  // measure 63
0100
0000
1000
0000
0001
0000
0000
0100
0010
0000
0100
0000
0001
0000
1000
0000
,  // measure 64
0001
0000
0010
0000
0100
0000
0000
1000
0001
0000
0000
0010
0100
0000
0000
0010
,  // measure 65
0001
0000
1000
0000
0010
0000
0000
0100
0010
0000
1000
0000
0100
0000
0001
0000
,  // measure 66
0100
0000
1000
0000
0001
0000
0000
0100
0010
0000
0000
1000
0100
0000
0000
1000
,  // measure 67
0001
0000
0010
0000
0100
0000
0000
0010
0001
0000
1000
0000
0010
0000
0001
0000
,  // measure 68
0010
0000
1000
0000
0001
0000
0000
0100
0020
0000
0000
0000
2030
0000
0000
0000
,  // measure 69
3200
0320
0001
0100
,  // measure 70
0001
1000
0200
0000
,  // measure 71
0000
0000
0000
0000
,  // measure 72
0000
0330
0000
0000
;

//---------------dance-single - ----------------
#NOTES:
     dance-single:
     X-Scale 14:
     Hard:
     9:
     0.543706,0.584470,0.208017,0.130974,0.285061,494.000000,467.000000,27.000000,17.000000,0.000000,0.000000,0.543706,0.584470,0.208017,0.130974,0.285061,494.000000,467.000000,27.000000,17.000000,0.000000,0.000000:
// measure 0
0000
0000
0000
0000
,  // measure 1
0000
0000
0000
0000
,  // measure 2
0000
0000
0000
0000
,  // measure 3
0000
0000
0000
0000
,  // measure 4
0000
0000
0000
0000
0000
0000
1001
1000
,  // measure 5
0001
0000
1000
0010
0001
0010
1000
0100
,  // measure 6
1000
0000
0001
0010
0200
0000
0301
0100
,  // measure 7
1000
0000
0010
2000
0001
0000
3010
0100
,  // measure 8
0010
0000
0100
0000
1000
0000
0100
0000
1000
0000
0100
0000
0010
0100
0001
0000
,  // measure 9
0001
0000
1000
0000
0010
0000
0001
0000
0010
0000
1000
0000
0001
0100
0001
0000
,  // measure 10
1000
0000
0010
0000
1000
0000
0001
0000
0010
0000
1000
0000
0010
0100
1000
0000
,  // measure 11
0010
1000
0001
0100
0010
1000
0100
0001
,  // measure 12
0100
0001
0100
1000
0100
1000
1001
0000
,  // measure 13
1000
0000
0000
0100
1000
0000
0001
0000
0100
0000
0001
0000
0010
0000
0000
0000
,  // measure 14
0010
0000
0000
0100
1000
0000
0001
0000
0100
0000
0001
0000
1000
0000
0000
0000
,  // measure 15
1000
0000
0000
0100
0010
0000
0100
0000
1000
0000
0001
0000
0010
0000
0000
0000
,  // measure 16
0010
0000
0000
0100
1000
0000
0001
0000
0100
0000
0010
0000
0100
0010
0100
0000
,  // measure 17
0001
0000
0001
0000
1000
0100
1000
0000
1000
0100
1000
0000
0001
0000
0100
0000
,  // measure 18
1000
0100
0001
1000
0001
0100
1001
0000
,  // measure 19
0110
0000
0000
0100
0010
0000
0100
0000
0001
0000
0010
0000
0011
0000
0000
0000
,  // measure 20
1001
0000
0000
0000
0000
0000
0000
0000
0000
0000
0000
0000
0000
0000
0000
0000
0000
0000
0000
0000
0000
0000
0000
0000
0000
0000
0000
0000
0000
0000
0000
0000
0000
0000
0000
0000
0000
0000
0000
0000
0000
0000
0000
0000
0000
0000
0000
0000
1100
0000
0000
0000
0000
0000
0000
0000
0000
0000
0000
0000
0000
0000
0000
0000
0000
0000
0000
0000
0000
0000
0000
0000
0000
0000
0000
0000
0000
0000
0000
0000
0000
0000
0000
0000
0000
0000
0000
0000
0000
0000
0000
0000
0000
0000
0000
0000
0110
0000
0000
0000
0000
0000
0000
0000
0000
0000
0000
0000
0000
0000
0000
0000
0000
0000
0000
0000
0000
0000
0000
0000
0000
0000
0000
0000
0000
0000
0000
0000
0000
0000
0000
0000
0000
0000
0000
0000
0000
0000
0000
0000
0000
0000
0000
0000
2002
3003
0000
0000
0000
0000
0000
0000
0000
0000
0000
0000
0000
0000
0000
0000
0000
0000
0000
0000
0000
0000
0000
0000
0000
0000
0000
0000
0000
0000
0000
0000
0000
0000
0000
0000
0000
0000
0000
0000
0000
0000
0000
0000
0000
0000
0000
0000
,  // measure 21
1001
0000
0010
0000
1000
0000
0001
0010
,  // measure 22
0100
0000
0000
1000
0100
0000
0000
0001
0100
0000
0000
1000
0100
0000
1000
0000
,  // measure 23
0001
0000
0100
0000
0001
0000
1000
0010
,  // measure 24
1000
0000
0000
0001
0100
0000
0000
1000
0100
0000
0000
0001
0100
0000
0001
0000
,  // measure 25
1000
0000
0100
0010
0001
0000
1000
0010
,  // measure 26
1000
0000
0000
0001
0010
0000
0000
1000
0010
0000
0000
0001
0010
0000
0100
0000
,  // measure 27
0110
0000
0100
1000
1001
0000
1000
0010
,  // measure 28
2010
0001
3010
0100
,  // measure 29
0101
0000
0000
1000
0001
0000
1000
0000
0010
0000
0001
0000
0010
0000
0100
0000
,  // measure 30
0010
0000
0000
1000
0010
0000
0000
0100
0010
0000
0000
0010
0100
0000
0001
0000
,  // measure 31
1000
0000
0000
0100
0010
0000
0100
0000
1000
0000
0100
0000
0001
0000
0100
0000
,  // measure 32
0010
0000
0000
0100
0001
0000
0000
0010
0100
0000
0000
0010
0001
0000
1000
0000
,  // measure 33
0001
0000
0000
0001
0010
0000
0001
0000
1000
0000
0100
0000
0010
0000
0100
0000
,  // measure 34
1000
0000
0000
0010
1000
0000
0000
0100
0010
0000
0000
0100
1000
0000
0001
0000
,  // measure 35
0100
0000
0000
0100
0001
0000
1000
0000
0010
0000
0001
0000
1000
0000
0100
0000
,  // measure 36
0001
0000
0000
0001
1000
0000
0001
0000
0100
0000
0010
0000
0100
0000
0001
0100
,  // measure 37
0001
0000
0000
0010
0100
0000
1000
0000
0001
0000
0000
0000
0100
0000
0001
0000
,  // measure 38
1000
0000
0000
0000
0100
0000
0010
0000
0001
0000
0000
1000
0001
0000
1000
0000
,  // measure 39
0010
0100
1001
0000
0010
0100
1001
0000
,  // measure 40
1000
0000
0000
0000
1000
0000
0010
0000
0100
0000
0000
0001
0010
0000
0001
0000
,  // measure 41
1000
0000
0000
0100
0010
0000
0100
0000
1000
0000
0000
0000
0001
0000
0100
0000
,  // measure 42
0001
0000
0000
0000
0010
0000
0100
0000
1000
0000
0000
0010
1000
0000
0001
0000
,  // measure 43
0100
0010
1001
0000
0100
0010
1001
0000
,  // measure 44
1000
0000
0000
0000
0100
0000
0010
0000
0001
0000
0000
1000
0010
0000
1000
0000
,  // measure 45
2002
3003
0000
0000
0000
0000
0000
0000
0000
0000
0000
0000
0000
0000
0000
0000
0000
0000
0000
0000
0000
0000
0000
0000
0000
0000
0000
0000
0000
0000
0000
0000
0000
0000
0000
0000
0000
0000
0000
0000
0000
0000
0000
0000
0000
0000
0000
0000
1002
0000
0000
0000
0000
0000
0000
0000
0000
0000
0000
0000
0000
0000
0000
0000
0000
0000
0000
0000
0000
0000
0000
0000
0000
0000
0000
0000
0000
0000
0000
0000
0000
0000
0000
0000
0000
0000
0000
0000
0000
0000
0000
0000
0000
0000
0000
0000
0013
0000
0000
0000
0000
0000
0000
0000
0000
0000
0000
0000
0000
0000
0000
0000
0000
0000
0000
0000
0000
0000
0000
0000
0100
0000
0000
0000
0000
0000
0000
0000
0000
0000
0000
0000
0000
0000
0000
0000
0000
0000
0000
0000
0000
0000
0000
0000
1000
0000
0000
0000
0000
0000
0000
0000
0000
0000
0000
0000
0000
0000
0000
0000
0000
0000
0000
0000
0000
0000
0000
0000
0000
0000
0000
0000
0000
0000
0000
0000
0000
0000
0000
0000
0000
0000
0000
0000
0000
0000
0000
0000
0000
0000
0000
0000
,  // measure 46
0001
0100
0001
0010
,  // measure 47
0100
0000
2000
0000
3010
1000
0001
0000
,  // measure 48
0100
0010
0100
0001
,  // measure 49
1000
0000
1020
0000
0031
0010
1000
0000
,  // measure 50
0001
0100
0001
1000
,  // measure 51
0100
0000
1200
0000
0301
0100
1000
0000
,  // measure 52
0100
0000
0010
0000
0100
0000
1000
0010
,  // measure 53
1000
0000
0010
0000
1010
0000
0000
0000
0001
0000
0000
0010
0000
0010
0100
0000
,  // measure 54
1000
0000
0001
0000
1000
0000
0000
0100
0010
0000
0000
0100
0000
0100
1000
0000
,  // measure 55
0001
0000
0100
0000
1001
0000
0000
1000
0100
0000
0000
1000
0000
1000
0001
0000
,  // measure 56
0100
0000
0001
0000
1000
0000
0000
0010
0100
0000
0000
0001
0000
0001
0100
0000
,  // measure 57
0010
0000
1000
0000
1001
0000
0000
0000
0001
0000
0000
0010
0000
0010
0001
0000
,  // measure 58
1000
0000
0100
0000
0010
0000
0000
0100
1000
0000
0000
0001
0000
0001
0100
0000
,  // measure 59
0001
1000
0010
0001
0010
1000
0002
0000
,  // measure 60
0010
0000
0000
0000
1003
0001
1000
0000
0100
0000
0100
0000
0010
0000
0000
0000
,  // measure 61
0002
0000
0003
0000
1001
0000
0000
0100
1000
0000
0001
0000
0010
0000
1000
0000
,  // measure 62
0010
0000
0001
0000
0100
0000
0000
0010
0100
0000
0000
0001
0010
0000
0000
1000
,  // measure 63
0010
0000
0001
0000
1000
0000
0010
0100
0010
0000
1000
0000
0100
0000
0001
0000
,  // measure 64
0100
0000
1000
0000
0001
0000
0000
0010
1000
0000
0000
0010
0001
0000
0000
0010
,  // measure 65
0100
0000
1000
0000
0010
0000
1000
0010
1000
0000
0100
0000
0001
0000
0100
0000
,  // measure 66
0010
0000
0001
0000
1000
0000
0000
0010
1000
0000
0000
0100
0010
0000
0000
0100
,  // measure 67
1000
0000
0001
0000
0100
0000
0001
1000
0001
0000
0010
0000
1000
0000
0010
0000
,  // measure 68
0001
0000
1000
0000
0010
0000
0000
0100
0010
0000
1000
0000
0001
0000
0010
0000
,  // measure 69
0100
1000
2100
0000
0001
0000
0100
0000
,  // measure 70
0001
0000
0000
0000
3100
0000
1000
0001
1000
0010
0000
0000
0200
0000
0000
0000
,  // measure 71
0302
0000
0000
2000
0000
0000
0000
0000
,  // measure 72
0000
3003
0000
0000
;

//---------------dance-single - an experiment on some patterns----------------
#NOTES:
     dance-single:
     experimental chart:
     Edit:
     9:
     0.518392,0.584470,0.292765,0.115565,0.165643,471.000000,433.000000,38.000000,15.000000,124.000000,0.000000,0.518392,0.584470,0.292765,0.115565,0.165643,471.000000,433.000000,38.000000,15.000000,124.000000,0.000000:
// measure 0
0000
0000
0000
0000
,  // measure 1
0000
0000
0000
0000
,  // measure 2
0000
0000
0000
0000
,  // measure 3
0000
0000
0000
0000
,  // measure 4
0000
0000
0000
0000
0000
0000
0001
MMMM
,  // measure 5
0001
MMMM
0001
0010
0100
1000
0010
MMMM
,  // measure 6
0010
MMMM
0010
0100
0001
1000
0100
MMMM
,  // measure 7
0100
MMMM
0100
1000
0001
0010
1000
0001
,  // measure 8
0100
0010
0001
1000
0100
1000
0001
MMMM
,  // measure 9
0001
MMMM
0001
0100
0001
0010
0100
MMMM
,  // measure 10
0100
MMMM
0100
1000
0001
1000
0010
MMMM
,  // measure 11
0010
MMMM
0010
1000
0001
0100
0101
0000
,  // measure 12
0110
0000
1100
0000
0101
0001
1001
0000
,  // measure 13
1000
0000
0100
1000
0100
0000
0010
0000
0001
0000
1000
0000
0010
0000
0000
0000
,  // measure 14
0100
0000
0001
0100
0001
0000
1000
0000
0010
0000
0100
0000
0001
0000
0000
0000
,  // measure 15
1000
0000
0100
0010
0100
0000
1000
0000
0001
0000
0100
0000
0001
0000
0010
0000
,  // measure 16
0100
0000
0000
0100
1000
0000
0010
0000
1000
0000
0100
0000
1000
0000
0001
0000
,  // measure 17
0100
0000
0001
0000
0010
0100
0010
0000
0010
0001
0010
0000
0100
0000
1000
0000
,  // measure 18
0001
0000
0100
0010
0100
0000
0001
0000
0010
0000
0100
0000
1000
0000
0001
0000
,  // measure 19
0100
0000
0010
0100
0010
0000
1000
0000
0100
0000
1000
0000
1100
0000
0000
0000
,  // measure 20
0110
0000
0011
0000
1010
0000
2002
3003
,  // measure 21
L00L
0000
1000
0000
0100
0000
0001
0100
,  // measure 22
1000
0000
0000
0001
01M0
0000
0000
1000
0M10
0000
0000
0001
0100
0000
0001
0000
,  // measure 23
1000
0000
0010
1000
0001
0000
0010
0100
,  // measure 24
1000
0000
0000
0001
0M10
0000
0000
1000
01M0
0000
0000
0001
0010
0000
0100
0000
,  // measure 25
1000
0010
0100
0001
0100
1000
0100
0010
,  // measure 26
1000
0000
0000
0001
0M10
0000
0000
1000
0M10
0000
0000
0001
1M00
0000
0100
0000
,  // measure 27
1100
0110
0011
0110
,  // measure 28
2010
0000
0001
3000
L00L
0000
0000
0000
,  // measure 29
1001
0000
0000
0001
0100
0000
0001
0000
1000
0000
0100
0000
0001
0000
0100
0000
,  // measure 30
1000
0000
MMMM
0000
1000
0000
MMMM
0000
1000
0000
0000
1000
0001
0000
0010
0000
,  // measure 31
0001
0000
0000
0010
0100
0000
0001
0000
0100
0000
1000
0000
0010
0000
0100
0000
,  // measure 32
0001
0000
MMMM
0000
0001
0000
MMMM
0000
0001
0000
0000
0001
1000
0000
0010
0000
,  // measure 33
1000
0000
0000
0100
1000
0000
0001
0000
0100
0000
1000
0000
0100
0000
0001
0000
,  // measure 34
1000
0000
MMMM
0000
1000
0000
MMMM
0000
1000
0000
0000
1000
0010
0000
1000
0000
,  // measure 35
0001
0000
0000
0100
0001
0000
0010
0000
0100
0000
1000
0000
0100
0000
0010
0000
,  // measure 36
0001
MMMM
0001
MMMM
0001
0100
0010
1000
,  // measure 37
1001
0000
0010
0001
1000
0000
0010
1000
,  // measure 38
0001
0000
0000
0000
0100
0000
0001
0000
0010
0000
0000
0100
0010
0000
0001
0000
,  // measure 39
2000
3010
L0L0
0000
2000
3010
L0L0
0000
,  // measure 40
1001
0000
0000
0001
0100
0000
0001
0000
1000
0000
0000
0100
0010
0000
0001
0000
,  // measure 41
0011
0000
0010
0100
1000
0000
0001
1000
,  // measure 42
0010
0000
0000
0000
0100
0000
0001
0000
0010
0000
0000
0100
1000
0000
0001
0000
,  // measure 43
0020
0031
00LL
0000
0020
0031
00LL
0000
,  // measure 44
1001
0000
0000
1000
0100
0000
1000
0000
0001
0000
0000
0010
0100
0000
1000
0000
,  // measure 45
2002
3003
L00L
0000
1000
0100
0010
0000
,  // measure 46
1000
0010
0001
0100
,  // measure 47
0001
0000
1000
0000
0001
0010
0100
0000
,  // measure 48
0001
0100
1000
0100
,  // measure 49
0010
0000
1001
0000
0001
1000
0010
0000
,  // measure 50
0100
1000
0100
0001
,  // measure 51
0100
0000
1001
0000
0001
0010
0100
0000
,  // measure 52
1000
0000
0010
0000
1000
0000
0001
0100
,  // measure 53
1000
0000
0100
0000
0101
0000
0000
0000
1000
0000
0000
1000
0001
0000
0010
0000
,  // measure 54
1000
0000
0010
0000
0001
0000
0000
0000
0010
0000
0000
0010
0100
0000
0010
0000
,  // measure 55
0001
0000
1000
0000
1100
0000
0000
0000
1000
0000
0000
1000
0001
0000
0100
0000
,  // measure 56
1000
0000
0100
0000
0001
0000
0000
0000
0010
0000
0000
0010
0100
1000
0001
0000
,  // measure 57
1000
0000
0001
0000
1001
0000
1000
0000
0100
0000
0000
1000
0001
0000
0010
0000
,  // measure 58
1000
0000
0010
0000
0001
0000
0100
0000
0001
0000
0000
0010
0100
0000
1000
0000
,  // measure 59
0001
0000
1000
0000
0010
0000
0100
0000
0001
0000
0000
1000
0010
0000
0100
0000
,  // measure 60
0001
0000
1000
0000
0010
1000
0010
0000
0020
0000
0100
0000
0200
0000
0330
0000
,  // measure 61
0LL0
0000
0000
0000
1001
0000
0000
1000
0001
0000
0100
0000
1000
0000
0001
0000
,  // measure 62
0100
0010
0001
MMMM
0001
MMMM
0001
0100
,  // measure 63
1000
0000
0100
0000
0010
0000
0000
0100
0001
0000
1000
0000
0010
0000
0001
0000
,  // measure 64
0010
1000
0001
MMMM
0001
MMMM
0001
0100
,  // measure 65
0010
0000
0001
0000
0010
0000
1000
0010
1000
0000
0100
0000
0001
0000
1000
0000
,  // measure 66
0010
0100
1000
MMMM
1000
MMMM
1000
0010
,  // measure 67
0001
0000
0010
0000
1000
0000
0000
0001
0100
0000
0001
0000
1000
0000
0100
0000
,  // measure 68
0010
0001
1000
MMMM
1000
MMMM
1000
0010
,  // measure 69
0100
0001
M202
0000
M000
0000
M000
0000
,  // measure 70
M000
M303
2002
0000
,  // measure 71
0000
0000
0000
0000
,  // measure 72
0000
3003
L00L
0000
0000
0000
0000
0000
;
