#TITLE:The New Kings feat. Luciana;
#SUBTITLE:;
#ARTIST:Vicetone vs Popeska;
#TITLETRANSLIT:;
#SUBTITLETRANSLIT:;
#ARTISTTRANSLIT:;
#GENRE:Commercial House;
#CREDIT:;
#BANNER:The New Kings feat. Luciana-bn.png;
#BACKGROUND:The New Kings feat. Luciana-bg.png;
#LYRICSPATH:;
#CDTITLE:cdtitle.png;
#MUSIC:The New Kings feat. Luciana.ogg;
#OFFSET:-0.122000;
#SAMPLESTART:45.591000;
#SAMPLELENGTH:15.000000;
#SELECTABLE:YES;
#BPMS:0.000000=128.000000
;
#STOPS:
;
#BGCHANGES:;
#KEYSOUNDS:;
#ATTACKS:;

//---------------dance-single - ----------------
#NOTES:
     dance-single:
     X-Scale 2:
     Beginner:
     1:
     0.096107,0.147546,0.010193,0.000000,0.000000,66.000000,65.000000,1.000000,0.000000,0.000000,0.000000,0.096107,0.147546,0.010193,0.000000,0.000000,66.000000,65.000000,1.000000,0.000000,0.000000,0.000000:
0000
0000
0000
0000
,
0000
0000
0000
0000
,
0000
0000
0000
0000
,
0000
0000
0000
0000
,
0000
1000
0000
0000
,
0000
0001
0000
0000
,
0000
1000
0000
0000
,
0000
0001
0000
0000
,
0000
0010
0000
0000
,
0000
0100
0000
0000
,
0000
0010
0000
0000
,
0000
0100
0000
0000
,
0000
1000
0000
0000
,
0000
0010
0000
0000
,
0000
1000
0000
0000
,
0000
0010
0000
0000
,
0000
0100
0000
0000
,
0000
0001
0000
0000
,
0000
1000
0000
0000
,
0000
0001
0000
0000
,
0000
0100
0000
0000
,
0000
0001
0000
0000
,
0000
0010
0000
0000
,
0000
0000
0000
0000
,
0000
1001
0000
1000
,
0000
0010
0000
1000
,
0000
0001
0000
0100
,
0000
0001
0000
0010
,
0000
0100
0000
0010
,
0000
0001
0000
1000
,
0000
0010
0000
0000
,
0000
1000
0000
0000
,
0000
0001
0000
1000
,
0000
0010
0000
1000
,
0000
0001
0000
0010
,
0000
0100
0000
0010
,
0000
0001
0000
1000
,
0000
0100
0000
0010
,
0000
0001
0000
1000
,
0000
0001
0000
0100
,
0000
0001
0000
1000
,
0000
0001
0000
0010
,
0000
0100
0000
1000
,
0000
0001
0000
1000
,
0000
0010
0000
0100
,
0000
0001
0000
1000
,
0000
0100
0000
0000
,
0000
0010
0000
0100
,
0000
1000
0000
0000
;

//---------------dance-single - ----------------
#NOTES:
     dance-single:
     X-Scale 6:
     Easy:
     3:
     0.298514,0.319683,0.030579,0.101932,0.000000,205.000000,202.000000,3.000000,10.000000,0.000000,0.000000,0.298514,0.319683,0.030579,0.101932,0.000000,205.000000,202.000000,3.000000,10.000000,0.000000,0.000000:
0000
0000
0000
0000
,
0000
0000
0000
0000
,
0000
0000
0000
0000
,
0000
0000
0000
0000
,
0000
0100
0000
0000
,
0000
0000
1000
0000
0000
0001
0000
0000
,
0100
0010
0000
0010
2000
0000
0020
3030
,
1000
0001
0000
0001
0020
0000
0200
0330
,
0000
1000
0001
0100
,
0001
1000
0100
0010
,
0100
1000
0001
0100
,
0001
1000
0010
1000
,
0001
0010
0100
0010
,
0001
1000
0100
0010
,
0001
1000
0001
0100
,
0010
1000
0001
0100
,
0001
0100
0001
0000
0010
0000
0100
0000
,
1000
0010
1000
0100
,
0010
0001
1000
0010
,
1000
0001
0100
0001
,
0010
0000
0100
0000
1000
0100
0010
0001
,
1000
0002
0000
0103
0020
0000
0000
0130
,
0001
0020
0100
0000
0031
0000
0010
0100
,
1000
0002
0000
0103
0001
1000
0020
0000
,
0030
1001
1000
0001
,
0010
0100
1000
0000
0001
0000
1000
0000
,
0010
1000
0001
0000
0100
0000
0001
0000
,
1000
0100
0010
0000
0001
0000
1000
0000
,
0010
1000
0001
0000
0100
0000
0001
0000
,
0010
0100
1000
0000
0001
0000
1000
0000
,
0010
1000
0001
0000
0000
1000
0000
0001
,
0100
0002
0000
0000
0010
0000
0000
0000
,
0100
1003
1001
1000
,
0010
1000
0001
0000
0100
0000
0001
0000
,
0010
0100
1000
0000
0001
0000
0100
0000
,
0010
0100
0001
0000
1000
0000
0100
0000
,
0010
0100
1000
0000
0001
0000
0100
0000
,
0001
0010
0100
0000
1000
0000
0001
0000
,
0100
0001
1000
0000
0001
0000
0100
0000
,
0001
0010
0100
0000
1000
0000
0000
0000
,
1001
0001
0100
0001
,
0010
0100
1000
0000
0001
0000
0100
0001
,
1000
0001
0100
0000
0001
0000
0010
0000
,
0100
0010
0001
0000
1000
0000
0001
0010
,
0100
0010
0001
0000
1000
0000
0010
0000
,
1000
0100
0010
0000
0100
0000
1000
0001
,
0100
0010
1000
0000
0100
0000
1000
0000
,
0001
0100
0010
1000
,
0001
1000
0001
0000
0000
0000
0000
0000
;

//---------------dance-single - ----------------
#NOTES:
     dance-single:
     X-Scale 10:
     Medium:
     7:
     0.407726,0.467866,0.081545,0.173284,0.157994,280.000000,272.000000,8.000000,17.000000,0.000000,0.000000,0.407726,0.467866,0.081545,0.173284,0.157994,280.000000,272.000000,8.000000,17.000000,0.000000,0.000000:
0000
0000
0000
0000
,
0000
0000
0000
0000
,
0000
0000
0000
0000
,
0000
0000
0000
0000
,
0002
0000
2003
0000
3000
1000
0020
0000
,
0001
0000
0130
0010
1000
0200
0000
0000
,
0000
0000
0000
0000
0310
0000
0000
0010
0000
0000
0000
0000
0001
0000
0000
0001
,
0000
0000
1000
0010
0001
0010
1000
0000
,
0001
0000
1001
0000
1000
0000
0001
0010
,
0100
2000
0000
3002
0000
0203
0000
0000
,
0310
0000
1000
0000
0001
0000
1000
0100
,
0010
0001
0000
0100
0001
0020
0000
0000
,
0130
1000
0001
0100
,
0010
1000
0000
0100
0010
0002
0000
0000
,
0103
0001
0000
0010
0011
0000
1010
0000
,
1000
0100
0000
0010
0011
0000
1010
0000
,
1000
0001
1000
0000
0010
0100
0001
0100
,
0010
2000
0000
3200
0010
0000
1300
0100
,
0010
0000
0001
0000
0000
0000
1000
0000
0001
0000
0000
0010
0000
0000
0100
0000
,
0010
0000
0001
0000
1000
0000
0000
0000
0010
0000
0000
0100
0000
0000
0010
0000
,
1000
0001
0010
0000
0100
0010
0001
1000
,
0010
0200
0000
0301
2000
0000
0000
3100
,
0010
0000
0002
0000
0100
0000
0000
0000
1003
0000
0000
0001
0000
0000
1000
0000
,
0010
0200
0000
0000
0000
0000
0000
0300
,
0100
0001
0000
0100
0001
0000
0000
0000
0010
0000
0000
0100
0000
0000
0100
0000
,
1000
0000
0001
0000
0100
0000
0000
0000
1000
0000
0000
0001
0000
0000
0001
0000
,
0100
0000
0010
0000
1000
0000
0000
0000
0001
0000
0000
1000
0000
0000
0100
0000
,
1000
0000
0010
0000
0100
0000
1000
0000
0100
0000
0001
0100
0000
0000
0001
0000
,
1000
0000
0001
0000
0100
0000
0000
0000
0010
0000
0000
0010
0100
0000
0001
0000
,
1000
0000
0010
0000
0001
0000
0010
0000
1000
0000
0000
0100
0000
0000
0100
0000
,
0001
0000
0100
0000
1000
0000
0000
0000
0010
0000
0000
1000
0000
0000
1000
0000
,
0001
0000
0100
0000
0000
0000
0010
0000
0100
0000
0000
0001
0000
0000
0001
0000
,
1000
0000
0100
0000
0010
0000
0000
0000
1001
0000
0000
0001
0100
0000
0010
0000
,
0001
0000
0010
0000
1000
0000
0000
0000
0100
0000
0000
0100
0010
0000
0001
0000
,
1000
0000
0001
0000
0100
0000
0000
0000
0001
0000
0000
0001
0100
0000
0010
0000
,
1000
0000
0100
0000
0010
0000
0000
0000
0100
0000
0000
0100
1000
0000
0001
0000
,
0100
0000
0001
0000
1000
0000
0000
0000
0100
0000
0000
0100
0010
0000
0001
0000
,
1000
0000
0001
0000
0100
0000
0000
0000
0001
0000
0000
0100
0001
0000
1000
0000
,
0001
0000
0010
0000
0100
0000
0000
0000
1000
0000
0000
0010
1000
0000
0001
0000
,
0100
0000
0010
0000
0100
0000
0000
0000
0001
0000
1000
0100
0000
0000
1000
0000
,
1100
0000
0001
0000
1000
0000
0100
0000
1000
0000
1000
0100
0000
0000
1000
0000
,
0001
0000
0100
0000
0010
0000
0001
0000
0010
0000
0100
0001
0000
0000
0010
0000
,
0001
0000
1000
0000
0010
0000
1000
0000
0100
0000
0100
0010
0000
0000
0001
0000
,
0100
0000
0010
0000
0001
0000
0010
0000
1000
0000
0100
0010
0000
0000
0001
0000
,
0100
0000
0001
0000
0010
0000
0100
0000
1000
0000
1000
0001
0000
0000
0100
0000
,
0010
0000
0001
0000
1000
0000
0010
0000
0100
0000
1000
0100
0000
0000
0100
0000
,
0010
0000
0001
0000
1000
0000
0000
0000
0001
0000
0000
0100
0000
0000
0100
0000
,
0010
0000
0100
0000
0000
0000
0000
0000
0001
0000
0000
1000
0000
0000
0010
0000
,
0100
0010
0220
0000
0000
0000
0000
0000
,
0000
0000
0000
0000
,
0000
0000
0000
0000
,
0330
0000
0000
0000
;

//---------------dance-single - ----------------
#NOTES:
     dance-single:
     X-Scale 13:
     Hard:
     9:
     0.527132,0.675806,0.132511,0.193670,0.346567,362.000000,349.000000,13.000000,19.000000,0.000000,0.000000,0.527132,0.675806,0.132511,0.193670,0.346567,362.000000,349.000000,13.000000,19.000000,0.000000,0.000000:
// measure 0
0000
0000
0000
0000
,  // measure 1
0000
0000
0000
0000
,  // measure 2
0000
0000
0000
0000
,  // measure 3
0000
0000
0000
0000
,  // measure 4
2000
0000
0000
0000
3002
0000
0000
0100
0003
0000
0100
0000
0200
0000
0000
0000
,  // measure 5
1000
0000
0301
0010
1000
0010
0002
0000
,  // measure 6
1003
0000
0001
0000
1001
0000
0000
1000
0000
0000
0001
0000
0101
0000
0000
0100
,  // measure 7
0000
0001
1001
1000
0100
0120
0000
0000
,  // measure 8
1000
0000
0031
0010
0100
1000
0000
0010
,  // measure 9
1000
0001
0100
0001
1000
0200
0000
0000
,  // measure 10
0001
0000
1300
0001
1000
0100
0000
0010
,  // measure 11
0100
1000
0001
0000
0100
0020
0000
0000
,  // measure 12
0001
0000
1030
0010
0100
0001
0000
0010
,  // measure 13
0100
1000
0001
1000
0010
0200
0000
0000
,  // measure 14
0301
2000
0000
3100
1100
0000
0101
0000
,  // measure 15
0100
0001
0000
1000
1001
0000
0210
0000
,  // measure 16
0001
0000
0301
0000
0101
0000
0100
0000
0001
0000
0000
0010
0000
0000
0010
0000
,  // measure 17
0100
0000
1000
0010
1000
0000
0001
0000
0100
0000
0000
0001
0000
0000
0001
0000
,  // measure 18
1000
0000
0010
0100
0001
0000
1000
0000
0001
0000
0000
0100
0000
0000
0100
0000
,  // measure 19
0010
1000
0001
1000
0010
0000
0100
0000
0001
0000
0000
0010
0000
0000
0010
0000
,  // measure 20
0100
1000
0001
1000
0010
0000
0100
0000
0001
0000
1000
0000
0100
0000
0001
0000
,  // measure 21
0100
0000
1000
0100
1000
0000
0001
0000
0100
0000
0001
0000
1000
0000
0010
0000
,  // measure 22
1000
0000
0100
0010
0100
0010
0100
0010
0100
0010
0001
1000
0001
1000
0001
1000
,  // measure 23
0001
1000
0002
0000
0000
0000
1003
0000
0010
0000
1000
0000
0002
0000
0000
0000
,  // measure 24
0013
0100
0000
0100
1000
0000
0010
0000
0100
0000
1000
0100
0000
0010
0100
0000
,  // measure 25
0001
0000
1000
0000
0010
0000
1000
0000
0100
0000
0001
0100
0000
0100
1000
0000
,  // measure 26
0001
0000
0100
0000
0001
0000
1000
0000
0001
0000
0100
0010
0000
0100
0001
0000
,  // measure 27
0010
0000
1000
0000
0001
0000
0100
0000
1000
0000
0010
1000
0000
0001
1000
0000
,  // measure 28
0100
0000
0001
0000
1000
0000
0010
0000
0100
0000
1000
0100
0000
0100
0010
0000
,  // measure 29
0100
0000
1000
0000
0001
0000
0100
0000
1000
0000
0100
0010
0000
0100
0001
0000
,  // measure 30
1000
0000
0001
0000
0100
0000
0010
0000
1000
0000
0100
1000
0000
1000
0001
0000
,  // measure 31
0100
0020
0000
0031
0010
1000
0002
0000
,  // measure 32
0103
0001
0000
1000
0100
0000
0000
0000
1100
0000
1000
0010
0000
0100
0001
0000
,  // measure 33
1000
0000
0001
0000
0010
0000
1000
0000
0010
0000
0100
1000
0000
0100
0010
0000
,  // measure 34
0001
0000
1000
0000
0010
0000
1000
0000
0001
0000
0100
0010
0000
0010
0001
0000
,  // measure 35
0010
0000
1000
0000
0001
0000
0100
0000
0010
0000
0100
1000
0000
0100
0001
0000
,  // measure 36
0001
0000
1000
0000
0010
0000
0100
0000
1000
0000
0100
0010
0000
1000
0001
0000
,  // measure 37
0100
0000
1000
0000
0100
0000
0001
0000
1000
0000
0100
0010
0000
0001
0100
0000
,  // measure 38
0001
0000
1000
0000
0010
0000
0001
0000
0010
0000
0100
0010
0000
1000
0100
0000
,  // measure 39
0001
0000
0100
0000
0010
0000
0001
0000
1000
0000
0100
0010
0000
0000
0010
0000
,  // measure 40
0011
0000
1000
0000
1001
0000
0001
0000
0100
0000
0010
0100
0000
0001
0010
0000
,  // measure 41
0100
0000
0010
0000
0001
0000
1000
0000
0010
0000
0100
0001
0000
1000
0100
0000
,  // measure 42
0010
0000
0001
0000
1000
0000
0010
0000
0001
0000
0010
0100
0000
0010
1000
0000
,  // measure 43
0001
0000
0100
0000
0010
0000
0001
0000
0010
0000
1000
0010
0000
0100
0010
0000
,  // measure 44
1000
0000
0001
0000
0010
0000
1000
0000
0010
0000
0001
0010
0000
0100
1000
0000
,  // measure 45
0010
0000
0100
0000
1000
0000
0100
0000
0001
0000
0010
0001
0000
1000
0010
0000
,  // measure 46
0100
0000
0010
0000
2000
0000
0000
0000
0010
0000
0000
0001
0000
0000
0001
0000
,  // measure 47
0010
0001
3020
0000
0000
0230
0000
0000
,  // measure 48
0001
0301
2002
0000
0000
0000
0000
0000
,  // measure 49
0000
0000
0000
0000
,  // measure 50
0000
0000
0000
0000
,  // measure 51
3003
0000
0000
0000
;

//---------------dance-single - DANCERUSH Special----------------
#NOTES:
     dance-single:
     X-Scale 14:
     Challenge:
     9:
     0.355304,0.418047,0.040773,0.163091,0.056062,244.000000,240.000000,4.000000,16.000000,149.000000,0.000000,0.355304,0.418047,0.040773,0.163091,0.056062,244.000000,240.000000,4.000000,16.000000,149.000000,0.000000:
// measure 0
0000
0000
0000
0000
,  // measure 1
0000
0000
0000
0000
,  // measure 2
0000
0000
0000
0000
,  // measure 3
0000
0000
0000
0000
,  // measure 4
0000
0002
0000
0000
,  // measure 5
0003
0000
1000
0100
0010
0001
0000
0000
,  // measure 6
1000
0100
00M0
0001
2000
0000
3020
0030
,  // measure 7
1000
0100
00M0
0001
2000
0000
3020
0030
,  // measure 8
1000
0000
0001
0000
0010
0100
0000
1000
,  // measure 9
0001
0100
0000
0010
0100
0001
0000
0000
,  // measure 10
1000
0000
0001
0000
1000
0100
0000
0010
,  // measure 11
0100
1000
0000
0001
1000
0010
0000
0000
,  // measure 12
0100
0000
0001
0000
0010
0100
0000
1000
,  // measure 13
0010
0100
0001
0010
0100
1000
0000
0000
,  // measure 14
0001
0100
00M0
1000
0002
0000
0023
0030
,  // measure 15
0001
0100
00M0
1000
0002
0000
0023
0030
,  // measure 16
0001
1000
0001
MMMM
0001
MMMM
0001
MMMM
,  // measure 17
0001
0000
MMMM
0000
0001
0000
1000
0000
0100
0000
0000
0100
0000
0000
0100
0000
,  // measure 18
0001
0100
1000
MMMM
1000
MMMM
1000
MMMM
,  // measure 19
1000
0000
MMMM
0000
1000
0000
0001
0000
0100
0000
0000
0100
0000
0000
0100
0000
,  // measure 20
1000
0100
0001
0010
0100
1000
0010
0100
,  // measure 21
0001
1000
0100
0010
0001
0100
0010
1000
,  // measure 22
0001
1000
0020
0000
0001
0000
0100
0000
,  // measure 23
1000
0000
0200
0000
0000
0000
0000
0330
,  // measure 24
0LL0
0000
0001
MMMM
0001
MMMM
0001
0100
,  // measure 25
10M0
0001
1000
MMMM
1000
MMMM
1000
0010
,  // measure 26
0M01
1000
0001
MMMM
0001
MMMM
0001
0100
,  // measure 27
10M0
0001
1000
MMMM
1000
MMMM
1000
0100
,  // measure 28
00M1
1000
0001
MMMM
0001
MMMM
0001
0010
,  // measure 29
1M00
0001
1000
MMMM
1000
MMMM
1000
0010
,  // measure 30
0100
0001
1000
0000
0000
0100
0000
0100
,  // measure 31
1000
0001
2000
0000
0010
0000
0002
0000
,  // measure 32
0000
3003
L00L
0000
1000
MMMM
1000
MMMM
,  // measure 33
1000
0000
0001
0000
0100
0000
0001
0000
0010
0000
0000
0100
0000
0000
0100
0000
,  // measure 34
0010
0001
1000
MMMM
1000
MMMM
1000
0001
,  // measure 35
0100
0000
0001
0000
1000
0000
0100
0000
0010
0000
0000
0001
0000
0000
0001
0000
,  // measure 36
0100
0001
1000
MMMM
1000
MMMM
1000
0001
,  // measure 37
0100
0000
1000
0000
0100
0000
0001
0000
1000
0000
0000
0100
0000
0000
0100
0000
,  // measure 38
0010
0001
1000
MMMM
1000
MMMM
1000
0100
,  // measure 39
0001
0100
1000
MMMM
1000
MMMM
1000
0000
,  // measure 40
0001
0000
0001
0000
0001
0000
0000
0000
1001
0000
0000
1000
0000
0000
0010
0000
,  // measure 41
1000
0000
0001
0000
0010
0000
MMMM
0000
1000
0000
0000
0001
0000
0000
0100
0000
,  // measure 42
0001
0000
1000
0000
0100
0000
MMMM
0000
0001
0000
0000
0100
0000
0000
0010
0000
,  // measure 43
0100
0000
0001
0000
0010
0000
MMMM
0000
1000
0000
0000
0001
0000
0000
0100
0000
,  // measure 44
0001
0000
1000
0000
0010
0000
MMMM
0000
0001
0000
0000
1000
0000
0000
0010
0000
,  // measure 45
0100
0000
0001
0000
0010
0000
MMMM
0000
1000
0000
0000
0100
0000
0000
0010
0000
,  // measure 46
0100
1000
0002
0000
0100
0000
1000
0000
,  // measure 47
0100
0000
2003
0000
0000
3200
0000
0000
,  // measure 48
0010
0310
0LL0
0000
0000
0000
0000
0000
;
