#TITLE:The Light;
#SUBTITLE:;
#ARTIST:W&W ft. Kizuna AI;
#TITLETRANSLIT:;
#SUBTITLETRANSLIT:;
#ARTISTTRANSLIT:;
#GENRE:Happy Hardcore;
#CREDIT:;
#BANNER:The Light-bn.png;
#BACKGROUND:The Light-bg.png;
#LYRICSPATH:;
#CDTITLE:cdtitle.png;
#MUSIC:The Light.ogg;
#OFFSET:-0.002000;
#SAMPLESTART:36.001999;
#SAMPLELENGTH:12.000000;
#SELECTABLE:YES;
#BPMS:0.000000=160.000000
;
#STOPS:
;
#BGCHANGES:
;
#KEYSOUNDS:;
#ATTACKS:;

//---------------dance-single - ----------------
#NOTES:
     dance-single:
     X-Scale 14:
     Challenge:
     9:
     0.666480,0.896482,0.228694,0.320172,0.388780,408.000000,388.000000,20.000000,28.000000,0.000000,0.000000,0.666480,0.896482,0.228694,0.320172,0.388780,408.000000,388.000000,20.000000,28.000000,0.000000,0.000000:
// measure 0
0000
0000
0000
0000
,  // measure 1
0000
0000
0000
0000
,  // measure 2
0000
0000
0000
0000
,  // measure 3
0000
0000
0000
0000
,  // measure 4
2000
0000
0000
0001
0000
0001
0100
0000
,  // measure 5
0000
0010
0000
3010
1000
0001
0100
0000
,  // measure 6
0020
0000
0000
0001
0000
0001
0100
0000
,  // measure 7
0000
1000
0000
1030
0010
0000
0100
0001
,  // measure 8
1001
0000
0000
0000
1000
0000
0100
1000
0000
0000
0001
0000
0000
0000
0100
0000
,  // measure 9
1000
0000
0100
0000
0001
0000
0100
0001
0100
0000
0010
0000
1000
0000
0010
0000
,  // measure 10
0100
0000
0000
0000
0001
0000
0010
0001
0000
0000
1000
0000
0000
0000
0010
0000
,  // measure 11
0001
0000
0010
0000
1000
0000
0010
0100
0010
0000
1000
0000
0001
0000
1000
0000
,  // measure 12
0100
0000
0000
0000
0010
0000
0001
0010
0000
0000
0001
0000
0000
0000
1000
0000
,  // measure 13
0100
0000
0001
0000
0100
0000
1000
0001
1000
0000
0100
0000
0010
0000
0001
0000
,  // measure 14
1000
0000
0000
0000
0010
0000
0100
0010
0000
0000
1000
0000
0000
0000
0001
0000
,  // measure 15
0010
0000
1000
0000
0010
0000
0001
1000
0001
0000
0100
0000
0010
0000
1000
0000
,  // measure 16
1001
0000
0001
0010
0100
1000
0001
0000
,  // measure 17
0020
0000
1000
0000
0001
0000
0230
2300
,  // measure 18
3002
0100
2003
0001
,  // measure 19
3200
0000
0001
0000
0010
0000
1000
0300
,  // measure 20
1100
0000
1000
0000
0001
0000
1000
0010
1000
0000
0001
0000
0010
0100
0010
0100
,  // measure 21
0010
0000
0001
0000
1000
0000
0010
0000
0100
0001
0100
0001
0100
0000
0010
0100
,  // measure 22
0010
0100
0010
0100
0010
0100
0010
0100
1000
0001
1000
0001
1000
0001
1000
0001
,  // measure 23
1000
0000
0000
0000
1000
0000
0100
0010
0001
0000
1000
0000
0001
0000
0010
0000
,  // measure 24
0011
0000
0000
0000
0010
0000
0001
0010
0001
0000
1000
0000
0100
0000
0001
0000
,  // measure 25
1000
0000
0010
0000
0001
0000
1000
0010
1000
0000
0001
0000
0010
0000
0001
0000
,  // measure 26
0100
0000
0000
0000
0010
0000
1000
0010
1000
0000
0100
0000
0001
0000
1000
0000
,  // measure 27
0010
0000
0001
0000
1000
0000
0010
1000
0010
0000
0100
0000
0001
0000
1000
0000
,  // measure 28
0100
0000
0000
0000
0101
0000
0001
0100
0001
0000
0010
0000
1000
0000
0001
0000
,  // measure 29
0100
0000
1000
0000
0001
0000
1000
0010
1000
0000
0001
0000
0010
0000
0001
0000
,  // measure 30
0100
0000
0000
0000
1100
0000
1000
0100
1000
0000
0010
0000
0100
0000
0101
0000
,  // measure 31
0000
0000
1100
0000
0000
0000
1000
0001
0100
0000
0010
0000
1000
0000
0001
0000
,  // measure 32
1001
0000
0000
0100
1000
0000
0001
1000
0001
0010
0000
0001
0000
1000
0001
1000
,  // measure 33
0100
0010
0000
0100
0010
0000
0001
0000
0200
0000
0320
0000
2030
0000
0000
0000
,  // measure 34
3010
0000
0000
1000
0100
0000
0010
0001
1000
0001
0000
0010
0000
0001
0010
0000
,  // measure 35
0001
0000
1000
0010
0000
1000
0001
0000
0200
0300
0200
0300
0200
0300
0001
0100
,  // measure 36
0001
0000
0000
0100
0010
0000
1000
0010
0100
0010
0000
1000
0000
0100
1000
0001
,  // measure 37
0100
0001
0000
0100
0001
0000
1000
0000
0002
0000
0023
0000
0230
0000
0000
0000
,  // measure 38
1300
0000
0000
0100
1000
0000
0001
0100
0001
1000
0000
0000
1001
0000
1001
0000
,  // measure 39
0000
0000
0110
0000
0000
0000
0010
0001
0010
0000
0001
0000
2000
0000
0010
3000
,  // measure 40
1010
0000
0000
0000
1000
0000
0001
0100
0001
0000
0100
0000
0001
0000
1000
0000
,  // measure 41
0200
0000
0000
0000
0301
0000
0100
0000
1000
0000
0100
0000
1000
0000
0100
0010
,  // measure 42
0001
0000
0000
0000
0001
0000
1000
0010
1000
0000
0001
0000
0010
0000
0001
0000
,  // measure 43
1001
0000
0000
0110
0000
0000
1001
0000
0010
0000
0100
0000
0010
0000
0100
1000
,  // measure 44
0001
0000
0000
0000
0001
0000
1000
0100
0010
0000
0100
0000
1000
0000
0001
0000
,  // measure 45
0020
0000
0000
0000
1030
0000
0010
0000
0001
0000
0010
0000
0001
0000
1000
0100
,  // measure 46
0010
0000
0000
0000
0010
0000
0001
1000
0010
0000
0100
0000
0001
0000
1000
0000
,  // measure 47
1001
0000
0000
0110
0000
0000
1001
0000
0010
0000
0100
0000
0010
0000
0100
0000
,  // measure 48
0110
0000
0000
1000
0100
0010
0001
0000
,  // measure 49
2000
0010
0000
0010
0001
0010
3001
1000
,  // measure 50
0002
0000
0000
0000
0203
0010
0010
0000
,  // measure 51
0320
0000
0000
1000
1030
0000
0100
0010
,  // measure 52
0001
0000
0000
1000
0010
0100
0001
0000
,  // measure 53
0020
0100
0000
0100
0001
0100
0031
0010
,  // measure 54
0200
0000
0000
0000
2300
0001
0001
0000
,  // measure 55
3002
0000
0000
0100
0100
0000
0010
0010
,  // measure 56
0003
0000
0000
0000
;

//---------------dance-single - ----------------
#NOTES:
     dance-single:
     X-Scale 11:
     Hard:
     8:
     0.545599,0.800430,0.171521,0.548866,0.137217,334.000000,319.000000,15.000000,48.000000,0.000000,0.000000,0.545599,0.800430,0.171521,0.548866,0.137217,334.000000,319.000000,15.000000,48.000000,0.000000,0.000000:
// measure 0
0000
0000
0000
0000
,  // measure 1
0000
0000
0000
0000
,  // measure 2
0000
0000
0000
0000
,  // measure 3
0000
0000
0000
0000
,  // measure 4
0001
0000
0000
1000
0000
0001
0100
0000
,  // measure 5
0000
0010
0000
1000
0100
0010
0001
0000
,  // measure 6
1000
0000
0000
0010
0000
0100
0001
0000
,  // measure 7
0000
1000
0000
0001
0010
0000
0100
1000
,  // measure 8
1200
0000
0000
0300
1000
0000
0002
0000
0000
0003
0200
0000
0000
0300
0010
0000
,  // measure 9
0020
0000
0000
0030
2000
0000
3001
1000
0001
0000
1000
0000
0001
0000
0010
0000
,  // measure 10
0200
0000
0000
0300
1000
0000
0002
0000
0000
0003
0200
0000
0000
0300
0010
0000
,  // measure 11
0020
0000
0000
0030
2000
0000
3001
1000
0001
0000
0010
0000
0100
0000
1000
0000
,  // measure 12
0001
0000
0100
0000
0010
0000
2000
0000
0000
3000
0200
0000
0000
0300
0020
0000
,  // measure 13
0000
0000
0001
0000
0030
0000
0001
0010
0001
0000
0100
0000
1000
0000
0100
0000
,  // measure 14
0001
0200
0300
0020
0030
2000
3000
0200
,  // measure 15
0300
0000
0020
0000
0030
0000
0002
0013
0001
0000
0200
0000
1300
0000
0100
0000
,  // measure 16
0101
0000
1000
0010
0001
0010
1000
0000
,  // measure 17
0002
0000
1000
0000
0010
0000
1003
0001
,  // measure 18
0020
0100
0230
1000
,  // measure 19
2300
0000
0001
0000
0100
0000
0001
3000
,  // measure 20
1000
0100
1000
0100
0010
0001
0010
0001
,  // measure 21
1000
0010
1000
0010
0100
0001
0100
0001
,  // measure 22
1000
0100
1000
0100
1000
0100
1000
0100
0010
0001
0010
0001
0010
0001
0010
0001
,  // measure 23
2000
0001
0010
3001
,  // measure 24
1001
0000
0000
0000
0100
0000
1000
0100
1000
0000
0100
0000
0001
0000
0100
0000
,  // measure 25
0010
0000
0100
0000
1000
0000
0100
1000
0100
0000
0010
0000
0001
0000
1000
0000
,  // measure 26
0001
0000
0000
0000
0100
0000
0010
0100
0010
0000
0001
0000
0010
0000
0100
0000
,  // measure 27
0010
0000
1000
0000
0010
0000
0100
0010
0100
0000
0001
0000
1000
0000
0001
0000
,  // measure 28
0100
0000
0000
0000
0010
0000
1000
0100
1000
0000
0100
0000
0001
0000
0100
0000
,  // measure 29
0010
0000
0100
0000
1000
0000
0100
1000
0100
0000
0010
0000
0001
0000
1000
0000
,  // measure 30
0010
0000
0000
0000
0100
0000
0001
0100
0001
0000
1000
0000
0010
0000
1010
0000
,  // measure 31
0000
0000
1100
0000
0000
0000
1000
0001
1000
0000
0100
0000
0010
0000
0001
0000
,  // measure 32
1001
0000
1000
0100
0010
0001
1000
0000
,  // measure 33
0020
0000
0100
0000
1030
0010
0100
0001
,  // measure 34
2000
0010
3002
0100
,  // measure 35
2003
0000
0000
0000
0010
0000
0000
0000
3001
0000
0001
0000
0001
0000
1000
0001
,  // measure 36
1000
0000
0010
0100
0001
1000
0010
0000
,  // measure 37
0200
0000
0010
0000
0301
0100
0010
1000
,  // measure 38
0200
0000
0010
0000
2300
0000
3010
1010
,  // measure 39
0000
0000
1100
0000
0000
0000
1000
0010
1000
0000
0001
0000
1000
0000
0001
0000
,  // measure 40
1001
0000
0100
0000
1000
0000
0001
0100
,  // measure 41
0001
0000
1000
0100
0010
0000
0100
0010
,  // measure 42
0001
0000
1000
0000
0010
0000
0100
0001
,  // measure 43
0101
0000
0000
1001
0000
0000
0101
0000
0100
0000
0010
0000
1000
0000
0001
0000
,  // measure 44
0100
0000
0010
0000
1000
0000
0001
0010
,  // measure 45
0001
0000
1000
0010
0100
0000
0010
0100
,  // measure 46
0001
0000
1000
0000
0100
0000
0010
0001
,  // measure 47
0011
0000
0000
1001
0000
0000
0011
0000
0010
0000
0100
0000
1000
0000
0001
0000
,  // measure 48
1000
0000
0000
0100
0000
1000
0001
0000
,  // measure 49
0000
0100
0000
0002
0023
0230
2300
3000
,  // measure 50
0001
0000
0000
0100
0000
0001
1000
0000
,  // measure 51
0000
0010
0000
0200
0320
0030
2000
3200
,  // measure 52
0310
0000
0000
0001
0000
1000
0001
0000
,  // measure 53
0000
0100
0000
0020
0230
0302
2003
3000
,  // measure 54
0100
0000
0000
1000
0000
0001
0010
0000
,  // measure 55
0000
0001
0000
2000
3200
0300
0020
0032
,  // measure 56
0003
0000
0000
0000
;

//---------------dance-single - ----------------
#NOTES:
     dance-single:
     X-Scale 8:
     Medium:
     5:
     0.398581,0.544292,0.205825,0.228694,0.011435,244.000000,226.000000,18.000000,20.000000,0.000000,0.000000,0.398581,0.544292,0.205825,0.228694,0.011435,244.000000,226.000000,18.000000,20.000000,0.000000,0.000000:
0000
0000
0000
0000
,
0000
0000
0000
0000
,
0000
0000
0000
0000
,
0000
0000
0000
0000
,
0100
0000
0000
1000
0000
0000
0100
0000
,
0000
1000
0000
0000
0001
0000
0100
0000
,
0001
0000
0000
0010
0000
0000
0001
0000
,
0000
0010
0000
0000
0100
0000
0000
0000
,
1100
0000
0000
1000
0000
0001
0000
1000
,
1000
0010
0100
0001
,
0010
0000
0000
0100
0000
0010
0000
0100
,
0100
1000
0001
1000
,
0010
0000
0000
0100
0000
0001
0000
1000
,
0000
0010
0000
0100
0010
1000
0001
0100
,
0010
0000
0000
1000
0000
0100
0000
0010
,
0000
0001
0000
1000
0000
0001
0010
0001
,
0011
0100
1000
0001
,
2000
0100
0001
3010
,
0002
0010
2003
0100
,
3020
0100
1030
0001
,
1001
1000
0100
0010
,
0001
1000
0100
0010
,
0001
0100
0010
1000
0001
0100
0010
1000
,
1010
0000
1001
0000
0011
0000
2000
3000
,
1002
0010
2003
0100
,
3020
0001
0230
0001
,
0302
0000
0010
0000
1000
0000
0103
0001
,
2000
0100
3002
0010
,
0203
0010
0302
0100
,
2003
0100
3020
0001
,
0230
0000
0001
0000
1000
0000
0301
0100
,
0000
0010
0000
1000
0100
1000
0001
1000
,
1100
0100
0010
0001
,
1000
0000
0001
0000
0010
0100
2000
0000
,
3001
0010
0001
1000
,
0010
0000
0100
0000
0001
1000
0020
0000
,
0130
0010
1000
0001
,
0010
0000
0100
0000
0010
0001
2000
0000
,
3010
0000
1000
0000
0001
0000
1000
1000
,
0000
1000
0000
1000
0100
0010
0001
0010
,
0011
0001
1001
1000
,
1010
0000
0010
0000
1000
0001
1000
0000
,
1100
1000
1001
0010
,
0001
0000
0000
0010
0000
0000
0001
0000
0100
0000
0001
0000
1000
0000
0000
0000
,
1010
0010
0110
0100
,
0101
0000
1000
0000
0001
0100
0001
0000
,
0110
0100
1100
1000
,
0010
0000
0000
0100
0000
0000
0010
0000
1000
0000
0001
0000
0010
0000
0100
0000
,
1000
0000
0000
0010
0000
0000
0100
0000
,
0000
0001
0000
0000
1000
0100
1000
0000
,
0001
0000
0000
0010
0000
0000
0100
0000
,
0000
0010
0000
0001
1000
0000
1000
0100
,
0010
0000
0000
0001
0000
0000
1000
0000
,
0000
0001
0000
0000
0010
0100
0010
0000
,
0001
0000
0000
1000
0000
0000
0100
0000
,
0000
1000
0000
0001
0100
0000
0001
0100
,
0010
0000
0000
0000
;

//---------------dance-single - ----------------
#NOTES:
     dance-single:
     X-Scale 5:
     Easy:
     3:
     0.261365,0.384206,0.091478,0.228694,0.000000,160.000000,152.000000,8.000000,20.000000,0.000000,0.000000,0.261365,0.384206,0.091478,0.228694,0.000000,160.000000,152.000000,8.000000,20.000000,0.000000,0.000000:
0000
0000
0000
0000
,
0000
0000
0000
0000
,
0000
0000
0000
0000
,
0000
0000
0000
0000
,
2000
0000
0000
0001
0000
0000
0100
0000
,
0000
0001
0000
0000
0010
0000
0000
0000
,
3200
0000
0000
0001
0000
0000
1000
0000
,
2300
0000
0001
0000
,
3001
0000
1000
0000
,
0100
0000
1000
0001
,
1000
0000
0010
0000
,
0100
0000
0001
0010
,
0001
0000
0100
0000
,
0010
0000
1000
0010
,
1000
0000
0001
0000
,
0100
0000
0010
1000
,
1010
0000
0001
0000
,
2000
0000
0001
3000
,
0020
0000
0230
0000
,
0302
0000
0000
0000
1000
0000
0000
0003
,
1001
0000
1000
0000
,
0002
0000
0100
0003
,
0200
0000
0320
0000
,
2030
0001
0001
3001
,
1100
1000
0001
1000
,
0100
0010
0100
1000
,
0001
0100
0010
0100
,
0001
0010
0100
0010
,
0001
1000
0010
1000
,
0001
0100
0010
1000
,
0001
0000
1000
0000
0100
0000
0010
0010
,
0000
0010
0000
0010
0001
1000
0001
0000
,
1001
1000
0010
1000
,
0001
0010
0001
1000
,
0200
1300
0100
0010
,
0001
0100
0010
2000
,
3001
1000
0100
1000
,
0010
0100
0001
0020
,
0130
0000
1000
0000
0001
0000
1000
1000
,
0000
1000
0000
1000
0001
0100
0001
0000
,
0101
0000
0100
0000
,
1000
0000
0001
0000
,
0011
0000
1000
0000
,
0001
0000
1000
0000
,
1100
0000
0001
0000
,
0010
0000
0100
0000
,
1001
0000
0001
0000
,
0010
0000
0001
0000
,
2000
0000
0000
0001
0000
0000
0100
0000
,
0000
0010
0000
0000
0001
0000
0000
0000
,
3002
0000
0000
0100
0000
0000
0010
0000
,
0023
0000
0100
0000
,
0032
0000
0000
1000
0000
0000
0010
0000
,
0000
1000
0000
0000
0100
0000
0000
0000
,
0203
0000
0000
1000
0000
0000
0010
0000
,
0320
0000
1000
0000
,
0030
0000
0000
0000
;

//---------------dance-single - ----------------
#NOTES:
     dance-single:
     X-Scale 2:
     Beginner:
     2:
     0.164987,0.224120,0.011435,0.000000,0.000000,101.000000,100.000000,1.000000,0.000000,0.000000,0.000000,0.164987,0.224120,0.011435,0.000000,0.000000,101.000000,100.000000,1.000000,0.000000,0.000000,0.000000:
0000
0000
0000
0000
,
0000
0000
0000
0000
,
0000
0000
0000
0000
,
0000
0000
0000
0000
,
1000
0000
0000
0100
,
0000
0000
1000
0000
,
0001
0000
0000
0100
,
0000
0000
0001
0000
,
1000
0000
0000
0000
,
0100
0000
0000
0000
,
0010
0000
0000
0000
,
0001
0000
0000
0000
,
1000
0000
0000
0000
,
0010
0000
0000
0000
,
0100
0000
0000
0000
,
0001
0000
0000
0000
,
1000
0000
0100
0000
,
1000
0000
0100
0000
,
0010
0000
0001
0000
,
0010
0000
0001
0000
,
1000
0000
0010
0000
,
1000
0000
0010
0000
,
0100
0000
0001
0000
,
1000
0001
1000
0000
,
1001
0000
0001
0000
,
0010
0000
0001
0000
,
1000
0000
0010
1000
,
0001
0000
0100
0000
,
0010
0000
1000
0000
,
0001
0000
1000
0000
,
0100
0000
0000
0000
0010
0000
0000
0001
,
0000
0001
0000
0000
1000
0000
0001
0000
,
1000
0000
0010
0000
,
0100
0000
0001
1000
,
0001
0000
0010
0000
,
0100
0000
1000
0010
,
1000
0000
0100
0000
,
0010
0000
0001
1000
,
0001
0000
0000
0000
0100
0000
0000
0010
,
0000
0010
0000
0000
1000
0000
0001
0000
,
1000
0000
0100
0000
,
0010
0000
0001
0000
,
1000
0000
0010
0000
,
0100
0000
0001
0000
,
1000
0000
0100
0000
,
0010
0000
0001
0000
,
1000
0000
0010
0000
,
0100
0000
0001
0000
,
1000
0000
0000
0010
,
0000
0000
1000
0000
,
0001
0000
0000
0010
,
0000
0000
0001
0000
,
0100
0000
0000
0010
,
0000
0000
0100
0000
,
0001
0000
0000
1000
,
0000
0000
0001
0000
,
0010
0000
0000
0000
;
