#TITLE:The Government Knows;
#SUBTITLE:;
#ARTIST:KNOWER;
#TITLETRANSLIT:;
#SUBTITLETRANSLIT:;
#ARTISTTRANSLIT:;
#GENRE:Electro;
#CREDIT:;
#BANNER:govt-bn.png;
#BACKGROUND:govt-bg.png;
#LYRICSPATH:;
#CDTITLE:cdtitle.png;
#MUSIC:govt.ogg;
#OFFSET:-0.005000;
#SAMPLESTART:59.178001;
#SAMPLELENGTH:19.750000;
#SELECTABLE:YES;
#DISPLAYBPM:73.000000:146.000000;
#BPMS:0.000000=146.000000
,159.000000=584.000000
,163.000000=146.000000
,177.000000=584.000000
,177.583328=73.000000
,178.000000=584.000000
,178.583328=73.000000
,179.000000=146.000000
,193.000000=584.000000
,193.583328=73.000000
,194.000000=584.000000
,194.583328=73.000000
,195.000000=146.000000
,227.000000=73.000000
,243.000000=146.000000
,315.000000=15.000000
;
#STOPS:
;
#BGCHANGES:-0.005=GOVT.mp4=1.000=1=0=1===CrossFade==,
99999=-nosongbg-=1.000=0=0=0 // don't automatically add -songbackground-
;
#KEYSOUNDS:;
#ATTACKS:;

//---------------dance-single - ----------------
#NOTES:
     dance-single:
     :
     Hard:
     10:
     0.677485,0.779251,0.131937,0.615705,0.535077,647.000000,629.000000,18.000000,84.000000,48.000000,0.000000,0.677485,0.779251,0.131937,0.615705,0.535077,647.000000,629.000000,18.000000,84.000000,48.000000,0.000000:
// measure 0
0000
0000
0000
0000
,  // measure 1
0000
0000
0000
0000
,  // measure 2
0000
0000
0000
0000
,  // measure 3
0000
0000
0000
0000
,  // measure 4
1100
0000
1000
0002
0000
0000
0103
0000
,  // measure 5
0100
0000
0000
0001
0100
0000
0002
0000
0000
0000
0000
0000
1003
0000
0000
0000
,  // measure 6
0010
0000
0000
1000
0010
0000
0200
0000
0000
0000
0000
0000
0301
0000
0000
0000
,  // measure 7
0100
0000
0000
0010
0100
0000
0020
0000
0000
0000
0000
0000
0000
0000
1030
0000
,  // measure 8
1010
0000
0000
0000
0010
0000
0100
0010
0100
0000
0001
0010
0000
0000
0000
0001
,  // measure 9
1000
0001
1000
0000
1000
0000
0100
0000
1000
0000
0100
0010
0000
0000
0001
0000
,  // measure 10
0100
0010
0100
0000
0010
0000
0010
0000
1000
0000
0001
1000
0000
0000
0001
0010
,  // measure 11
0001
0000
0100
0010
0000
0000
0010
0100
0010
0100
0010
0100
0000
0000
0000
0000
,  // measure 12
0110
0000
0000
0010
1000
0000
2000
0000
0001
0000
0000
0000
3001
0000
0000
0000
,  // measure 13
1000
0100
1000
0000
0001
0000
0100
0000
0010
0000
1000
0000
0100
0000
0000
0000
,  // measure 14
1000
0001
1000
0001
1000
0000
0010
0100
0010
0000
0100
0001
0100
0000
0001
0000
,  // measure 15
1000
0010
1000
0010
MMMM
0000
0001
0000
0020
0000
0000
0000
0000
0000
0030
0000
,  // measure 16
0110
0000
0010
0100
0010
0000
1000
0000
2000
0000
0001
0000
3001
0000
0000
0001
,  // measure 17
0010
0000
0001
0010
0000
0000
0001
0000
1000
0000
0100
0000
1000
0000
0000
0000
,  // measure 18
0010
0000
0000
0100
0010
0000
0100
0000
0200
0000
1000
0000
0310
0000
0100
0010
,  // measure 19
0100
0000
0001
0010
0001
0000
1000
0001
1000
0000
0010
1000
0010
0000
0000
0000
,  // measure 20
1010
0000
1000
0000
1000
0010
1000
0010
2000
0000
0000
0000
3001
0000
1000
0100
,  // measure 21
1000
0000
0100
0010
0000
0000
0010
0100
0010
0000
0001
1000
0000
0000
0010
0100
,  // measure 22
0010
0100
0010
0100
0010
0000
1000
0000
2000
0000
0000
0000
3001
0000
1000
0000
,  // measure 23
0010
0000
0100
0010
0100
0000
0100
0000
0001
0000
0010
0001
0000
0000
0000
0000
,  // measure 24
0011
0000
0001
0000
1000
0000
0001
0000
0010
0000
0001
0010
0001
0000
1000
0000
,  // measure 25
0001
0000
0010
0000
0100
0000
0010
0000
0100
0000
1000
0100
1000
0000
0000
0000
,  // measure 26
0001
0100
0001
0010
0200
0000
1300
0001
,  // measure 27
1000
0000
0010
0000
0001
0000
0010
0000
1000
0000
0100
0000
1000
0000
0000
1000
,  // measure 28
0010
1000
0010
0000
0020
0000
2000
0000
0000
0000
0000
0000
3030
0000
0000
0001
,  // measure 29
0100
0001
0100
0000
0002
0000
0200
0000
0000
0000
0000
0000
0303
0000
0000
0001
,  // measure 30
0100
0001
0100
0000
0001
0000
1000
0100
1000
0000
0010
0100
0000
0000
0000
0010
,  // measure 31
1000
0010
1000
0000
0100
0000
0010
0100
0010
0000
0001
0010
0000
0000
0000
0001
,  // measure 32
0010
0001
0010
0000
0010
0000
0001
1000
0002
0000
0000
0000
1003
0000
0001
0000
,  // measure 33
0100
0000
0010
0100
0010
0000
0100
0001
0200
0000
0000
0000
0301
0000
0100
0000
,  // measure 34
0010
0000
1000
0010
1000
0000
0001
0000
0002
0000
0000
0000
0103
0000
0000
0100
,  // measure 35
0001
1000
0001
0010
0020
0000
0130
0000
,  // measure 36
0110
0000
0100
0000
1000
0000
0100
0010
0100
0000
0010
0000
0001
0000
0010
0100
,  // measure 37
0010
0000
0001
0000
1000
0000
0100
0000
0001
0000
0100
1000
0000
0000
1000
0000
,  // measure 38
0001
0010
0001
0010
0100
1000
0100
1000
,  // measure 39
0010
1000
0010
0000
2040
0000
0000
0000
3000
0000
0000
0000
2030
0000
0000
0000
,  // measure 40
0000
0000
0000
0000
0000
0000
0000
0000
0000
0000
0000
0000
3010
0000
0000
1000
,  // measure 41
0010
0000
1000
0000
1000
0000
0001
0000
0200
0000
0000
0310
0100
0000
0000
0100
,  // measure 42
0001
0000
1000
0000
0002
0000
0000
0000
0103
0001
0100
0001
0100
0000
0000
0010
,  // measure 43
1000
0000
0001
0000
4000
0000
0000
0000
3004
0000
0000
0000
1003
0000
0000
0001
,  // measure 44
0100
0000
0010
0000
0110
0000
0000
0000
1001
0000
0000
0000
0110
0000
0010
1000
,  // measure 45
0010
0000
1000
0000
0001
0000
1000
0000
2000
0000
0000
3100
1000
0000
1000
0010
,  // measure 46
1000
0000
0010
0000
0100
0000
0001
0000
0100
0001
0100
0001
0100
0000
0001
1000
,  // measure 47
0001
0000
1000
0000
0040
0000
0000
0000
4030
0000
0000
0000
3100
0000
0000
0100
,  // measure 48
0010
0000
0100
0000
0110
0000
0000
0000
1001
0000
0000
0000
0110
0000
0100
0010
,  // measure 49
0100
0000
0001
0000
1000
0000
0001
0000
1000
0000
0001
0010
0001
0000
0100
0001
,  // measure 50
0000
0000
0100
0000
0100
0000
0000
0010
0100
0010
0100
0010
0100
0000
0100
0010
,  // measure 51
1000
0000
0001
0000
0001
0000
0000
0000
0100
0000
0010
0000
0100
0000
0000
0001
,  // measure 52
0100
0000
0001
0000
1000
0010
1000
0010
0000
0000
1000
0000
1010
0000
0010
0000
,  // measure 53
0100
0010
0100
0000
0001
0010
0000
0001
0010
0000
0001
1000
0001
0000
1000
0100
,  // measure 54
1000
0000
0010
0000
0100
0010
0100
0010
0100
0000
0010
0100
0001
0000
0001
0000
,  // measure 55
1000
0001
1000
0000
0001
0000
0000
0100
0001
0000
0100
0000
0010
0000
1000
0001
,  // measure 56
1000
0000
1000
0000
0010
0000
0000
0100
0010
0000
0100
0000
0101
0000
0001
0000
,  // measure 57
0001
0010
1000
0010
0001
0010
1000
0010
0001
0010
1000
0010
0001
0000
1000
0000
,  // measure 58
0010
0000
0100
0010
0100
1000
0100
0010
0200
0000
0000
0000
0302
0000
1003
0002
,  // measure 59
0000
0000
0000
0000
1000
0000
0003
0000
2000
0000
3000
1000
0001
0000
2000
0000
0000
0000
0000
0000
0010
0000
3000
0000
0020
0000
0000
0000
0130
0000
0020
0000
,  // measure 60
0000
0000
0000
0000
0100
0000
0030
0000
0200
0000
0300
0100
0001
0000
0200
0000
0000
0000
0000
0000
0010
0000
0300
0000
0110
0000
0000
0000
0000
0000
0000
0000
,  // measure 61
0100
0000
0001
0000
1000
0001
0000
0000
1000
0000
0100
1000
0000
0000
0100
0000
,  // measure 62
1000
0001
1000
0010
0100
0001
0010
0001
,  // measure 63
0010
0100
0010
0001
0010
1000
0010
0001
,  // measure 64
0010
0001
0010
0000
0001
0100
0001
0100
0001
0100
0001
0000
0101
0000
0000
0100
,  // measure 65
0010
0000
1000
0100
1000
0000
0001
0000
1000
0000
0001
0000
1000
0000
0000
0010
,  // measure 66
1000
0000
0010
0100
0010
0000
1000
0010
0000
1000
0010
0000
0200
0000
0300
0000
,  // measure 67
0001
0000
0010
0000
0002
0000
0003
0000
0002
0000
0103
0001
0200
0000
0310
0000
,  // measure 68
0200
0300
0002
1003
0002
0003
1000
0001
,  // measure 69
1000
0000
0001
0000
1000
0000
0010
0100
0000
0010
0001
0010
1000
0000
0000
0000
,  // measure 70
1000
0000
0010
1000
0010
0000
0100
0010
0100
0000
0001
0000
2000
3000
M002
0003
,  // measure 71
020M
0300
0M20
0030
02M0
0300
2M00
3000
M200
0300
0M02
0003
002M
0030
02M0
0300
,  // measure 72
2M00
3000
M020
0030
02M0
0300
0M20
0030
00M2
0003
002M
0030
02M0
0300
0M20
0030
,  // measure 73
10M0
0000
1000
0100
1000
0000
0010
0000
1000
0000
0001
0000
0020
0030
00M2
0003
,  // measure 74
020M
0300
0M20
0030
01M0
0010
0100
0010
0100
0010
0100
0010
0200
0300
0M20
0030
,  // measure 75
20M0
3000
M020
0030
00M2
0003
002M
0030
20M0
3000
M200
0300
0M20
0030
02M0
0300
,  // measure 76
0M02
0003
020M
0300
2M00
3000
M200
0300
0M20
0030
02M0
0300
2M00
3000
M002
0003
,  // measure 77
100M
0000
1000
0010
1000
0000
1000
0000
0010
0000
1000
0000
0200
0300
2M00
3000
,  // measure 78
M002
0003
002M
0030
00M1
0010
0001
0010
0001
0010
0001
0010
0001
0000
0000
0000
;

//---------------dance-single - ----------------
#NOTES:
     dance-single:
     :
     Medium:
     8:
     0.570679,0.721529,0.146596,0.322512,0.333507,545.000000,525.000000,20.000000,44.000000,4.000000,0.000000,0.570679,0.721529,0.146596,0.322512,0.333507,545.000000,525.000000,20.000000,44.000000,4.000000,0.000000:
0000
0000
0000
0000
,
0000
0000
0000
0000
,
0000
0000
0000
0000
,
0000
0000
0000
0000
,
0011
0000
0001
0020
0000
0000
0031
0000
,
1000
0000
0000
0001
0000
0000
2000
0000
0000
0000
0000
0000
3010
0000
0000
0000
,
1000
0000
0000
0001
0000
0000
0200
0000
0000
0000
0000
0000
0301
0000
0000
0000
,
0100
0000
0000
0010
0000
0000
0200
0000
0000
0000
0000
0000
0010
0000
0310
0000
,
0110
0000
0000
0000
0010
0000
0100
0000
0001
0000
0010
0001
0000
0000
0001
0000
,
1000
0000
0000
0000
0010
0000
0100
0000
0001
0000
0100
0010
0000
0000
0000
0000
,
0100
0000
0000
0000
0010
0000
0100
0000
0010
0000
1000
0010
0000
0000
0010
0100
,
0010
0000
0100
0001
0000
0000
0001
0000
1000
0100
1000
0100
0000
0000
0000
0000
,
1100
0000
1000
0002
1000
0000
1003
0000
,
0001
0100
0010
0000
0010
0100
0010
0000
,
1000
0000
0001
0000
1000
0000
0010
0100
0010
0000
0100
0010
0100
0000
0001
0000
,
1000
0010
MMMM
0010
2000
0000
0000
3000
,
1010
0000
0000
0010
0000
0000
2000
0000
0001
0000
0001
0000
3001
0000
0000
0000
,
1000
0000
0000
0010
1000
0000
0001
0000
0002
0000
0100
0000
1003
0000
0000
0000
,
0001
0000
0100
0000
1000
0000
0100
0000
0001
0000
0100
0000
0010
0000
0100
0010
,
1000
0000
0010
0100
0001
0000
0100
0001
0010
0000
0001
1000
0001
0000
0000
0000
,
0101
0000
0000
0001
0000
0000
0100
0000
0200
0000
0000
0000
0301
0000
1000
0100
,
1000
0000
0000
0010
1000
0000
0010
0000
0020
0000
0000
0000
0130
0000
0010
0100
,
0010
0000
0000
0100
0001
0000
0010
0000
0020
0000
0000
0000
0031
0000
1000
0000
,
0001
0000
0010
0100
0010
0000
0001
0000
1000
0000
0010
1000
0000
0000
0000
0000
,
1001
0000
0001
1000
2000
0000
3010
0000
,
0010
0000
0000
0100
0010
0000
1000
0000
2000
0000
0000
0000
3001
0000
0000
0000
,
0001
0000
0001
0010
0020
0000
0031
0000
,
0001
0000
0000
0010
0001
0000
0010
0000
0020
0000
0000
0000
0031
0000
0000
0000
,
0011
0000
0020
0000
0001
0030
0010
0000
,
0001
1000
0020
0000
0001
0000
1030
0000
,
0010
1000
0010
0000
1000
0000
0001
0010
0001
0000
0010
0001
0000
0000
0000
0000
,
1000
0010
1000
0000
0100
0000
0010
0100
0010
0000
0010
0100
0000
0000
0000
0000
,
0110
0000
0010
0001
0002
0000
1003
0001
,
0100
0000
0000
0010
0100
0000
0010
0000
0020
0000
0000
0000
1030
0000
0010
0000
,
1000
0000
0000
0000
1000
0000
0001
0000
0002
0000
0000
0000
0103
0000
0000
0100
,
0001
0000
1000
0000
0001
0000
0010
0000
0001
0000
1000
0001
0000
0000
0000
0000
,
1001
0000
0001
0000
1000
0000
0100
1000
0100
0000
0010
0000
0001
0000
0010
0001
,
0010
0000
0100
0000
1000
0000
0010
0000
0100
0000
0001
0100
0000
0000
0001
0000
,
1000
0010
0001
0010
1000
0010
0001
0010
,
1000
0100
2200
0000
3000
0000
2300
0000
,
0000
0000
0000
0000
0000
0000
0000
0000
0000
0000
0000
0000
3100
0000
0000
1000
,
0000
0000
1000
0000
0001
0000
1000
0000
0002
0000
0000
0000
0103
0000
0000
0001
,
0010
0000
0001
0000
1000
0000
0010
0000
0100
0010
0100
0010
0100
0000
0000
0010
,
0000
0000
1000
0000
2000
0000
0000
0000
0001
0000
0000
0000
3001
0000
0000
1000
,
0100
0000
1000
0000
1100
0000
0000
0000
0110
0000
0000
0000
1100
0000
0000
1000
,
0000
0000
0001
0000
0100
0000
0001
0000
0200
0000
0000
0000
0310
0000
0000
0100
,
0001
0000
0010
0000
0100
0000
1000
0000
0100
1000
0100
1000
0100
0000
0000
0010
,
0000
0000
0001
0000
0002
0000
0000
0000
1000
0000
0000
0000
0103
0000
0000
0001
,
0010
0000
0001
0000
0011
0000
0000
0000
0101
0000
0000
0000
0011
0000
0000
0010
,
0000
0000
0001
0000
1000
0000
0001
0000
1000
0000
0001
0010
0001
0000
0100
0001
,
0000
0000
0100
0000
0100
0000
0000
0010
2000
0000
0010
0000
3010
0000
0000
1000
,
0010
0000
0100
0000
0001
0000
0000
0000
0001
0000
1000
0000
0100
0000
0000
0010
,
0100
0000
1000
0000
0001
0000
1000
0001
0000
0000
0001
0000
0011
0000
0010
0000
,
0100
0010
0000
0000
0001
0010
0000
0001
0010
0000
0001
0000
1000
0000
1000
0000
,
1000
0010
0000
0000
0100
0010
0000
0100
0010
0000
0100
0000
0001
0000
0001
0000
,
1000
0001
0000
0000
0100
0000
0000
0010
0100
0000
0010
0000
0010
0000
1000
0000
,
0010
1000
0000
0000
0010
0000
0000
0100
0010
0000
0100
0000
0110
0000
0010
0000
,
1000
0000
0001
0000
1000
0100
1000
0100
0010
0001
0010
0001
0010
0000
0100
0000
,
0010
0000
0001
0010
0100
0010
0001
0010
0200
0000
0000
0000
2300
3000
0100
2000
,
0000
0000
0001
3000
0002
0003
0010
0002
0000
0000
0000
0003
0020
0000
0130
0020
,
0000
0000
0000
0030
0200
0000
1300
0200
0000
0000
0000
0300
1100
0000
0000
0000
,
0100
2000
0001
0000
0001
3000
1000
0000
,
0001
0200
0000
0000
0001
0300
0010
0100
,
0001
1000
0010
0001
0010
1000
0100
0010
,
0001
0000
0010
0000
0100
0000
1000
0000
0100
0000
0010
0000
0110
0000
0000
0010
,
0000
0000
0010
0001
0000
0000
1000
0000
0100
0000
1000
0100
0000
0000
0000
0100
,
1000
0000
0010
0100
0000
0000
0001
0010
0000
0000
0100
0010
0200
0000
0300
0000
,
1000
0100
2000
3000
0001
0100
0002
0003
,
0100
0010
0100
0010
0100
0010
0100
0001
,
0010
0000
0100
0000
1000
0000
0010
0100
0000
0010
0100
0010
0100
0000
0000
0000
,
0001
0010
0001
0000
1000
0001
1000
0010
,
0001
0010
1000
0100
0001
0100
1000
0001
,
0010
0100
0010
0001
0100
0010
1000
0100
,
0010
0000
0100
0010
0100
0000
1000
0000
0001
0000
1000
0000
0001
0000
0010
0000
,
1000
0010
0002
0000
0100
0000
1003
0001
,
0010
0100
1000
0100
0010
0100
1000
0001
,
0010
1000
0010
0001
0100
1000
0100
0001
,
0010
0000
0001
0010
0001
0000
1000
0000
0010
0000
1000
0000
0010
0000
0001
0000
,
0010
0100
0020
0000
0100
0000
1030
0000
;

//---------------dance-single - ----------------
#NOTES:
     dance-single:
     :
     Easy:
     5:
     0.378009,0.461779,0.065968,0.359161,0.021989,361.000000,352.000000,9.000000,49.000000,0.000000,0.000000,0.378009,0.461779,0.065968,0.359161,0.021989,361.000000,352.000000,9.000000,49.000000,0.000000,0.000000:
0000
0000
0000
0000
,
0000
0000
0000
0000
,
0000
0000
0000
0000
,
0000
0000
0000
0000
,
1001
0000
0000
2000
0000
0000
3010
0000
,
0010
0000
0000
0200
0000
0000
0301
0000
,
0100
0000
0000
0002
0000
0000
0013
0000
,
0001
0000
0000
2000
0000
0000
3010
0000
,
1010
0010
1000
0100
,
0010
0001
0100
0001
,
0010
0100
1000
0010
,
1000
0010
0100
0001
,
1000
0100
0010
0100
1000
0000
1000
0000
,
0001
0010
0100
0000
0100
0010
0001
0000
,
1000
0001
1000
0000
0010
0100
0010
0000
,
2000
0000
0001
0001
0001
0000
0000
0000
,
3001
0000
0000
0002
1000
0000
1003
0000
,
0001
0000
0000
0002
0000
0000
0013
0000
,
0001
0000
0000
0200
0000
0000
0310
0000
,
1000
0001
0010
0001
,
1000
0000
0000
2000
0000
0000
3001
0000
,
1000
0000
0000
0020
0000
0000
0130
0000
,
0010
0000
0000
2000
0000
0000
3002
0000
,
1000
0100
0010
0100
,
1003
0000
0010
0020
0000
0000
0130
0000
,
0010
0000
1000
0002
0000
0000
0013
0000
,
0001
0000
0100
0200
0000
0000
0310
0000
,
0100
0000
0001
0002
0000
0000
1003
0000
,
1001
0000
2000
0000
0001
3000
1000
0000
,
0100
1000
0200
0000
0010
0300
0100
0000
,
1000
0010
1000
0100
0010
0100
1000
0000
,
0001
0100
0001
0010
0100
0010
0001
0000
,
0011
0000
0010
0020
0000
0000
0130
0000
,
0010
0000
1000
0200
0000
0000
1300
0000
,
0100
0000
0010
0002
0000
0000
0103
0000
,
0001
1000
0001
0000
0001
0010
0100
0000
,
0110
0000
0010
0000
0001
0001
0001
0000
,
1000
0010
0100
0001
,
0010
0010
0010
0010
,
0010
0100
0020
0000
0030
0000
0002
0000
,
0000
0000
0000
0013
,
0001
0010
0100
0000
0010
0000
0010
0000
,
0001
1000
0100
0000
0200
0000
1300
0000
,
0001
1000
0020
0000
0100
0000
1030
0000
,
0010
0100
0010
0000
0010
0000
0110
0000
,
1000
0001
0100
0000
0001
0000
0001
0000
,
1000
0010
0100
0000
0200
0000
0301
0000
,
1000
0200
1000
0310
,
0100
0010
0100
0000
0100
0000
0110
0000
,
0010
0001
0100
0000
0001
0000
1000
0010
,
1000
0000
0100
0000
1000
0000
0000
0000
0020
0000
0000
0000
0130
0000
0000
0100
,
0000
0000
0100
0000
0001
0000
0000
0000
0001
0000
1000
0000
0010
0000
0000
0010
,
0000
0010
0100
0000
0001
0001
0001
0000
,
1000
0001
0010
0100
,
1000
0001
0100
0001
,
0010
0100
0010
0001
,
0010
0000
1000
0000
0010
0010
0210
0010
,
0000
1000
0000
0010
0000
1000
0320
0100
,
0000
0000
0001
0000
0000
0000
0100
0000
0000
0000
0001
0000
2030
0000
3000
2000
,
0000
0000
0001
3000
0200
0000
0300
0200
0000
0000
0010
0300
0020
0000
0030
0020
,
0000
0000
1000
0030
0002
0000
0003
0002
0000
0000
0100
0003
0100
0000
0000
0000
,
0100
0001
0100
1000
,
0100
0010
1000
0010
,
0100
0000
0001
0000
1000
0000
0001
0010
,
0001
0010
0100
1000
0100
1000
1100
0000
,
1000
0010
0100
0010
,
1000
0000
0001
0010
0001
0010
0002
0000
,
1000
1003
2000
3000
2000
0000
3200
0000
,
0010
0010
0320
0030
0020
0000
0130
0010
,
0001
0010
0100
0010
0001
0010
0200
0000
,
2300
0000
3002
0000
1003
0001
1000
0000
,
0001
0000
1000
0100
0001
0010
1000
0000
,
1000
0000
0001
0100
1000
0010
0001
0000
,
0100
0000
0010
1000
0010
1000
0010
0000
,
1000
1000
2000
0000
0100
0000
3001
0000
,
1000
0000
0001
0100
0010
0100
0001
0000
,
0001
0000
1000
0010
0100
0010
1000
0000
,
1000
0000
0001
0100
0001
0100
0001
0000
,
0100
0100
0200
0000
0001
0000
0310
0000
;

//---------------dance-single - ----------------
#NOTES:
     dance-single:
     :
     Beginner:
     3:
     0.252355,0.346334,0.087958,0.417800,0.014660,241.000000,229.000000,12.000000,57.000000,0.000000,0.000000,0.252355,0.346334,0.087958,0.417800,0.014660,241.000000,229.000000,12.000000,57.000000,0.000000,0.000000:
0000
0000
0000
0000
,
0000
0000
0000
0000
,
0000
0000
0000
0000
,
0000
0000
0000
0000
,
0002
0000
0000
0020
0000
0000
0033
0000
,
2000
0000
0000
0200
0000
0000
3300
0000
,
0200
0000
0000
0020
0000
0000
0330
0000
,
0002
0000
0000
2000
0000
0000
3003
0000
,
1001
0001
0000
0100
,
0000
0001
0000
1000
,
0000
0100
0000
0010
,
0000
0001
0000
0010
,
0011
0000
0001
0001
,
0001
0000
1000
1000
,
1000
0000
0010
0100
,
0002
0000
0000
0000
,
0103
0000
0000
0200
0000
0000
0300
0000
,
0010
0000
0000
0020
0000
0000
0030
0000
,
1000
0000
0000
2000
0000
0000
3000
0000
,
0001
0000
0000
0002
0000
0000
0003
0000
,
1000
0000
0000
2000
0000
0000
3010
0000
,
0010
0000
0000
0020
0000
0000
0130
0000
,
0100
0000
0000
0200
0000
0000
0301
0000
,
0001
0000
0000
0002
0000
0000
0103
0000
,
0101
0001
0000
1000
,
0000
0001
0000
0010
,
0000
0100
0000
0010
,
0000
0001
0000
1000
,
0002
0000
0003
0002
0000
0000
0003
0000
,
0200
0000
0300
0200
0000
0000
0300
0000
,
0020
0000
0030
0020
0000
0000
0030
0000
,
2000
0000
3000
2000
0000
0000
3000
0000
,
1100
0100
0000
1000
,
0000
0001
0000
0010
,
0000
0001
0000
0100
,
0000
0001
0000
0010
,
0011
0000
0001
0001
,
0001
0000
1000
1000
,
2000
0000
3000
2000
0000
0000
3000
0000
,
0220
0000
0030
0020
0000
0000
0030
0000
,
0000
0000
0000
0310
,
0001
0100
0001
1000
,
0100
1000
0002
0013
,
0001
0020
0000
0130
,
0100
2000
0000
3010
,
1000
0100
0010
0100
,
1000
0001
2000
3001
,
0010
0020
0000
0031
,
0100
0002
0000
1003
,
0001
0100
0010
1000
,
0100
0010
0100
1000
,
1000
0010
1000
0000
0001
0000
0100
0000
,
0001
0010
0001
0000
1000
0000
0010
0000
,
0100
0010
1000
0100
,
1000
0001
0100
0010
,
0100
0001
1000
0100
,
1000
0000
0100
0000
0010
0000
0110
0010
,
0000
0010
0000
0010
0000
0010
0100
0100
,
0000
0000
0100
0000
0000
0000
0100
0000
0000
0000
0100
0000
2000
0000
0000
0002
,
0000
0000
0000
3003
2000
0000
0000
0200
0000
0000
0000
3300
0200
0000
0000
0020
,
0000
0000
0000
0330
0002
0000
0000
0200
0000
0000
0000
0303
0000
0000
0000
0000
,
0100
0000
0001
0000
,
1000
0000
0010
1000
,
0100
0010
0100
1000
,
0002
0100
0100
0103
,
0001
1000
0001
0010
,
0100
0010
0001
0002
,
2003
3200
0320
0230
,
2300
0000
3002
0000
0023
0000
0031
0010
,
0001
0100
0001
0100
,
0100
0100
0100
0101
,
0001
0000
0001
1001
,
1000
0000
1000
1100
,
0100
2000
0001
0000
0100
0000
3001
0000
,
1000
0200
0000
0310
,
0100
0000
0100
0110
,
0010
0000
0010
0011
,
0001
0200
0010
0000
0001
0000
0310
0000
,
0100
0002
0000
1003
;
